osu file format v14

[General]
AudioFilename: audio.mp3
AudioLeadIn: 0
PreviewTime: 29611
Countdown: 0
SampleSet: Normal
StackLeniency: 0.4
Mode: 0
LetterboxInBreaks: 0
WidescreenStoryboard: 1

[Editor]
Bookmarks: 30188
DistanceSpacing: 1.4
BeatDivisor: 2
GridSize: 8
TimelineZoom: 1.7

[Metadata]
Title:Multiverse
TitleUnicode:Multiverse
Artist:Wintergatan
ArtistUnicode:Wintergatan
Creator:negusver
Version:Normal
Source:Twinsters Documentary
Tags:instrumental soundtrack score Martin Molin Mark De Gli Antoni Marble Machine Netflix
BeatmapID:1405223
BeatmapSetID:656841

[Difficulty]
HPDrainRate:4
CircleSize:3.2
OverallDifficulty:4
ApproachRate:5
SliderMultiplier:1
SliderTickRate:1

[Events]
//Background and Video events
0,0,"bg.jpg",0,0
//Break Periods
//Storyboard Layer 0 (Background)
//Storyboard Layer 1 (Fail)
//Storyboard Layer 2 (Pass)
//Storyboard Layer 3 (Foreground)
//Storyboard Sound Samples

[TimingPoints]
477,288.461538461538,3,2,1,50,1,0
2207,-161.290322580645,3,2,1,50,0,0
29755,-128.205128205128,3,1,1,74,0,0
57592,-128.205128205128,3,1,1,80,0,1
71438,-161.290322580645,3,1,1,60,0,0
89611,-161.290322580645,3,1,1,5,0,0

[Colours]
Combo1 : 15,94,240
Combo2 : 233,233,233
Combo3 : 215,215,215
Combo4 : 83,139,244
SliderBorder : 233,233,233
SliderTrackOverride : 40,42,68

[HitObjects]
323,202,2207,5,2,0:0:0:0:
285,172,3073,1,0,0:0:0:0:
247,143,3938,2,0,P|227:184|245:260,1,123.999995080567,2|2,0:0|0:0,0:0:0:0:
190,314,4803,2,0,P|159:262|148:201,1,123.999995080567,2|2,0:0|0:0,0:0:0:0:
167,124,5669,1,0,0:0:0:0:
299,315,6534,1,0,0:0:0:0:
395,154,9130,5,2,0:0:0:0:
347,163,9996,1,0,0:0:0:0:
311,129,10861,2,0,P|276:119|190:162,1,123.999995080567,2|2,0:0|0:0,0:0:0:0:
132,110,11726,2,0,P|178:67|246:43,1,123.999995080567,2|2,0:0|0:0,0:0:0:0:
312,46,12592,1,2,0:0:0:0:
129,194,13457,1,2,0:0:0:0:
109,235,16053,37,2,0:0:0:0:
153,215,16919,1,0,0:0:0:0:
173,171,17784,2,0,P|196:204|285:238,1,123.999995080567,2|2,0:0|0:0,0:0:0:0:
269,159,18650,2,0,P|337:161|405:138,1,123.999995080567,2|2,0:0|0:0,0:0:0:0:
460,112,19515,1,2,0:0:0:0:
506,334,20380,1,0,0:0:0:0:
300,224,21246,1,2,0:0:0:0:
300,224,22111,6,0,P|246:237|171:211,1,123.999995080567,2|2,0:0|0:0,0:0:0:0:
121,168,22976,1,2,0:0:0:0:
198,369,23842,1,0,0:0:0:0:
370,300,24707,1,2,0:0:0:0:
370,300,25573,38,0,P|293:302|239:282,1,123.999995080567,2|2,0:0|0:0,0:0:0:0:
222,214,26438,2,0,P|160:203|85:212,1,123.999995080567,2|2,0:0|0:0,0:0:0:0:
50,268,27303,1,0,0:0:0:0:
256,375,28169,1,2,0:0:0:0:
0,244,29900,21,12,0:3:0:0:
95,191,30188,2,0,B|127:182|160:191|144:199|177:207|209:199,1,117.000003927612,2|0,0:2|0:2,0:0:0:0:
261,180,30765,1,8,0:0:0:0:
294,283,31053,2,0,B|261:274|228:283|244:291|211:299|179:291,1,117.000003927612,2|4,0:2|0:0,0:0:0:0:
126,276,31630,2,0,P|102:187|134:117,1,156.000005236817,12|2,0:3|0:2,0:0:0:0:
220,77,32496,6,0,P|167:84|109:46,1,117.000003927612,10|0,0:3|0:0,0:0:0:0:
78,11,33073,1,2,0:0:0:0:
17,101,33361,1,12,0:3:0:0:
110,157,33650,2,0,P|129:223|110:278,1,117.000003927612,2|0,0:2|0:0,0:0:0:0:
82,310,34226,2,0,B|126:298|170:310|148:321|192:332|236:321,1,156.000005236817,10|2,0:0|0:2,0:0:0:0:
311,243,35092,37,4,0:0:0:0:
205,214,35380,2,0,P|184:158|215:83,1,117.000003927612,2|0,0:2|0:0,0:0:0:0:
234,64,35957,2,0,P|274:58|326:63,1,78.0000026184083,2|2,0:0|0:0,0:0:0:0:
389,137,36534,1,6,0:0:0:0:
284,170,36823,5,12,0:3:0:0:
374,231,37111,2,0,B|406:239|439:231|423:222|456:214|488:222,1,117.000003927612,2|0,0:2|0:0,0:0:0:0:
509,273,37688,1,10,0:0:0:0:
408,320,37976,2,0,B|372:326|338:316|353:310|312:303|277:311,1,117.000003927612,2|4,0:2|0:0,0:0:0:0:
237,304,38553,2,0,P|214:234|252:162,1,156.000005236817,12|2,0:3|0:2,0:0:0:0:
337,98,39419,38,0,P|272:108|203:74,1,117.000003927612,10|4,0:3|0:0,0:0:0:0:
177,64,39996,1,2,0:0:0:0:
84,120,40284,1,10,0:3:0:0:
4,44,40573,2,0,P|53:11|120:16,1,117.000003927612,2|0,0:2|0:0,0:0:0:0:
160,30,41150,2,0,B|203:40|247:30|225:19|269:8|312:19,1,156.000005236817,10|2,0:0|0:2,0:0:0:0:
409,69,42015,5,4,0:0:0:0:
512,34,42303,2,0,P|518:70|490:145,1,117.000003927612,2|0,0:2|0:0,0:0:0:0:
453,184,42880,2,0,P|444:236|458:286,1,78.0000026184083,12|2,0:3|0:0,0:0:0:0:
509,351,43457,1,2,0:0:0:0:
404,384,43746,37,12,0:3:0:0:
304,340,44034,2,0,B|271:348|238:340|254:331|221:323|189:331,1,117.000003927612,2|0,0:2|0:0,0:0:0:0:
136,344,44611,1,10,0:0:0:0:
96,241,44900,2,0,B|132:247|166:237|151:231|192:224|227:232,1,117.000003927612,2|4,0:2|0:0,0:0:0:0:
265,236,45476,1,12,0:3:0:0:
368,201,45765,2,0,P|380:169|366:122,1,78.0000026184083,2|2,0:2|0:2,0:0:0:0:
274,73,46342,6,0,P|339:76|388:46,1,117.000003927612,10|0,0:0|0:0,0:0:0:0:
423,14,46919,1,8,0:3:0:0:
507,82,47207,1,8,0:3:0:0:
418,145,47496,2,0,B|412:181|422:215|428:200|435:241|427:276,1,117.000003927612,2|0,0:2|0:0,0:0:0:0:
421,314,48073,1,10,0:0:0:0:
314,338,48361,2,0,B|308:302|318:268|324:283|331:242|323:207,1,117.000003927612,2|4,0:2|0:0,0:0:0:0:
280,191,48938,38,0,P|241:136|262:44,1,156.000005236817,12|2,0:3|0:2,0:0:0:0:
351,104,49803,2,0,P|428:114|480:97,1,117.000003927612,10|2,0:3|0:0,0:0:0:0:
511,75,50380,1,2,0:0:0:0:
511,184,50669,1,8,0:3:0:0:
404,209,50957,2,0,B|368:215|334:205|349:199|308:192|273:200,1,117.000003927612,2|0,0:2|0:0,0:0:0:0:
247,233,51534,1,10,0:0:0:0:
175,150,51823,1,2,0:2:0:0:
34,319,52400,6,0,P|96:347|197:314,1,156.000005236817,12|2,0:3|0:2,0:0:0:0:
283,294,53265,2,0,B|319:288|353:298|338:304|379:311|414:303,1,117.000003927612,12|0,0:0|0:0,0:0:0:0:
448,281,53842,1,8,0:3:0:0:
379,196,54130,2,0,P|368:141|375:94,1,78.0000026184083,8|2,0:3|0:2,0:0:0:0:
415,90,54563,2,0,P|422:50|409:4,1,78.0000026184083,4|0,0:0|0:0,0:0:0:0:
360,0,54996,37,10,0:3:0:0:
275,69,55284,2,0,P|212:80|154:57,1,117.000003927612,2|4,0:2|0:0,0:0:0:0:
111,43,55861,1,8,0:3:0:0:
87,149,56150,2,0,P|94:192|114:231,1,78.0000026184083,2|2,0:0|0:0,0:0:0:0:
178,306,56726,1,12,0:3:0:0:
406,156,57592,5,10,0:3:0:0:
344,65,57880,2,0,P|307:54|251:61,1,78.0000026184083,2|2,0:2|0:2,0:0:0:0:
190,133,58457,1,10,0:0:0:0:
88,91,58746,1,2,0:2:0:0:
2,292,59323,37,10,0:3:0:0:
98,342,59611,2,0,P|131:351|190:344,1,78.0000026184083,2|2,0:2|0:2,0:0:0:0:
240,261,60188,2,0,P|271:259|303:261,1,39.0000013092042,10|8,0:1|0:3,0:0:0:0:
322,292,60476,2,0,P|398:283|445:259,1,117.000003927612,2|2,0:2|0:0,0:0:0:0:
475,230,61053,5,12,0:3:0:0:
436,127,61342,2,0,P|405:118|333:129,1,78.0000026184083,2|2,0:2|0:2,0:0:0:0:
299,210,61919,1,10,0:0:0:0:
194,180,62207,2,0,B|161:188|128:180|144:171|111:163|79:171,1,117.000003927612,2|8,0:2|0:2,0:0:0:0:
34,203,62784,37,10,0:3:0:0:
116,275,63073,2,0,P|188:284|253:256,1,117.000003927612,2|6,0:2|0:2,0:0:0:0:
278,247,63650,2,0,P|318:255|378:267,1,78.0000026184083,2|2,0:0|0:0,0:0:0:0:
445,322,64226,1,12,0:3:0:0:
510,234,64515,5,8,0:3:0:0:
458,137,64803,2,0,P|419:122|361:130,1,78.0000026184083,2|2,0:2|0:2,0:0:0:0:
293,185,65380,1,10,0:0:0:0:
200,126,65669,1,2,0:2:0:0:
66,299,66246,37,10,0:3:0:0:
162,350,66534,2,0,P|199:355|258:338,1,78.0000026184083,2|6,0:2|0:2,0:0:0:0:
298,255,67111,2,0,L|355:267,1,39.0000013092042,10|8,0:1|0:3,0:0:0:0:
384,289,67400,2,0,P|450:275|505:236,1,117.000003927612,2|12,0:2|0:2,0:0:0:0:
507,196,67976,5,10,0:3:0:0:
435,113,68265,2,0,P|396:101|327:114,1,78.0000026184083,2|2,0:2|0:2,0:0:0:0:
322,205,68842,1,10,0:0:0:0:
228,149,69130,2,0,B|195:141|162:149|178:158|145:166|113:158,1,117.000003927612,2|4,0:2|0:0,0:0:0:0:
59,149,69707,37,10,0:3:0:0:
89,254,69996,2,0,P|154:261|207:243,1,117.000003927612,2|0,0:2|0:0,0:0:0:0:
255,231,70573,2,0,L|335:242,1,78.0000026184083,4|0,0:2|0:0,0:0:0:0:
400,327,71150,1,2,0:0:0:0:
508,323,71438,22,0,P|515:356|507:384,1,61.9999975402833,8|4,0:3|2:1,0:0:0:0:
430,248,72303,2,0,P|430:217|457:172,1,61.9999975402833,10|2,0:0|2:2,0:0:0:0:
359,320,73169,2,0,P|310:358|231:331,1,123.999995080567,8|0,0:3|0:0,0:0:0:0:
249,271,74034,2,0,P|200:233|121:260,1,123.999995080567,10|4,0:0|0:1,0:0:0:0:
115,315,74900,6,0,P|133:349|167:371,1,61.9999975402833,8|2,0:3|2:2,0:0:0:0:
63,236,75765,2,0,P|69:183|87:156,1,61.9999975402833,10|2,0:0|0:2,0:0:0:0:
227,165,76630,2,0,P|268:179|356:165,1,123.999995080567,8|0,0:3|0:0,0:0:0:0:
363,93,77496,2,0,P|433:76|501:89,1,123.999995080567,10|4,0:0|0:1,0:0:0:0:
502,158,78361,38,0,P|501:199|511:228,1,61.9999975402833,8|2,0:3|2:2,0:0:0:0:
454,364,79226,2,0,P|453:329|440:291,1,61.9999975402833,10|2,0:0|2:2,0:0:0:0:
291,281,80092,2,0,P|233:291|166:275,1,123.999995080567,8|0,0:3|0:0,0:0:0:0:
191,202,80957,2,0,P|145:164|79:144,1,123.999995080567,10|8,0:0|0:3,0:0:0:0:
13,177,81823,37,8,0:3:0:0:
21,100,82111,2,0,P|51:58|101:34,1,92.999996310425,2|2,2:2|0:2,0:0:0:0:
122,53,82688,1,10,0:0:0:0:
195,27,82976,2,0,L|314:52,1,92.999996310425,4|0,0:0|0:0,0:0:0:0:
311,75,83553,2,0,P|349:87|389:85,1,61.9999975402833,10|4,0:3|2:1,0:0:0:0:
446,69,84130,1,0,0:0:0:0:
504,18,84419,1,8,0:3:0:0:
256,192,84707,12,0,89611,0:0:0:0:
