osu file format v14

[General]
AudioFilename: audio.mp3
AudioLeadIn: 0
PreviewTime: 29611
Countdown: 0
SampleSet: Normal
StackLeniency: 0.7
Mode: 0
LetterboxInBreaks: 0
WidescreenStoryboard: 1

[Editor]
Bookmarks: 40356,46630
DistanceSpacing: 0.6
BeatDivisor: 4
GridSize: 8
TimelineZoom: 4.599998

[Metadata]
Title:Multiverse
TitleUnicode:Multiverse
Artist:Wintergatan
ArtistUnicode:Wintergatan
Creator:negusver
Version:Lost
Source:Twinsters Documentary
Tags:instrumental soundtrack score Martin Molin Mark De Gli Antoni Marble Machine Netflix
BeatmapID:1395926
BeatmapSetID:656841

[Difficulty]
HPDrainRate:7
CircleSize:4.2
OverallDifficulty:8.5
ApproachRate:9.2
SliderMultiplier:1
SliderTickRate:1

[Events]
//Background and Video events
0,0,"bg.jpg",0,0
//Break Periods
//Storyboard Layer 0 (Background)
//Storyboard Layer 1 (Fail)
//Storyboard Layer 2 (Pass)
//Storyboard Layer 3 (Foreground)
//Storyboard Sound Samples

[TimingPoints]
477,288.461538461538,3,2,1,50,1,0
2207,-142.857142857143,3,2,1,50,0,0
5092,-142.857142857143,3,2,1,5,0,0
5236,-142.857142857143,3,2,1,50,0,0
5813,-142.857142857143,3,2,1,5,0,0
5957,-142.857142857143,3,2,1,50,0,0
12015,-142.857142857143,3,2,1,5,0,0
12159,-142.857142857143,3,2,1,50,0,0
12736,-142.857142857143,3,2,1,5,0,0
12880,-142.857142857143,3,2,1,50,0,0
18938,-142.857142857143,3,2,1,5,0,0
19082,-142.857142857143,3,2,1,50,0,0
19659,-142.857142857143,3,2,1,5,0,0
19803,-142.857142857143,3,2,1,50,0,0
23121,-142.857142857143,3,2,1,5,0,0
23265,-142.857142857143,3,2,1,50,0,0
25861,-142.857142857143,3,2,1,5,0,0
26005,-142.857142857143,3,2,1,50,0,0
26582,-142.857142857143,3,2,1,5,0,0
26726,-142.857142857143,3,2,1,50,0,0
29755,-83.3333333333333,3,1,1,74,0,0
57592,-66.6666666666667,3,1,1,80,0,1
71438,-125,3,1,1,60,0,0
89611,-125,3,1,1,5,0,0

[Colours]
Combo1 : 15,94,240
Combo2 : 233,233,233
Combo3 : 215,215,215
Combo4 : 83,139,244
SliderBorder : 233,233,233
SliderTrackOverride : 40,42,68

[HitObjects]
164,34,2207,5,2,0:0:0:0:
83,123,2496,2,0,L|155:109,1,69.9999978637696,2|2,0:0|0:0,0:0:0:0:
151,128,2928,1,0,0:0:0:0:
234,117,3073,2,0,L|277:126,1,34.9999989318848,0|2,0:0|0:0,0:0:0:0:
371,112,3361,2,0,L|294:131,1,69.9999978637696,2|2,0:0|0:0,0:0:0:0:
303,147,3794,1,0,0:0:0:0:
416,220,3938,1,2,0:0:0:0:
416,220,4371,2,0,L|370:210,1,34.9999989318848,2|2,0:0|0:0,0:0:0:0:
381,231,4803,6,0,L|311:241,1,69.9999978637696,2|0,0:0|0:0,0:0:0:0:
311,260,5236,1,2,0:0:0:0:
255,308,5380,1,2,0:0:0:0:
181,308,5525,1,0,0:0:0:0:
206,210,5669,2,0,L|221:249,1,34.9999989318848,0|0,0:0|0:0,0:0:0:0:
126,176,5957,2,0,L|135:245,1,69.9999978637696,2|2,0:0|0:0,0:0:0:0:
135,264,6390,1,0,0:0:0:0:
55,314,6534,2,0,L|66:268,1,34.9999989318848,0|2,0:0|0:0,0:0:0:0:
74,198,7400,37,2,0:0:0:0:
266,284,9130,5,2,0:0:0:0:
167,224,9419,2,0,L|244:208,1,69.9999978637696,2|2,0:0|0:0,0:0:0:0:
235,190,9851,1,0,0:0:0:0:
314,219,9996,2,0,L|355:227,1,34.9999989318848,0|2,0:0|0:0,0:0:0:0:
456,221,10284,2,0,L|378:236,1,69.9999978637696,2|2,0:0|0:0,0:0:0:0:
387,253,10717,1,0,0:0:0:0:
298,150,10861,1,2,0:0:0:0:
298,150,11294,2,0,L|256:142,1,34.9999989318848,2|2,0:0|0:0,0:0:0:0:
263,162,11726,38,0,L|184:176,1,69.9999978637696,2|0,0:0|0:0,0:0:0:0:
175,178,12159,1,2,0:0:0:0:
139,242,12303,1,2,0:0:0:0:
171,308,12448,1,0,0:0:0:0:
250,248,12592,2,0,L|212:246,1,34.9999989318848,2|0,0:0|0:0,0:0:0:0:
317,312,12880,2,0,L|242:328,1,69.9999978637696,2|2,0:0|0:0,0:0:0:0:
248,346,13313,1,0,0:0:0:0:
364,244,13457,2,0,L|315:233,1,34.9999989318848,2|2,0:0|0:0,0:0:0:0:
249,220,14323,5,2,0:0:0:0:
181,255,16053,37,2,0:0:0:0:
134,174,16342,2,0,L|214:180,1,69.9999978637696,2|2,0:0|0:0,0:0:0:0:
203,159,16775,1,0,0:0:0:0:
262,234,16919,2,0,L|310:248,1,34.9999989318848,0|2,0:0|0:0,0:0:0:0:
181,255,17207,2,0,L|232:318,1,69.9999978637696,2|2,0:0|0:0,0:0:0:0:
225,329,17640,1,0,0:0:0:0:
332,246,17784,1,2,0:0:0:0:
332,246,18217,2,0,L|284:250,1,34.9999989318848,2|2,0:0|0:0,0:0:0:0:
297,228,18650,6,0,L|217:201,1,69.9999978637696,2|0,0:0|0:0,0:0:0:0:
230,225,19082,1,2,0:0:0:0:
172,276,19226,1,2,0:0:0:0:
94,275,19371,1,0,0:0:0:0:
162,168,19515,2,0,L|155:215,1,34.9999989318848,2|0,0:0|0:0,0:0:0:0:
94,255,19803,2,0,L|71:177,1,69.9999978637696,2|2,0:0|0:0,0:0:0:0:
74,167,20236,1,0,0:0:0:0:
161,152,20380,38,0,L|211:158,1,34.9999989318848,0|2,0:0|0:0,0:0:0:0:
107,86,20669,2,0,L|188:57,1,69.9999978637696,0|2,0:0|0:0,0:0:0:0:
172,42,21101,1,0,0:0:0:0:
267,139,21246,1,2,0:0:0:0:
267,139,22111,6,0,L|184:139,1,69.9999978637696,2|2,0:0|0:0,0:0:0:0:
197,159,22544,1,0,0:0:0:0:
171,231,22688,1,2,0:0:0:0:
103,268,22832,1,0,0:0:0:0:
68,188,22976,2,0,L|110:194,1,34.9999989318848,2|0,0:0|0:0,0:0:0:0:
97,114,23265,2,0,L|177:93,1,69.9999978637696,2|2,0:0|0:0,0:0:0:0:
164,76,23698,1,0,0:0:0:0:
264,167,23842,38,0,L|307:173,1,34.9999989318848,0|2,0:0|0:0,0:0:0:0:
297,94,24130,2,0,L|368:79,1,69.9999978637696,2|2,0:0|0:0,0:0:0:0:
365,59,24563,1,0,0:0:0:0:
466,148,24707,1,2,0:0:0:0:
466,148,25140,2,0,L|424:156,1,34.9999989318848,2|2,0:0|0:0,0:0:0:0:
459,225,25573,6,0,L|404:282,1,69.9999978637696,2|0,0:0|0:0,0:0:0:0:
410,295,26005,1,2,0:0:0:0:
332,290,26150,1,2,0:0:0:0:
286,227,26294,1,0,0:0:0:0:
348,151,26438,2,0,L|313:144,1,34.9999989318848,2|0,0:0|0:0,0:0:0:0:
428,208,26726,2,0,L|349:223,1,69.9999978637696,2|2,0:0|0:0,0:0:0:0:
359,201,27159,1,0,0:0:0:0:
248,280,27303,38,0,L|294:273,1,34.9999989318848,0|2,0:0|0:0,0:0:0:0:
183,188,27592,2,0,L|262:202,1,69.9999978637696,0|2,0:0|0:0,0:0:0:0:
251,220,28025,1,0,0:0:0:0:
361,141,28169,1,2,0:0:0:0:
256,192,28457,12,0,29611,0:0:0:0:
236,203,29755,21,4,0:0:0:0:
230,186,29827,1,4,0:0:0:0:
236,169,29900,2,0,P|270:171|312:191,1,59.9999981689454,12|0,0:3|0:2,0:0:0:0:
230,292,30188,1,2,0:2:0:0:
129,253,30332,1,0,0:2:0:0:
217,313,30476,1,2,0:2:0:0:
143,232,30621,1,0,0:2:0:0:
133,124,30765,6,0,P|160:92|196:75,1,59.9999981689454,8|0,0:0|0:0,0:0:0:0:
312,108,31053,1,2,0:2:0:0:
266,205,31197,1,0,0:0:0:0:
336,123,31341,1,2,0:2:0:0:
441,149,31486,1,4,0:0:0:0:
447,166,31558,1,4,0:0:0:0:
441,183,31630,38,0,P|411:193|373:193,1,59.9999981689454,12|0,0:3|0:0,0:0:0:0:
351,47,31919,1,2,0:2:0:0:
452,83,32063,1,4,0:0:0:0:
344,73,32207,2,0,P|321:73|276:63,1,59.9999981689454,2|0,0:2|0:0,0:0:0:0:
117,166,32496,6,0,P|154:147|242:138,1,119.999996337891,10|2,0:3|0:2,0:0:0:0:
339,211,32928,1,0,0:0:0:0:
241,164,33073,1,2,0:0:0:0:
226,57,33217,1,2,0:0:0:0:
212,163,33361,38,0,P|198:197|174:225,1,59.9999981689454,12|0,0:3|0:0,0:0:0:0:
255,61,33650,1,2,0:2:0:0:
360,104,33794,2,0,P|387:114|418:118,1,59.9999981689454,12|0,0:3|0:0,0:0:0:0:
297,216,34082,1,0,0:0:0:0:
461,208,34226,6,0,P|491:221|517:242,1,59.9999981689454,10|0,0:0|0:0,0:0:0:0:
470,337,34515,1,2,0:2:0:0:
374,285,34659,1,4,0:0:0:0:
454,356,34803,1,2,0:2:0:0:
348,380,34948,1,4,0:0:0:0:
332,371,35020,1,4,0:0:0:0:
318,358,35092,37,4,0:0:0:0:
279,254,35236,1,0,0:0:0:0:
215,341,35380,1,2,0:2:0:0:
258,241,35525,2,0,P|259:213|239:178,1,59.9999981689454,4|2,0:0|0:2,0:0:0:0:
147,139,35813,1,0,0:0:0:0:
251,167,35957,5,2,0:0:0:0:
338,104,36101,1,2,0:0:0:0:
321,0,36245,1,2,0:0:0:0:
309,107,36390,1,2,0:0:0:0:
340,210,36534,1,6,0:0:0:0:
425,275,36678,1,2,0:0:0:0:
326,228,36823,38,0,P|291:224|246:240,1,59.9999981689454,12|0,0:3|0:0,0:0:0:0:
297,330,37111,1,2,0:2:0:0:
398,291,37255,1,4,0:0:0:0:
310,351,37399,1,2,0:2:0:0:
384,270,37544,1,0,0:0:0:0:
393,162,37688,6,0,P|392:125|372:87,1,59.9999981689454,10|0,0:0|0:0,0:0:0:0:
278,81,37976,1,2,0:2:0:0:
201,157,38120,1,4,0:0:0:0:
291,101,38264,1,2,0:2:0:0:
181,6,38409,1,4,0:0:0:0:
164,0,38481,1,4,0:0:0:0:
147,6,38553,38,0,P|137:36|137:74,1,59.9999981689454,12|0,0:3|0:0,0:0:0:0:
243,165,38842,1,2,0:2:0:0:
271,61,38986,1,2,0:0:0:0:
219,155,39130,2,0,P|225:203|242:222,1,59.9999981689454,2|0,0:2|0:2,0:0:0:0:
407,251,39419,6,0,P|353:249|291:271,1,119.999996337891,10|2,0:3|0:2,0:0:0:0:
289,378,39851,1,4,0:0:0:0:
264,272,39996,1,2,0:0:0:0:
166,225,40140,1,2,0:0:0:0:
270,241,40284,38,0,P|308:228|342:197,1,59.9999981689454,10|0,0:3|0:0,0:0:0:0:
164,249,40573,1,2,0:2:0:0:
283,113,40717,2,0,P|278:142|246:171,1,59.9999981689454,10|0,0:3|0:0,0:0:0:0:
117,112,41005,1,0,0:0:0:0:
275,26,41150,6,0,P|317:32|343:55,1,59.9999981689454,10|0,0:0|0:0,0:0:0:0:
414,138,41438,1,2,0:2:0:0:
300,138,41582,1,4,0:0:0:0:
412,119,41726,1,2,0:2:0:0:
511,176,41871,1,4,0:0:0:0:
506,193,41943,1,4,0:0:0:0:
497,208,42015,37,4,0:0:0:0:
332,229,42159,1,0,0:0:0:0:
412,300,42303,1,2,0:2:0:0:
347,212,42448,2,0,P|319:196|280:193,1,59.9999981689454,4|2,0:0|0:2,0:0:0:0:
223,275,42736,1,0,0:0:0:0:
273,179,42880,5,12,0:3:0:0:
223,82,43025,1,14,0:3:0:0:
115,91,43169,1,2,0:0:0:0:
220,111,43313,1,2,0:0:0:0:
323,82,43457,1,2,0:0:0:0:
399,4,43602,1,2,0:0:0:0:
352,101,43746,38,0,P|351:134|362:164,1,59.9999981689454,12|0,0:3|0:0,0:0:0:0:
473,108,44034,1,2,0:2:0:0:
425,11,44178,1,4,0:0:0:0:
489,97,44322,1,2,0:2:0:0:
405,27,44467,1,0,0:0:0:0:
297,25,44611,6,0,P|266:32|233:60,1,59.9999981689454,10|0,0:0|0:0,0:0:0:0:
156,141,44900,1,2,0:2:0:0:
263,142,45044,1,4,0:0:0:0:
158,117,45188,1,2,0:2:0:0:
101,208,45332,1,4,0:0:0:0:
111,222,45404,1,4,0:0:0:0:
124,233,45476,38,0,P|153:248|189:246,1,59.9999981689454,12|0,0:3|0:0,0:0:0:0:
328,226,45765,1,2,0:2:0:0:
337,368,45909,2,0,P|316:347|306:309,1,59.9999981689454,4|2,0:0|0:2,0:0:0:0:
427,283,46198,1,0,0:0:0:0:
257,194,46342,2,0,P|213:200|159:259,1,119.999996337891,10|2,0:0|0:2,0:0:0:0:
197,370,46775,1,0,0:0:0:0:
184,262,46919,1,8,0:3:0:0:
100,193,47063,1,4,0:0:0:0:
197,240,47207,6,0,P|226:252|267:245,1,59.9999981689454,8|0,0:3|0:0,0:0:0:0:
364,195,47496,1,2,0:2:0:0:
197,148,47640,2,0,P|166:152|139:173,1,59.9999981689454,2|2,0:0|0:2,0:0:0:0:
305,149,47928,1,0,0:0:0:0:
183,34,48073,38,0,P|202:63|249:82,1,59.9999981689454,10|0,0:0|0:0,0:0:0:0:
333,119,48361,1,2,0:2:0:0:
246,183,48505,1,4,0:0:0:0:
347,146,48649,1,2,0:2:0:0:
317,259,48794,1,4,0:0:0:0:
308,274,48866,1,4,0:0:0:0:
296,288,48938,6,0,P|269:298|227:291,1,59.9999981689454,12|0,0:3|0:0,0:0:0:0:
128,230,49226,1,2,0:2:0:0:
69,321,49371,1,4,0:0:0:0:
146,245,49515,2,0,P|165:217|169:184,1,59.9999981689454,2|0,0:2|0:0,0:0:0:0:
80,114,49803,37,10,0:3:0:0:
170,174,49947,1,2,0:0:0:0:
265,122,50091,1,2,0:0:0:0:
178,57,50236,1,2,0:0:0:0:
264,156,50380,1,2,0:0:0:0:
396,166,50524,1,2,0:0:0:0:
511,126,50669,6,0,P|513:96|507:67,1,59.9999981689454,8|0,0:3|0:0,0:0:0:0:
397,141,50958,1,2,0:2:0:0:
475,215,51102,1,4,0:0:0:0:
412,127,51246,1,2,0:2:0:0:
455,226,51390,1,0,0:0:0:0:
385,307,51534,38,0,P|351:316|302:305,1,59.9999981689454,10|0,0:0|0:0,0:0:0:0:
199,279,51823,1,2,0:2:0:0:
159,185,51967,1,4,0:0:0:0:
181,301,52111,1,2,0:2:0:0:
282,200,52255,1,4,0:0:0:0:
277,182,52327,1,4,0:0:0:0:
267,166,52400,6,0,P|241:135|210:128,1,59.9999981689454,12|0,0:3|0:0,0:0:0:0:
91,183,52688,1,2,0:2:0:0:
112,26,52832,2,0,P|104:67|115:94,1,59.9999981689454,4|2,0:0|0:2,0:0:0:0:
3,175,53121,1,0,0:0:0:0:
164,179,53265,38,0,P|205:212|227:289,1,119.999996337891,12|2,0:0|0:2,0:0:0:0:
71,269,53698,1,0,0:0:0:0:
74,149,53842,1,8,0:3:0:0:
43,264,53986,1,0,0:0:0:0:
127,349,54130,6,0,P|153:358|197:356,1,59.9999981689454,8|0,0:3|0:0,0:0:0:0:
307,319,54419,1,2,0:2:0:0:
236,237,54563,1,4,0:0:0:0:
282,334,54707,1,2,0:2:0:0:
254,229,54851,1,0,0:0:0:0:
293,127,54996,38,0,P|323:116|367:118,1,59.9999981689454,10|0,0:3|0:0,0:0:0:0:
432,220,55284,1,2,0:2:0:0:
327,198,55428,1,4,0:0:0:0:
435,198,55572,1,2,0:2:0:0:
347,310,55717,1,4,0:0:0:0:
330,317,55789,1,4,0:0:0:0:
312,320,55861,6,0,P|275:313|246:280,1,59.9999981689454,8|0,0:3|0:0,0:0:0:0:
245,180,56150,1,2,0:0:0:0:
161,246,56294,1,2,0:0:0:0:
272,199,56438,1,2,0:0:0:0:
144,226,56582,2,0,L|93:224,1,29.9999990844727,12|12,0:3|0:3,0:0:0:0:
0,165,56726,1,12,0:3:0:0:
17,292,57015,37,8,0:2:0:0:
30,312,57087,1,8,0:2:0:0:
48,330,57159,1,8,0:2:0:0:
69,343,57231,1,8,0:2:0:0:
93,351,57303,1,8,0:2:0:0:
118,353,57375,1,8,0:2:0:0:
143,350,57447,1,8,0:2:0:0:
166,341,57519,1,8,0:2:0:0:
187,328,57592,6,0,P|203:293|233:269,1,75.0000028610231,10|0,0:3|0:0,0:0:0:0:
360,195,57880,1,2,0:2:0:0:
245,292,58025,1,4,0:2:0:0:
342,178,58169,1,2,0:2:0:0:
267,307,58312,1,4,0:2:0:0:
209,166,58457,38,0,P|175:144|133:136,1,75.0000028610231,10|0,0:0|0:0,0:0:0:0:
0,233,58746,2,0,P|34:211|81:198,1,75.0000028610231,2|4,0:2|0:2,0:0:0:0:
146,263,59034,1,2,0:2:0:0:
62,170,59178,1,8,0:2:0:0:
69,140,59251,1,4,0:0:0:0:
90,117,59323,6,0,P|120:98|176:97,1,75.0000028610231,10|0,0:3|0:0,0:0:0:0:
305,120,59611,1,2,0:2:0:0:
155,118,59755,1,4,0:2:0:0:
303,93,59900,1,2,0:2:0:0:
163,145,60043,1,4,0:2:0:0:
243,21,60188,37,10,0:1:0:0:
287,195,60332,1,8,0:3:0:0:
416,69,60476,2,0,P|474:74|515:96,1,75.0000028610231,2|0,0:2|0:2,0:0:0:0:
512,172,60765,1,2,0:2:0:0:
399,50,60909,1,2,0:0:0:0:
346,222,61053,6,0,P|323:249|268:267,1,75.0000028610231,12|0,0:3|0:0,0:0:0:0:
137,279,61342,1,2,0:2:0:0:
281,240,61486,1,4,0:2:0:0:
147,306,61630,1,2,0:2:0:0:
187,160,61775,1,4,0:2:0:0:
206,346,61919,38,0,P|240:358|281:354,1,75.0000028610231,10|0,0:0|0:0,0:0:0:0:
98,180,62207,2,0,P|62:171|25:173,1,75.0000028610231,2|4,0:2|0:2,0:0:0:0:
78,266,62496,1,2,0:2:0:0:
115,155,62640,1,8,0:2:0:0:
140,138,62712,1,4,0:0:0:0:
170,136,62784,5,10,0:3:0:0:
217,240,62928,1,0,0:2:0:0:
179,112,63073,1,2,0:2:0:0:
314,150,63217,2,0,P|264:165|218:144,1,75.0000028610231,4|6,0:2|0:2,0:0:0:0:
264,56,63506,1,6,0:2:0:0:
314,150,63650,37,2,0:0:0:0:
421,147,63794,1,2,0:0:0:0:
506,80,63938,1,2,0:0:0:0:
407,124,64082,1,2,0:0:0:0:
333,202,64226,1,12,0:3:0:0:
315,309,64371,1,8,0:2:0:0:
479,345,64515,6,0,P|442:324|381:320,1,75.0000028610231,8|0,0:3|0:0,0:0:0:0:
293,342,64803,1,2,0:2:0:0:
392,230,64947,1,4,0:2:0:0:
315,359,65092,1,2,0:2:0:0:
369,220,65235,1,4,0:2:0:0:
205,229,65380,38,0,P|165:232|129:254,1,75.0000028610231,10|0,0:0|0:0,0:0:0:0:
343,120,65669,2,0,P|380:119|415:131,1,75.0000028610231,2|4,0:2|0:2,0:0:0:0:
430,215,65957,1,2,0:2:0:0:
330,93,66101,1,8,0:2:0:0:
305,75,66174,1,8,0:2:0:0:
277,64,66246,6,0,P|231:85|211:121,1,75.0000028610231,10|0,0:3|0:0,0:0:0:0:
346,180,66534,1,2,0:2:0:0:
410,44,66678,1,4,0:2:0:0:
374,190,66823,1,6,0:2:0:0:
379,40,66967,1,4,0:2:0:0:
486,147,67111,37,10,0:1:0:0:
348,257,67255,1,8,0:3:0:0:
499,359,67400,2,0,P|515:316|502:271,1,75.0000028610231,2|4,0:2|0:2,0:0:0:0:
374,190,67688,1,14,0:2:0:0:
488,284,67832,1,12,0:2:0:0:
271,250,67976,6,0,P|231:236|187:242,1,75.0000028610231,10|0,0:3|0:0,0:0:0:0:
49,256,68265,1,2,0:2:0:0:
198,265,68409,1,2,0:1:0:0:
51,230,68554,1,2,0:2:0:0:
135,353,68698,1,4,0:2:0:0:
175,163,68842,38,0,P|211:154|249:159,1,75.0000028610231,10|0,0:0|0:0,0:0:0:0:
393,297,69130,2,0,P|355:298|318:289,1,75.0000028610231,2|4,0:2|0:2,0:0:0:0:
330,200,69419,1,2,0:2:0:0:
303,314,69563,1,4,0:0:0:0:
279,332,69635,1,4,0:0:0:0:
249,337,69707,5,10,0:3:0:0:
226,226,69851,1,0,0:0:0:0:
245,363,69996,1,2,0:2:0:0:
100,290,70140,2,0,P|130:273|181:271,1,75.0000028610231,4|2,0:2|0:2,0:0:0:0:
157,384,70428,1,0,0:0:0:0:
100,290,70572,37,4,0:2:0:0:
93,181,70716,1,2,0:2:0:0:
1,122,70860,1,2,0:0:0:0:
75,204,71005,1,2,0:0:0:0:
184,219,71149,1,2,0:0:0:0:
277,160,71294,1,2,0:0:0:0:
195,240,71438,21,8,0:3:0:0:
316,149,71726,2,0,L|225:171,1,80,4|2,2:1|2:2,0:0:0:0:
238,191,72159,1,0,0:0:0:0:
372,88,72303,2,0,L|288:70,1,80,10|2,0:0|2:2,0:0:0:0:
293,95,73025,1,0,0:0:0:0:
274,92,73097,1,0,0:0:0:0:
255,87,73169,1,8,0:3:0:0:
346,195,73601,1,2,0:2:0:0:
293,95,74034,6,0,L|263:182,1,80,10|2,0:0|0:2,0:0:0:0:
242,170,74467,1,8,2:0:0:0:
299,236,74611,1,4,0:1:0:0:
270,319,74755,1,4,0:1:0:0:
145,250,74900,2,0,L|231:260,1,80,8|2,0:3|2:2,0:0:0:0:
202,179,75332,2,0,L|244:169,1,40,4|0,0:0|2:0,0:0:0:0:
241,193,75621,1,2,0:2:0:0:
115,145,75765,38,0,L|186:99,1,80,10|2,0:0|0:2,0:0:0:0:
182,125,76486,1,0,0:1:0:0:
201,122,76558,1,0,0:1:0:0:
220,118,76630,1,8,0:3:0:0:
376,147,77063,2,0,L|336:147,2,40,0|0|0,0:0|0:0|0:0,0:0:0:0:
438,83,77496,6,0,L|346:59,1,80,10|2,0:0|0:2,0:0:0:0:
346,42,77928,1,4,0:1:0:0:
339,130,78073,1,4,0:1:0:0:
268,182,78217,1,4,0:1:0:0:
212,29,78361,38,0,L|281:86,1,80,8|2,0:3|2:2,0:0:0:0:
192,112,78794,2,0,L|209:157,1,40,0|0,0:0|2:0,0:0:0:0:
207,174,79082,1,2,0:2:0:0:
113,77,79226,2,0,L|121:161,1,80,10|2,0:0|2:2,0:0:0:0:
121,181,79948,1,0,0:0:0:0:
129,199,80020,1,0,0:0:0:0:
137,216,80092,1,8,0:3:0:0:
188,106,80525,1,2,0:2:0:0:
126,300,80957,6,0,L|214:289,1,80,10|2,0:0|0:2,0:0:0:0:
206,265,81390,1,0,2:0:0:0:
304,322,81534,1,8,0:3:0:0:
236,199,81678,1,2,0:2:0:0:
259,378,81823,21,8,0:3:0:0:
259,378,82111,1,2,2:2:0:0:
411,322,82255,2,0,L|358:322,1,40,12|0,0:0|2:0,0:0:0:0:
213,198,82544,1,2,0:2:0:0:
362,305,82688,1,10,0:0:0:0:
236,339,82832,1,8,0:3:0:0:
351,287,82976,1,4,0:0:0:0:
238,358,83121,2,0,L|198:358,1,40,2|0,0:2|0:0,0:0:0:0:
275,213,83409,37,0,0:0:0:0:
283,235,83481,1,0,0:0:0:0:
284,258,83553,1,10,0:3:0:0:
154,259,83698,1,0,0:0:0:0:
273,194,83842,1,4,2:1:0:0:
220,312,83986,5,0,0:0:0:0:
179,340,84058,1,0,0:0:0:0:
129,342,84130,1,0,0:0:0:0:
87,316,84202,1,0,0:0:0:0:
65,272,84274,1,0,0:0:0:0:
71,223,84346,1,0,0:0:0:0:
108,189,84419,37,8,0:3:0:0:
256,192,84563,12,0,89611,0:0:0:0:
