osu file format v14

[General]
AudioFilename: audio.mp3
AudioLeadIn: 0
PreviewTime: 29611
Countdown: 0
SampleSet: Normal
StackLeniency: 0.7
Mode: 0
LetterboxInBreaks: 0
WidescreenStoryboard: 1

[Editor]
DistanceSpacing: 1.6
BeatDivisor: 4
GridSize: 16
TimelineZoom: 1.7

[Metadata]
Title:Multiverse
TitleUnicode:Multiverse
Artist:Wintergatan
ArtistUnicode:Wintergatan
Creator:negusver
Version:Insane
Source:Twinsters Documentary
Tags:instrumental soundtrack score Martin Molin Mark De Gli Antoni Marble Machine Netflix
BeatmapID:1394612
BeatmapSetID:656841

[Difficulty]
HPDrainRate:6
CircleSize:4
OverallDifficulty:7.5
ApproachRate:9
SliderMultiplier:1
SliderTickRate:1

[Events]
//Background and Video events
0,0,"bg.jpg",0,0
//Break Periods
//Storyboard Layer 0 (Background)
//Storyboard Layer 1 (Fail)
//Storyboard Layer 2 (Pass)
//Storyboard Layer 3 (Foreground)
//Storyboard Sound Samples

[TimingPoints]
477,288.461538461538,3,2,1,50,1,0
2207,-138.888888888889,3,2,1,50,0,0
29755,-105.263157894737,3,1,1,74,0,0
57592,-105.263157894737,3,1,1,80,0,1
71438,-138.888888888889,3,1,1,60,0,0
89611,-138.888888888889,3,1,1,5,0,0

[Colours]
Combo1 : 15,94,240
Combo2 : 233,233,233
Combo3 : 215,215,215
Combo4 : 83,139,244
SliderBorder : 233,233,233
SliderTrackOverride : 40,42,68

[HitObjects]
111,47,2207,6,0,L|38:59,1,72.0000017578125,2|2,0:0|0:0,0:0:0:0:
40,59,2928,1,0,0:0:0:0:
90,130,3073,2,0,L|174:143,2,72.0000017578125,0|2|2,0:0|0:0|0:0,0:0:0:0:
90,130,3794,1,0,0:0:0:0:
130,231,3938,2,0,L|239:211,1,108.000002636719,2|2,0:0|0:0,0:0:0:0:
236,211,4803,5,2,0:0:0:0:
236,211,5236,1,2,0:0:0:0:
246,236,5380,1,2,0:0:0:0:
250,262,5525,1,0,0:0:0:0:
248,289,5669,37,0,0:0:0:0:
194,359,5957,1,2,0:0:0:0:
208,384,6390,1,0,0:0:0:0:
208,383,6534,2,0,L|97:366,2,108.000002636719,0|0|2,0:0|0:0|0:0,0:0:0:0:
156,274,9130,6,0,L|229:262,1,72.0000017578125,2|2,0:0|0:0,0:0:0:0:
228,265,9851,1,0,0:0:0:0:
310,213,9996,2,0,L|388:226,2,72.0000017578125,0|2|2,0:0|0:0|0:0,0:0:0:0:
310,213,10717,1,0,0:0:0:0:
367,139,10861,1,2,0:0:0:0:
367,139,11726,37,2,0:0:0:0:
367,139,12159,1,2,0:0:0:0:
375,165,12303,1,2,0:0:0:0:
372,194,12448,1,0,0:0:0:0:
364,218,12592,5,2,0:0:0:0:
247,175,12880,1,2,0:0:0:0:
247,203,13313,1,0,0:0:0:0:
247,203,13457,2,0,L|138:220,1,108.000002636719,2|0,0:0|0:0,0:0:0:0:
140,219,14323,1,2,0:0:0:0:
8,135,16053,38,0,L|81:123,1,72.0000017578125,2|2,0:0|0:0,0:0:0:0:
79,123,16775,1,0,0:0:0:0:
112,195,16919,2,0,L|200:181,2,72.0000017578125,0|2|2,0:0|0:0|0:0,0:0:0:0:
112,195,17640,1,0,0:0:0:0:
272,179,17784,2,0,L|253:73,1,108.000002636719,2|2,0:0|0:0,0:0:0:0:
252,72,18650,5,2,0:0:0:0:
252,72,19082,1,2,0:0:0:0:
262,98,19226,1,2,0:0:0:0:
262,127,19371,1,0,0:0:0:0:
253,151,19515,37,2,0:0:0:0:
155,110,19803,1,2,0:0:0:0:
163,130,20236,1,0,0:0:0:0:
163,130,20380,2,0,L|84:143,2,72.0000017578125,0|0|2,0:0|0:0|0:0,0:0:0:0:
163,130,21101,1,0,0:0:0:0:
253,222,21246,2,0,L|332:235,1,72.0000017578125,2|0,0:0|0:0,0:0:0:0:
324,233,22111,5,2,0:0:0:0:
324,233,22544,1,0,0:0:0:0:
325,260,22688,1,2,0:0:0:0:
333,285,22832,1,0,0:0:0:0:
350,304,22976,37,2,0:0:0:0:
425,228,23265,1,2,0:0:0:0:
428,210,23698,1,0,0:0:0:0:
426,207,23842,6,0,L|346:194,2,72.0000017578125,0|2|2,0:0|0:0|0:0,0:0:0:0:
452,235,24563,1,0,0:0:0:0:
452,235,24707,1,2,0:0:0:0:
504,161,25573,1,2,0:0:0:0:
504,161,26005,1,2,0:0:0:0:
493,135,26150,1,2,0:0:0:0:
477,113,26294,1,0,0:0:0:0:
455,96,26438,37,2,0:0:0:0:
349,143,26726,2,0,L|273:130,1,72.0000017578125,2|2,0:0|0:0,0:0:0:0:
263,178,27159,1,0,0:0:0:0:
263,178,27303,2,0,L|186:190,2,72.0000017578125,0|0|2,0:0|0:0|0:0,0:0:0:0:
291,206,28025,1,0,0:0:0:0:
291,206,28169,1,2,0:0:0:0:
256,192,28457,12,0,29467,0:0:0:0:
183,56,29755,21,4,0:0:0:0:
184,79,29827,1,4,0:0:0:0:
183,103,29900,2,0,P|155:122|142:142,1,47.4999987316132,12|0,0:3|0:2,0:0:0:0:
265,156,30188,1,2,0:2:0:0:
265,156,30332,2,0,P|281:132|289:99,1,47.4999987316132,0|2,0:2|0:2,0:0:0:0:
347,62,30621,1,0,0:2:0:0:
365,216,30765,6,0,P|359:186|363:162,1,47.4999987316132,8|0,0:0|0:0,0:0:0:0:
463,85,31053,1,2,0:2:0:0:
463,85,31198,2,0,P|442:104|406:125,1,47.4999987316132,0|0,0:0|0:0,0:0:0:0:
296,140,31486,1,4,0:0:0:0:
298,163,31558,1,4,0:0:0:0:
300,186,31630,38,0,P|346:200|397:207,1,94.9999974632264,12|2,0:3|0:2,0:0:0:0:
429,301,32063,1,4,0:0:0:0:
429,301,32207,2,0,P|453:286|476:265,1,47.4999987316132,2|0,0:2|0:0,0:0:0:0:
317,309,32496,2,0,P|265:314|215:306,1,94.9999974632264,10|2,0:3|0:2,0:0:0:0:
115,316,32928,1,0,0:0:0:0:
143,277,33073,1,2,0:0:0:0:
141,229,33217,1,2,0:0:0:0:
60,213,33361,6,0,P|69:246|81:275,1,47.4999987316132,12|0,0:3|0:0,0:0:0:0:
148,131,33650,1,2,0:2:0:0:
148,131,33794,2,0,P|145:164|138:186,1,47.4999987316132,12|0,0:3|0:0,0:0:0:0:
152,252,34082,1,0,0:0:0:0:
220,166,34226,2,0,P|232:206|256:258,1,94.9999974632264,10|2,0:0|0:2,0:0:0:0:
272,272,34659,2,0,P|270:303|266:327,1,47.4999987316132,4|2,0:0|0:2,0:0:0:0:
358,269,34948,1,4,0:0:0:0:
356,292,35020,1,4,0:0:0:0:
353,315,35092,38,0,P|354:344|359:370,1,47.4999987316132,4|0,0:0|0:0,0:0:0:0:
445,282,35380,2,0,P|441:306|428:339,2,47.4999987316132,2|4|2,0:2|0:0|0:2,0:0:0:0:
472,273,35813,1,0,0:0:0:0:
447,247,35957,1,2,0:0:0:0:
447,211,36101,1,2,0:0:0:0:
466,181,36246,1,2,0:0:0:0:
399,159,36390,1,2,0:0:0:0:
367,96,36534,1,6,0:0:0:0:
393,31,36678,1,2,0:0:0:0:
486,74,36823,6,0,P|454:86|423:92,1,47.4999987316132,12|0,0:3|0:0,0:0:0:0:
409,192,37111,1,2,0:2:0:0:
409,192,37255,2,0,P|373:186|346:174,1,47.4999987316132,4|2,0:0|0:2,0:0:0:0:
284,135,37544,1,0,0:0:0:0:
264,253,37688,2,0,P|289:252|324:242,1,47.4999987316132,10|0,0:0|0:0,0:0:0:0:
247,339,37976,1,2,0:2:0:0:
247,339,38121,2,0,P|219:338|196:333,1,47.4999987316132,4|0,0:0|0:0,0:0:0:0:
127,256,38409,1,4,0:0:0:0:
136,234,38481,1,4,0:0:0:0:
146,212,38553,38,0,P|197:200|244:200,1,94.9999974632264,12|2,0:3|0:2,0:0:0:0:
294,274,38986,1,2,0:0:0:0:
294,274,39130,2,0,P|332:258|355:243,1,47.4999987316132,2|0,0:2|0:2,0:0:0:0:
451,194,39419,2,0,P|407:182|351:178,1,94.9999974632264,10|2,0:3|0:2,0:0:0:0:
259,202,39851,1,4,0:0:0:0:
293,234,39996,1,2,0:0:0:0:
306,279,40140,1,2,0:0:0:0:
226,322,40284,6,0,P|230:293|240:261,1,47.4999987316132,10|0,0:3|0:0,0:0:0:0:
338,158,40573,1,2,0:2:0:0:
338,158,40717,2,0,P|319:188|303:200,1,47.4999987316132,10|0,0:3|0:0,0:0:0:0:
313,270,41005,1,0,0:0:0:0:
253,146,41150,2,0,P|205:149|152:160,1,94.9999974632264,10|2,0:0|0:2,0:0:0:0:
144,179,41582,2,0,P|115:176|93:171,1,47.4999987316132,4|2,0:0|0:2,0:0:0:0:
153,267,41871,1,4,0:0:0:0:
129,264,41943,1,4,0:0:0:0:
106,259,42015,38,0,P|74:260|45:270,1,47.4999987316132,4|0,0:0|0:0,0:0:0:0:
100,345,42303,1,2,0:2:0:0:
100,345,42448,2,0,P|123:349|147:349,1,47.4999987316132,4|2,0:0|0:2,0:0:0:0:
170,332,42736,1,0,0:0:0:0:
201,316,42880,1,12,0:3:0:0:
232,331,43025,1,14,0:3:0:0:
248,366,43169,1,2,0:0:0:0:
234,297,43313,1,2,0:0:0:0:
262,233,43457,1,2,0:0:0:0:
321,197,43601,1,2,0:0:0:0:
370,271,43746,6,0,P|336:272|307:267,1,47.4999987316132,12|0,0:3|0:0,0:0:0:0:
413,161,44034,1,2,0:2:0:0:
413,161,44178,2,0,P|390:164|360:178,1,47.4999987316132,4|2,0:0|0:2,0:0:0:0:
282,195,44467,1,0,0:0:0:0:
350,91,44611,2,0,P|321:83|288:83,1,47.4999987316132,10|0,0:0|0:0,0:0:0:0:
192,161,44900,1,2,0:2:0:0:
192,161,45044,2,0,P|166:152|139:135,1,47.4999987316132,4|2,0:0|0:2,0:0:0:0:
279,166,45332,1,4,0:0:0:0:
281,189,45404,1,4,0:0:0:0:
281,217,45476,38,0,P|310:218|344:211,2,47.4999987316132,12|0|2,0:3|0:0|0:2,0:0:0:0:
217,272,45909,2,0,P|185:272|154:266,1,47.4999987316132,4|2,0:0|0:2,0:0:0:0:
162,252,46198,1,0,0:0:0:0:
287,338,46342,2,0,P|237:352|189:359,1,94.9999974632264,10|2,0:0|0:2,0:0:0:0:
91,336,46775,1,0,0:0:0:0:
78,290,46919,1,8,0:3:0:0:
91,244,47063,1,4,0:0:0:0:
150,289,47207,6,0,P|170:288|196:279,1,47.4999987316132,8|0,0:3|0:0,0:0:0:0:
327,229,47496,1,2,0:2:0:0:
327,229,47640,2,0,P|299:228|271:224,1,47.4999987316132,2|2,0:0|0:2,0:0:0:0:
203,205,47928,1,0,0:0:0:0:
288,324,48073,2,0,P|331:331|382:332,1,94.9999974632264,10|2,0:0|0:2,0:0:0:0:
403,307,48505,2,0,P|425:302|450:302,1,47.4999987316132,4|2,0:0|0:2,0:0:0:0:
348,254,48794,1,4,0:0:0:0:
353,230,48866,1,4,0:0:0:0:
357,207,48938,38,0,P|389:207|425:215,2,47.4999987316132,12|0|2,0:3|0:0|0:2,0:0:0:0:
471,145,49371,1,4,0:0:0:0:
471,145,49515,2,0,P|443:137|414:122,1,47.4999987316132,2|0,0:2|0:0,0:0:0:0:
424,96,49803,1,10,0:3:0:0:
383,55,49948,1,2,0:0:0:0:
327,42,50092,1,2,0:0:0:0:
301,126,50236,1,2,0:0:0:0:
231,156,50380,1,2,0:0:0:0:
158,131,50525,1,2,0:0:0:0:
233,27,50669,6,0,P|229:58|224:79,1,47.4999987316132,8|0,0:3|0:0,0:0:0:0:
111,138,50957,1,2,0:2:0:0:
111,138,51101,2,0,P|122:174|131:190,1,47.4999987316132,4|2,0:0|0:2,0:0:0:0:
204,229,51390,1,0,0:0:0:0:
46,209,51534,2,0,P|53:260|66:301,1,94.9999974632264,10|2,0:0|0:2,0:0:0:0:
174,324,51967,2,0,P|172:352|167:374,1,47.4999987316132,4|2,0:0|0:2,0:0:0:0:
242,276,52255,1,4,0:0:0:0:
258,258,52327,1,4,0:0:0:0:
271,238,52400,38,0,P|319:224|369:219,1,94.9999974632264,12|2,0:3|0:2,0:0:0:0:
351,136,52832,1,4,0:0:0:0:
351,136,52976,2,0,P|380:136|407:145,1,47.4999987316132,2|0,0:2|0:0,0:0:0:0:
243,147,53265,2,0,P|195:147|143:158,1,94.9999974632264,12|2,0:0|0:2,0:0:0:0:
53,202,53698,1,0,0:0:0:0:
70,157,53842,1,8,0:3:0:0:
52,106,53986,1,0,0:0:0:0:
143,63,54130,6,0,P|131:88|123:124,1,47.4999987316132,8|0,0:3|0:0,0:0:0:0:
153,177,54419,1,2,0:2:0:0:
248,106,54563,2,0,P|220:111|199:123,1,47.4999987316132,4|2,0:0|0:2,0:0:0:0:
240,208,54851,1,0,0:0:0:0:
378,149,54996,2,0,P|406:149|442:158,1,47.4999987316132,10|0,0:3|0:0,0:0:0:0:
354,258,55284,1,2,0:2:0:0:
354,258,55428,2,0,P|336:238|321:208,1,47.4999987316132,4|2,0:0|0:2,0:0:0:0:
212,126,55717,2,0,L|236:132,1,23.7499993658066,4|4,0:0|0:0,0:0:0:0:
209,133,55861,38,0,P|200:163|198:200,1,47.4999987316132,8|0,0:3|0:0,0:0:0:0:
207,256,56150,1,2,0:0:0:0:
132,269,56294,1,2,0:0:0:0:
66,230,56438,1,2,0:0:0:0:
40,157,56582,2,0,L|5:151,1,23.7499993658066,12|12,0:3|0:3,0:0:0:0:
67,84,56726,1,12,0:3:0:0:
244,175,57015,5,8,0:2:0:0:
249,198,57087,1,8,0:2:0:0:
247,221,57159,1,8,0:2:0:0:
237,242,57231,1,8,0:2:0:0:
220,259,57303,2,0,L|181:262,3,23.7499993658066,8|8|8|8,0:2|0:2|0:2|0:2,0:0:0:0:
240,271,57592,38,0,P|266:271|298:265,1,47.4999987316132,10|0,0:3|0:0,0:0:0:0:
349,214,57880,1,2,0:2:0:0:
349,214,58025,2,0,P|378:215|409:223,1,47.4999987316132,4|2,0:2|0:2,0:0:0:0:
459,277,58313,1,4,0:2:0:0:
475,122,58457,6,0,P|430:123|377:137,1,94.9999974632264,10|2,0:0|0:2,0:0:0:0:
365,55,58890,2,0,P|336:66|313:84,1,47.4999987316132,4|2,0:2|0:2,0:0:0:0:
209,142,59178,1,8,0:2:0:0:
231,151,59251,1,4,0:0:0:0:
253,157,59323,2,0,P|281:158|309:150,1,47.4999987316132,10|0,0:3|0:0,0:0:0:0:
239,256,59611,1,2,0:2:0:0:
239,256,59755,2,0,P|267:246|301:243,1,47.4999987316132,4|2,0:2|0:2,0:0:0:0:
308,323,60044,1,4,0:2:0:0:
155,272,60188,38,0,P|137:267|108:264,1,47.4999987316132,10|8,0:1|0:3,0:0:0:0:
233,303,60476,1,2,0:2:0:0:
223,223,60621,2,0,P|199:208|172:197,1,47.4999987316132,0|2,0:2|0:2,0:0:0:0:
103,187,60909,1,2,0:0:0:0:
259,153,61053,2,0,P|290:152|325:146,1,47.4999987316132,12|0,0:3|0:0,0:0:0:0:
380,99,61342,1,2,0:2:0:0:
380,99,61486,2,0,P|418:102|442:110,1,47.4999987316132,4|2,0:2|0:2,0:0:0:0:
457,193,61775,1,4,0:2:0:0:
288,203,61919,6,0,P|342:180|389:172,1,94.9999974632264,10|2,0:0|0:2,0:0:0:0:
366,264,62351,2,0,P|395:267|422:274,1,47.4999987316132,4|2,0:2|0:2,0:0:0:0:
298,317,62640,1,8,0:2:0:0:
274,317,62712,1,4,0:0:0:0:
250,318,62784,1,10,0:3:0:0:
162,357,62928,1,0,0:2:0:0:
83,299,63073,1,2,0:2:0:0:
83,299,63217,2,0,P|56:298|29:294,1,47.4999987316132,4|6,0:2|0:2,0:0:0:0:
70,217,63506,1,6,0:2:0:0:
100,184,63650,37,2,0:0:0:0:
145,178,63794,1,2,0:0:0:0:
188,192,63939,1,2,0:0:0:0:
232,129,64083,1,2,0:0:0:0:
206,57,64227,1,12,0:3:0:0:
133,35,64371,1,8,0:2:0:0:
87,119,64515,2,0,P|115:120|154:119,1,47.4999987316132,8|0,0:3|0:0,0:0:0:0:
248,199,64803,1,2,0:2:0:0:
248,199,64948,2,0,P|270:184|296:161,1,47.4999987316132,4|2,0:2|0:2,0:0:0:0:
227,98,65236,1,4,0:2:0:0:
89,186,65380,6,0,P|137:178|195:147,1,94.9999974632264,10|2,0:0|0:2,0:0:0:0:
204,244,65813,2,0,P|238:244|272:250,1,47.4999987316132,4|2,0:2|0:2,0:0:0:0:
386,293,66101,1,8,0:2:0:0:
371,311,66174,1,8,0:2:0:0:
356,329,66246,2,0,P|326:337|288:335,1,47.4999987316132,10|0,0:3|0:0,0:0:0:0:
223,355,66534,1,2,0:2:0:0:
223,355,66678,2,0,P|195:348|168:335,1,47.4999987316132,4|6,0:2|0:2,0:0:0:0:
75,327,66967,1,4,0:2:0:0:
224,274,67111,38,0,P|254:266|280:265,1,47.4999987316132,10|8,0:1|0:3,0:0:0:0:
144,253,67400,1,2,0:2:0:0:
219,180,67544,1,4,0:2:0:0:
293,192,67688,1,14,0:2:0:0:
367,206,67832,1,12,0:2:0:0:
443,265,67976,2,0,P|436:234|437:204,1,47.4999987316132,10|0,0:3|0:0,0:0:0:0:
512,160,68265,1,2,0:2:0:0:
507,163,68409,2,0,P|477:147|460:124,1,47.4999987316132,2|2,0:1|0:2,0:0:0:0:
379,153,68698,1,4,0:2:0:0:
490,41,68842,6,0,P|458:62|395:80,1,94.9999974632264,10|2,0:0|0:2,0:0:0:0:
332,25,69275,2,0,P|317:50|300:72,1,47.4999987316132,4|2,0:2|0:2,0:0:0:0:
314,210,69563,1,4,0:0:0:0:
317,186,69635,1,4,0:0:0:0:
322,164,69707,1,10,0:3:0:0:
269,90,69851,1,0,0:0:0:0:
167,94,69996,1,2,0:2:0:0:
167,94,70140,2,0,P|141:91|98:98,1,47.4999987316132,4|2,0:2|0:2,0:0:0:0:
36,133,70428,37,0,0:0:0:0:
69,156,70573,1,4,0:2:0:0:
79,195,70717,1,2,0:2:0:0:
65,233,70861,1,2,0:0:0:0:
118,286,71005,1,2,0:0:0:0:
194,282,71150,1,2,0:0:0:0:
248,229,71294,1,2,0:0:0:0:
237,153,71438,21,8,0:3:0:0:
41,207,71726,1,4,2:1:0:0:
41,207,72159,1,0,0:0:0:0:
23,293,72303,2,0,L|94:266,1,72.0000017578125,10|2,0:0|2:2,0:0:0:0:
120,278,73025,6,0,L|153:277,2,18.0000004394531,0|0|8,0:0|0:0|0:3,0:0:0:0:
224,297,73601,1,2,0:2:0:0:
266,175,74034,1,10,0:0:0:0:
266,175,74467,1,8,2:0:0:0:
277,205,74611,1,4,0:1:0:0:
281,237,74755,1,4,0:1:0:0:
279,269,74900,38,0,L|205:272,1,72.0000017578125,8|2,0:3|2:2,0:0:0:0:
198,299,75332,2,0,L|160:297,1,36.0000008789063,4|0,0:0|2:0,0:0:0:0:
112,241,75621,1,2,0:2:0:0:
121,376,75765,2,0,L|86:308,1,72.0000017578125,10|2,0:0|0:2,0:0:0:0:
57,287,76486,6,0,L|33:286,2,18.0000004394531,0|0|8,0:1|0:1|0:3,0:0:0:0:
35,203,77063,2,0,L|-7:219,2,36.0000008789063,0|0|0,0:0|0:0|0:0,0:0:0:0:
133,201,77496,1,10,0:0:0:0:
133,201,77928,1,4,0:1:0:0:
148,228,78072,1,4,0:1:0:0:
154,258,78217,1,4,0:1:0:0:
154,289,78361,38,0,L|229:294,1,72.0000017578125,8|2,0:3|2:2,0:0:0:0:
225,293,79082,1,2,0:2:0:0:
345,375,79226,2,0,L|273:335,1,72.0000017578125,10|2,0:0|2:2,0:0:0:0:
240,340,79948,6,0,L|215:341,2,18.0000004394531,0|0|8,0:0|0:0|0:3,0:0:0:0:
338,296,80525,2,0,L|385:295,2,36.0000008789063,2|0|0,0:2|0:0|0:0,0:0:0:0:
214,236,80957,1,10,0:0:0:0:
214,236,81390,1,0,2:0:0:0:
200,206,81534,1,8,0:3:0:0:
196,173,81678,1,2,0:2:0:0:
200,140,81823,6,0,L|281:132,1,72.0000017578125,8|2,0:3|2:2,0:0:0:0:
302,208,82255,2,0,L|343:192,1,36.0000008789063,12|0,0:0|2:0,0:0:0:0:
350,121,82544,1,2,0:2:0:0:
360,268,82688,2,0,L|399:268,1,36.0000008789063,10|8,0:0|0:3,0:0:0:0:
451,212,82976,2,0,L|495:225,2,36.0000008789063,4|2|0,0:0|0:2|0:0,0:0:0:0:
383,166,83409,1,0,0:0:0:0:
383,166,83481,1,0,0:0:0:0:
383,166,83553,6,0,L|340:167,1,36.0000008789063,10|0,0:3|0:0,0:0:0:0:
220,169,83842,1,4,2:1:0:0:
294,242,83986,1,0,0:0:0:0:
305,227,84058,1,0,0:0:0:0:
313,212,84130,1,0,0:0:0:0:
319,195,84202,1,0,0:0:0:0:
322,177,84274,1,0,0:0:0:0:
322,159,84346,1,0,0:0:0:0:
319,141,84418,37,8,0:3:0:0:
256,192,84563,12,0,89611,0:0:0:0:
