osu file format v14

[General]
AudioFilename: audio.mp3
AudioLeadIn: 0
PreviewTime: 29611
Countdown: 0
SampleSet: Normal
StackLeniency: 0.7
Mode: 0
LetterboxInBreaks: 0
WidescreenStoryboard: 1

[Editor]
Bookmarks: 1342
DistanceSpacing: 1.9
BeatDivisor: 4
GridSize: 16
TimelineZoom: 2.999999

[Metadata]
Title:Multiverse
TitleUnicode:Multiverse
Artist:Wintergatan
ArtistUnicode:Wintergatan
Creator:negusver
Version:Hard
Source:Twinsters Documentary
Tags:instrumental soundtrack score Martin Molin Mark De Gli Antoni Marble Machine Netflix
BeatmapID:1396209
BeatmapSetID:656841

[Difficulty]
HPDrainRate:5
CircleSize:3.6
OverallDifficulty:6
ApproachRate:8
SliderMultiplier:1
SliderTickRate:1

[Events]
//Background and Video events
0,0,"bg.jpg",0,0
//Break Periods
//Storyboard Layer 0 (Background)
//Storyboard Layer 1 (Fail)
//Storyboard Layer 2 (Pass)
//Storyboard Layer 3 (Foreground)
//Storyboard Sound Samples

[TimingPoints]
477,288.461538461538,3,2,1,50,1,0
2207,-161.290322580645,3,2,1,50,0,0
29755,-117.64705882353,3,1,1,74,0,0
57592,-102.040816326531,3,1,1,80,0,1
71438,-138.888888888889,3,1,1,60,0,0
89611,-138.888888888889,3,1,1,5,0,0

[Colours]
Combo1 : 15,94,240
Combo2 : 233,233,233
Combo3 : 215,215,215
Combo4 : 83,139,244
SliderBorder : 233,233,233
SliderTrackOverride : 40,42,68

[HitObjects]
39,143,2207,5,2,0:0:0:0:
117,178,2496,2,0,L|236:157,1,92.999996310425,2|0,0:0|0:0,0:0:0:0:
213,196,3073,1,0,0:0:0:0:
288,138,3361,2,0,L|407:158,1,92.999996310425,2|0,0:0|0:0,0:0:0:0:
384,119,3938,1,2,0:0:0:0:
384,119,4803,6,0,L|300:104,1,61.9999975402833,2|0,0:0|0:0,0:0:0:0:
287,113,5236,2,0,L|227:123,2,30.9999987701417,2|2|0,0:0|0:0|0:0,0:0:0:0:
317,143,5669,1,0,0:0:0:0:
257,201,5957,2,0,L|147:181,1,92.999996310425,2|0,0:0|0:0,0:0:0:0:
160,219,6534,1,0,0:0:0:0:
441,178,7400,37,2,0:0:0:0:
441,178,9130,5,2,0:0:0:0:
377,125,9419,2,0,L|267:144,1,92.999996310425,2|0,0:0|0:0,0:0:0:0:
290,175,9996,1,0,0:0:0:0:
208,110,10284,2,0,L|101:91,1,92.999996310425,2|0,0:0|0:0,0:0:0:0:
121,58,10861,1,2,0:0:0:0:
121,58,11726,38,0,L|191:45,1,61.9999975402833,2|0,0:0|0:0,0:0:0:0:
216,51,12159,2,0,L|272:60,2,30.9999987701417,2|2|0,0:0|0:0|0:0,0:0:0:0:
176,81,12592,1,2,0:0:0:0:
238,138,12880,2,0,L|353:116,1,92.999996310425,2|0,0:0|0:0,0:0:0:0:
334,155,13457,1,2,0:0:0:0:
155,369,14323,5,2,0:0:0:0:
155,369,16053,37,2,0:0:0:0:
208,304,16342,2,0,L|188:195,1,92.999996310425,2|0,0:0|0:0,0:0:0:0:
156,217,16919,1,0,0:0:0:0:
220,134,17207,2,0,L|238:27,1,92.999996310425,2|0,0:0|0:0,0:0:0:0:
200,37,17784,1,2,0:0:0:0:
200,37,18650,6,0,L|270:25,1,61.9999975402833,2|0,0:0|0:0,0:0:0:0:
296,31,19082,2,0,L|345:39,2,30.9999987701417,2|2|0,0:0|0:0|0:0,0:0:0:0:
266,61,19515,37,2,0:0:0:0:
326,119,19803,2,0,L|306:232,1,92.999996310425,2|0,0:0|0:0,0:0:0:0:
344,215,20380,1,0,0:0:0:0:
282,285,20669,2,0,L|302:398,1,92.999996310425,0|0,0:0|0:0,0:0:0:0:
263,381,21246,1,2,0:0:0:0:
263,381,22111,6,0,L|190:368,1,61.9999975402833,2|2,0:0|0:0,0:0:0:0:
166,375,22544,2,0,L|122:382,2,30.9999987701417,0|2|0,0:0|0:0|0:0,0:0:0:0:
196,335,22976,37,2,0:0:0:0:
123,299,23265,2,0,L|6:278,1,92.999996310425,2|0,0:0|0:0,0:0:0:0:
36,247,23842,1,0,0:0:0:0:
111,212,24130,2,0,L|217:230,1,92.999996310425,2|0,0:0|0:0,0:0:0:0:
197,262,24707,1,2,0:0:0:0:
197,262,25573,6,0,L|271:248,1,61.9999975402833,2|0,0:0|0:0,0:0:0:0:
292,255,26005,2,0,L|351:265,2,30.9999987701417,2|2|0,0:0|0:0|0:0,0:0:0:0:
262,215,26438,1,2,0:0:0:0:
348,170,26726,2,0,L|440:187,1,92.999996310425,2|0,0:0|0:0,0:0:0:0:
445,152,27303,37,0,0:0:0:0:
376,86,27592,2,0,L|284:101,1,92.999996310425,0|0,0:0|0:0,0:0:0:0:
279,66,28169,1,2,0:0:0:0:
256,192,28457,12,0,29467,0:0:0:0:
127,241,29900,22,0,P|153:249|183:251,1,42.5000008106232,12|0,0:3|0:2,0:0:0:0:
197,174,30188,2,0,P|245:169|283:160,1,85.0000016212464,2|2,0:2|0:2,0:0:0:0:
217,89,30621,1,0,0:2:0:0:
298,83,30765,2,0,P|323:90|339:99,1,42.5000008106232,8|0,0:0|0:0,0:0:0:0:
402,149,31053,2,0,P|422:150|451:145,2,42.5000008106232,2|0|2,0:2|0:0|0:2,0:0:0:0:
361,220,31486,1,4,0:0:0:0:
333,197,31630,6,0,P|294:181|240:170,1,85.0000016212464,12|2,0:3|0:2,0:0:0:0:
213,200,32063,2,0,P|191:202|170:201,2,42.5000008106232,4|2|0,0:0|0:2|0:0,0:0:0:0:
167,294,32496,2,0,P|125:272|75:258,1,85.0000016212464,10|2,0:3|0:2,0:0:0:0:
38,271,32928,1,0,0:0:0:0:
17,233,33073,1,2,0:0:0:0:
17,190,33217,1,2,0:0:0:0:
48,161,33361,38,0,P|72:156|108:158,1,42.5000008106232,12|0,0:3|0:0,0:0:0:0:
106,74,33650,1,2,0:2:0:0:
168,127,33794,2,0,P|191:141|210:147,1,42.5000008106232,12|0,0:3|0:0,0:0:0:0:
282,114,34082,1,0,0:0:0:0:
282,196,34226,2,0,P|329:203|375:197,1,85.0000016212464,10|2,0:0|0:2,0:0:0:0:
424,140,34659,2,0,P|446:143|466:150,1,42.5000008106232,4|2,0:0|0:2,0:0:0:0:
446,236,34948,1,4,0:0:0:0:
446,236,35092,6,0,P|468:234|488:229,1,42.5000008106232,4|0,0:0|0:0,0:0:0:0:
393,300,35380,2,0,P|355:300|308:287,1,85.0000016212464,2|2,0:2|0:2,0:0:0:0:
264,319,35813,1,0,0:0:0:0:
227,297,35957,1,2,0:0:0:0:
210,257,36101,1,2,0:0:0:0:
227,222,36246,2,0,P|227:194|221:164,1,42.5000008106232,2|2,0:0|0:0,0:0:0:0:
296,140,36534,2,0,P|278:119|253:99,1,42.5000008106232,6|2,0:0|0:0,0:0:0:0:
184,105,36823,38,0,P|165:115|145:120,1,42.5000008106232,12|0,0:3|0:0,0:0:0:0:
145,202,37111,2,0,P|104:197|50:175,1,85.0000016212464,2|2,0:2|0:2,0:0:0:0:
75,276,37544,1,0,0:0:0:0:
155,287,37688,2,0,P|176:282|194:271,1,42.5000008106232,10|0,0:0|0:0,0:0:0:0:
243,359,37976,2,0,P|218:360|192:357,2,42.5000008106232,2|4|2,0:2|0:0|0:2,0:0:0:0:
279,284,38409,1,4,0:0:0:0:
311,296,38553,6,0,P|360:294|398:285,1,85.0000016212464,12|2,0:3|0:2,0:0:0:0:
466,245,38986,2,0,P|489:245|509:250,2,42.5000008106232,2|2|0,0:0|0:2|0:2,0:0:0:0:
396,178,39419,2,0,P|440:167|477:150,1,85.0000016212464,10|2,0:3|0:2,0:0:0:0:
468,95,39851,1,4,0:0:0:0:
425,93,39996,1,2,0:0:0:0:
389,67,40140,1,2,0:0:0:0:
370,28,40284,38,0,P|364:53|362:77,1,42.5000008106232,10|0,0:3|0:0,0:0:0:0:
284,33,40573,1,2,0:2:0:0:
292,114,40717,2,0,P|293:134|287:167,1,42.5000008106232,10|0,0:3|0:0,0:0:0:0:
211,182,41005,1,0,0:0:0:0:
259,248,41150,2,0,P|248:298|228:338,1,85.0000016212464,10|2,0:0|0:2,0:0:0:0:
329,320,41582,2,0,P|328:345|333:369,1,42.5000008106232,4|2,0:0|0:2,0:0:0:0:
418,290,41871,1,4,0:0:0:0:
418,290,42015,6,0,P|416:311|411:332,1,42.5000008106232,4|0,0:0|0:0,0:0:0:0:
485,241,42303,2,0,P|474:192|480:144,1,85.0000016212464,2|2,0:2|0:2,0:0:0:0:
484,105,42736,1,0,0:0:0:0:
441,101,42880,1,12,0:3:0:0:
404,79,43025,1,14,0:3:0:0:
381,42,43169,2,0,P|360:27|331:14,1,42.5000008106232,2|2,0:0|0:0,0:0:0:0:
315,97,43457,2,0,P|286:96|259:90,1,42.5000008106232,2|2,0:0|0:0,0:0:0:0:
221,29,43746,38,0,P|195:25|164:30,1,42.5000008106232,12|0,0:3|0:0,0:0:0:0:
170,108,44034,2,0,P|126:118|91:138,1,85.0000016212464,2|2,0:2|0:2,0:0:0:0:
155,195,44467,1,0,0:0:0:0:
76,219,44611,2,0,P|70:239|60:258,1,42.5000008106232,10|0,0:0|0:0,0:0:0:0:
136,315,44900,2,0,P|137:296|145:273,2,42.5000008106232,2|4|2,0:2|0:0|0:2,0:0:0:0:
219,308,45332,1,4,0:0:0:0:
229,274,45476,6,0,P|239:230|242:185,1,85.0000016212464,12|2,0:3|0:2,0:0:0:0:
177,139,45909,2,0,P|151:136|129:125,2,42.5000008106232,4|2|0,0:0|0:2|0:0,0:0:0:0:
252,107,46342,2,0,P|293:96|338:95,1,85.0000016212464,10|2,0:0|0:2,0:0:0:0:
381,122,46775,1,0,0:0:0:0:
371,163,46919,1,8,0:3:0:0:
385,202,47063,1,4,0:0:0:0:
421,223,47207,38,0,P|418:192|421:164,1,42.5000008106232,8|0,0:3|0:0,0:0:0:0:
501,193,47496,1,2,0:2:0:0:
472,116,47640,2,0,P|467:92|469:57,1,42.5000008106232,2|2,0:0|0:2,0:0:0:0:
420,5,47928,1,0,0:0:0:0:
384,79,48073,2,0,P|343:84|290:76,1,85.0000016212464,10|2,0:0|0:2,0:0:0:0:
299,163,48505,2,0,P|275:161|253:163,1,42.5000008106232,4|2,0:0|0:2,0:0:0:0:
214,91,48794,1,4,0:0:0:0:
189,115,48938,6,0,P|176:143|175:168,1,42.5000008106232,12|0,0:3|0:0,0:0:0:0:
212,227,49226,1,2,0:2:0:0:
212,227,49371,2,0,P|203:277|185:318,1,85.0000016212464,4|0,0:0|0:0,0:0:0:0:
132,298,49803,1,10,0:3:0:0:
97,280,49948,1,2,0:0:0:0:
84,243,50092,1,2,0:0:0:0:
90,205,50236,1,2,0:0:0:0:
114,175,50380,1,2,0:0:0:0:
148,158,50525,1,2,0:0:0:0:
183,171,50669,38,0,P|192:208|192:231,1,42.5000008106232,8|0,0:3|0:0,0:0:0:0:
108,209,50957,2,0,P|115:259|108:303,1,85.0000016212464,2|2,0:2|0:2,0:0:0:0:
32,262,51390,1,0,0:0:0:0:
45,343,51534,2,0,P|48:371|59:399,1,42.5000008106232,10|0,0:0|0:0,0:0:0:0:
128,352,51823,1,2,0:2:0:0:
128,352,51967,2,0,P|128:330|135:302,1,42.5000008106232,4|2,0:0|0:2,0:0:0:0:
201,265,52255,1,4,0:0:0:0:
213,296,52400,6,0,P|220:339|214:396,1,85.0000016212464,12|2,0:3|0:2,0:0:0:0:
303,329,52832,2,0,P|299:308|298:286,1,42.5000008106232,4|2,0:0|0:2,0:0:0:0:
382,301,53121,1,0,0:0:0:0:
352,225,53265,2,0,P|349:174|357:125,1,85.0000016212464,12|2,0:0|0:2,0:0:0:0:
419,90,53698,1,0,0:0:0:0:
340,67,53842,2,0,P|311:75|290:87,1,42.5000008106232,8|0,0:3|0:0,0:0:0:0:
238,26,54130,38,0,P|205:27|181:25,1,42.5000008106232,8|0,0:3|0:0,0:0:0:0:
163,102,54419,1,2,0:2:0:0:
163,102,54563,2,0,P|138:104|108:117,1,42.5000008106232,4|2,0:0|0:2,0:0:0:0:
157,185,54851,1,0,0:0:0:0:
79,207,54996,2,0,P|79:236|76:252,1,42.5000008106232,10|0,0:3|0:0,0:0:0:0:
138,304,55284,2,0,P|136:327|138:355,2,42.5000008106232,2|4|2,0:2|0:0|0:2,0:0:0:0:
210,266,55717,2,0,L|233:245,1,21.2500004053116,4|4,0:0|0:0,0:0:0:0:
253,257,55861,6,0,P|277:238|288:226,1,42.5000008106232,8|0,0:3|0:0,0:0:0:0:
338,233,56150,1,2,0:0:0:0:
371,205,56294,1,2,0:0:0:0:
370,162,56438,1,2,0:0:0:0:
342,130,56582,1,12,0:3:0:0:
300,132,56726,1,12,0:3:0:0:
199,72,57015,38,0,L|228:67,3,24.4999997756958,8|0|0|0,0:2|0:0|0:0|0:0,0:0:0:0:
219,106,57303,2,0,L|248:101,3,24.4999997756958,8|0|0|0,0:2|0:0|0:0|0:0,0:0:0:0:
241,138,57592,6,0,P|268:135|295:128,1,48.9999995513916,10|0,0:3|0:0,0:0:0:0:
335,60,57880,1,2,0:2:0:0:
335,60,58025,2,0,P|361:62|395:78,1,48.9999995513916,4|2,0:2|0:2,0:0:0:0:
447,135,58313,1,4,0:2:0:0:
360,161,58457,2,0,P|362:185|368:208,1,48.9999995513916,10|0,0:0|0:0,0:0:0:0:
446,307,58746,2,0,P|458:266|459:211,1,97.9999991027832,2|2,0:2|0:2,0:0:0:0:
356,292,59178,1,8,0:2:0:0:
347,330,59323,38,0,P|346:360|352:387,1,48.9999995513916,10|0,0:3|0:0,0:0:0:0:
247,348,59611,1,2,0:2:0:0:
247,348,59755,2,0,P|258:311|258:292,1,48.9999995513916,4|2,0:2|0:2,0:0:0:0:
196,233,60044,1,4,0:2:0:0:
131,317,60188,2,0,P|117:288|113:261,1,48.9999995513916,10|8,0:1|0:3,0:0:0:0:
163,143,60476,2,0,P|193:203|195:235,1,97.9999991027832,2|2,0:2|0:2,0:0:0:0:
79,182,60909,1,2,0:0:0:0:
88,91,61053,6,0,P|102:56|117:35,1,48.9999995513916,12|0,0:3|0:0,0:0:0:0:
199,43,61342,1,2,0:2:0:0:
280,82,61486,2,0,P|305:85|341:78,1,48.9999995513916,4|2,0:2|0:2,0:0:0:0:
230,159,61775,1,4,0:2:0:0:
320,177,61919,2,0,P|329:205|326:237,1,48.9999995513916,10|0,0:0|0:0,0:0:0:0:
246,351,62207,2,0,P|236:303|242:255,1,97.9999991027832,2|2,0:2|0:2,0:0:0:0:
328,300,62640,1,8,0:2:0:0:
336,337,62784,38,0,P|335:361|331:386,1,48.9999995513916,10|0,0:3|0:2,0:0:0:0:
242,255,63073,2,0,P|243:207|221:157,1,97.9999991027832,2|6,0:2|0:2,0:0:0:0:
171,162,63505,1,6,0:2:0:0:
148,198,63650,1,2,0:0:0:0:
158,240,63794,1,2,0:0:0:0:
199,248,63938,2,0,P|214:270|236:287,1,48.9999995513916,2|2,0:0|0:0,0:0:0:0:
304,227,64226,2,0,P|325:240|348:248,1,48.9999995513916,12|8,0:3|0:2,0:0:0:0:
435,165,64515,6,0,P|410:162|379:167,1,48.9999995513916,8|0,0:3|0:0,0:0:0:0:
372,265,64803,1,2,0:2:0:0:
372,265,64948,2,0,P|346:278|327:284,1,48.9999995513916,4|2,0:2|0:2,0:0:0:0:
362,370,65236,1,4,0:2:0:0:
271,363,65380,2,0,P|247:360|224:351,1,48.9999995513916,10|0,0:0|0:0,0:0:0:0:
137,284,65669,2,0,P|184:263|230:261,1,97.9999991027832,2|2,0:2|0:2,0:0:0:0:
296,325,66101,1,8,0:2:0:0:
316,291,66246,38,0,P|327:270|344:252,1,48.9999995513916,10|0,0:3|0:0,0:0:0:0:
419,331,66534,1,2,0:2:0:0:
419,331,66678,2,0,P|429:297|432:266,1,48.9999995513916,4|6,0:2|0:2,0:0:0:0:
398,195,66967,1,4,0:2:0:0:
488,212,67111,2,0,P|488:182|481:158,1,48.9999995513916,10|8,0:1|0:3,0:0:0:0:
385,99,67400,2,0,P|383:139|399:198,1,97.9999991027832,2|14,0:2|0:2,0:0:0:0:
476,75,67832,1,12,0:2:0:0:
412,11,67976,6,0,P|385:7|351:12,1,48.9999995513916,10|0,0:3|0:0,0:0:0:0:
293,69,68265,1,2,0:2:0:0:
204,48,68409,2,0,P|201:18|205:-5,1,48.9999995513916,2|2,0:1|0:2,0:0:0:0:
131,104,68698,1,4,0:2:0:0:
233,165,68842,2,0,P|238:189|236:214,1,48.9999995513916,10|0,0:0|0:0,0:0:0:0:
149,291,69130,2,0,P|141:240|148:189,1,97.9999991027832,2|2,0:2|0:2,0:0:0:0:
236,261,69563,1,4,0:0:0:0:
275,259,69707,2,0,P|307:254|335:243,1,48.9999995513916,10|0,0:3|0:0,0:0:0:0:
285,163,69996,38,0,P|333:150|393:149,1,97.9999991027832,2|2,0:2|0:2,0:0:0:0:
430,160,70428,1,0,0:0:0:0:
442,201,70573,1,4,0:2:0:0:
416,234,70717,1,2,0:2:0:0:
374,243,70861,2,0,P|353:228|336:211,1,48.9999995513916,2|2,0:0|0:0,0:0:0:0:
249,239,71150,2,0,P|237:214|233:190,1,48.9999995513916,2|2,0:0|0:0,0:0:0:0:
237,157,71438,21,8,0:3:0:0:
151,256,71726,2,0,L|228:266,1,72.0000017578125,4|2,2:1|2:2,0:0:0:0:
259,243,72159,1,0,0:0:0:0:
313,306,72303,2,0,L|359:299,1,36.0000008789063,10|0,0:0|0:0,0:0:0:0:
381,323,72592,2,0,L|458:337,1,72.0000017578125,2|0,2:2|0:0,0:0:0:0:
485,308,73025,5,0,0:0:0:0:
512,285,73169,1,8,0:3:0:0:
363,214,74034,1,10,0:0:0:0:
363,214,74467,2,0,L|416:203,2,36.0000008789063,8|4|4,2:0|0:1|0:1,0:0:0:0:
338,240,74900,37,8,0:3:0:0:
298,119,75188,2,0,L|219:133,1,72.0000017578125,2|0,2:2|2:0,0:0:0:0:
191,113,75621,1,2,0:2:0:0:
154,185,75765,2,0,L|114:177,1,36.0000008789063,10|0,0:0|0:0,0:0:0:0:
88,198,76053,2,0,L|3:213,1,72.0000017578125,2|0,0:2|0:0,0:0:0:0:
9,175,76486,1,0,0:1:0:0:
32,147,76630,5,8,0:3:0:0:
375,97,77496,37,10,0:0:0:0:
375,97,77928,2,0,L|330:104,2,36.0000008789063,4|4|4,0:1|0:1|0:1,0:0:0:0:
400,122,78361,5,8,0:3:0:0:
321,225,78650,2,0,L|239:211,1,72.0000017578125,2|0,2:2|2:0,0:0:0:0:
234,171,79082,1,2,0:2:0:0:
179,244,79226,2,0,L|97:258,2,72.0000017578125,10|2|0,0:0|2:2|0:0,0:0:0:0:
202,271,79948,1,0,0:0:0:0:
225,298,80092,1,8,0:3:0:0:
478,82,80957,38,0,L|398:67,1,72.0000017578125,10|2,0:0|0:2,0:0:0:0:
376,109,81390,1,0,2:0:0:0:
341,97,81534,2,0,L|294:105,1,36.0000008789063,8|2,0:3|0:2,0:0:0:0:
257,114,81823,22,0,L|221:107,1,36.0000008789063,8|0,0:3|0:0,0:0:0:0:
183,133,82111,1,2,2:2:0:0:
126,52,82255,2,0,L|117:98,1,36.0000008789063,12|0,0:0|2:0,0:0:0:0:
97,116,82544,1,2,0:2:0:0:
50,208,82688,6,0,L|43:166,1,36.0000008789063,10|8,0:0|0:3,0:0:0:0:
134,193,82976,2,0,L|120:264,1,72.0000017578125,4|0,0:0|0:0,0:0:0:0:
50,305,83409,1,0,0:0:0:0:
50,305,83553,2,0,L|97:313,1,36.0000008789063,10|0,0:3|0:0,0:0:0:0:
120,348,83842,1,4,2:1:0:0:
168,333,83986,2,0,L|185:329,6,18.0000004394531,0|0|0|0|0|0|8,0:0|0:0|0:0|0:0|0:0|0:0|0:3,0:0:0:0:
256,192,84563,12,0,89611,0:0:0:0:
