osu file format v14

[General]
AudioFilename: audio.mp3
AudioLeadIn: 0
PreviewTime: 29611
Countdown: 0
SampleSet: Normal
StackLeniency: 0.7
Mode: 0
LetterboxInBreaks: 0
WidescreenStoryboard: 1

[Editor]
DistanceSpacing: 1.2
BeatDivisor: 2
GridSize: 16
TimelineZoom: 1.9

[Metadata]
Title:Multiverse
TitleUnicode:Multiverse
Artist:Wintergatan
ArtistUnicode:Wintergatan
Creator:negusver
Version:Easy
Source:Twinsters Documentary
Tags:instrumental soundtrack score Martin Molin Mark De Gli Antoni Marble Machine Netflix
BeatmapID:1405031
BeatmapSetID:656841

[Difficulty]
HPDrainRate:2
CircleSize:2.8
OverallDifficulty:2
ApproachRate:4
SliderMultiplier:1
SliderTickRate:1

[Events]
//Background and Video events
0,0,"bg.jpg",0,0
//Break Periods
//Storyboard Layer 0 (Background)
//Storyboard Layer 1 (Fail)
//Storyboard Layer 2 (Pass)
//Storyboard Layer 3 (Foreground)
//Storyboard Sound Samples

[TimingPoints]
477,288.461538461538,3,2,1,50,1,0
2207,-200,3,2,1,50,0,0
29755,-149.253731343284,3,1,1,74,0,0
57592,-149.253731343284,3,1,1,80,0,1
71438,-200,3,1,1,60,0,0
89611,-200,3,1,1,5,0,0

[Colours]
Combo1 : 15,94,240
Combo2 : 233,233,233
Combo3 : 215,215,215
Combo4 : 83,139,244
SliderBorder : 233,233,233
SliderTrackOverride : 40,42,68

[HitObjects]
127,158,2207,5,2,0:0:0:0:
149,137,3073,1,0,0:0:0:0:
171,116,3938,2,0,P|218:127|281:118,1,100,2|2,0:0|0:0,0:0:0:0:
310,93,4803,2,0,P|336:72|379:60,2,75,2|2|0,0:0|0:0|0:0,0:0:0:0:
230,220,6534,1,0,0:0:0:0:
238,292,9130,5,2,0:0:0:0:
210,303,9996,1,0,0:0:0:0:
182,314,10861,2,0,P|203:269|188:201,1,100,2|2,0:0|0:0,0:0:0:0:
171,177,11726,2,0,P|208:168|242:145,2,75,2|2|2,0:0|0:0|0:0,0:0:0:0:
21,191,13457,1,2,0:0:0:0:
78,106,16053,37,2,0:0:0:0:
99,84,16919,2,0,P|149:107|206:101,1,100,0|2,0:0|0:0,0:0:0:0:
237,82,17784,1,2,0:0:0:0:
237,82,18650,6,0,P|277:92|305:112,2,75,2|2|2,0:0|0:0|0:0,0:0:0:0:
103,150,20380,2,0,P|144:181|205:192,1,100,0|2,0:0|0:0,0:0:0:0:
240,201,21246,1,2,0:0:0:0:
240,201,22111,38,0,P|280:178|317:174,2,75,2|0|2,0:0|0:0|0:0,0:0:0:0:
232,350,23842,2,0,P|280:337|319:306,1,100,0|2,0:0|0:0,0:0:0:0:
350,267,24707,1,2,0:0:0:0:
350,267,25573,6,0,P|384:291|433:299,2,75,2|2|2,0:0|0:0|0:0,0:0:0:0:
327,222,26726,2,0,P|376:206|424:175,2,100,2|0|2,0:0|0:0|0:0,0:0:0:0:
277,228,28169,1,2,0:0:0:0:
3,208,29900,6,0,P|75:200|128:244,1,133.999993661499,12|2,0:3|0:2,0:0:0:0:
166,301,30765,2,0,P|167:241|233:171,1,133.999993661499,8|2,0:0|0:2,0:0:0:0:
278,141,31630,2,0,P|340:130|420:157,1,133.999993661499,12|2,0:3|0:2,0:0:0:0:
475,192,32496,6,0,P|456:141|485:84,2,100.499995246124,10|0|12,0:3|0:0|0:3,0:0:0:0:
407,235,33650,2,0,L|339:213,1,66.9999968307497,2|0,0:2|0:0,0:0:0:0:
286,270,34226,2,0,P|214:279|148:285,1,133.999993661499,10|2,0:0|0:2,0:0:0:0:
99,345,35092,2,0,P|74:305|106:219,1,133.999993661499,4|2,0:0|0:2,0:0:0:0:
178,224,35957,2,0,P|174:251|140:293,2,66.9999968307497,2|2|6,0:0|0:0|0:0,0:0:0:0:
137,154,36823,38,0,P|190:113|265:119,1,133.999993661499,12|2,0:3|0:2,0:0:0:0:
303,178,37688,2,0,P|297:109|342:45,1,133.999993661499,10|2,0:0|0:2,0:0:0:0:
402,23,38553,2,0,P|483:47|523:105,1,133.999993661499,12|2,0:3|0:2,0:0:0:0:
484,158,39419,6,0,P|469:188|496:259,2,100.499995246124,10|4|10,0:3|0:0|0:3,0:0:0:0:
419,109,40573,2,0,L|347:96,1,66.9999968307497,2|0,0:2|0:0,0:0:0:0:
303,160,41150,2,0,L|166:184,1,133.999993661499,10|2,0:0|0:2,0:0:0:0:
102,140,42015,2,0,P|90:197|158:263,1,133.999993661499,4|2,0:0|0:2,0:0:0:0:
210,234,42880,2,0,P|195:203|147:175,2,66.9999968307497,12|2|2,0:3|0:0|0:0,0:0:0:0:
191,312,43746,38,0,P|232:280|322:282,1,133.999993661499,12|2,0:3|0:2,0:0:0:0:
356,210,44611,2,0,P|374:226|392:271,2,66.9999968307497,10|2|2,0:0|0:2|0:2,0:0:0:0:
278,189,45476,1,12,0:3:0:0:
278,189,46342,6,0,P|222:195|177:232,2,100.499995246124,10|0|8,0:0|0:0|0:3,0:0:0:0:
316,259,47496,2,0,P|342:279|387:287,1,66.9999968307497,2|2,0:2|0:2,0:0:0:0:
445,248,48073,2,0,P|483:280|494:300,2,66.9999968307497,10|2|2,0:0|0:2|0:2,0:0:0:0:
377,204,48938,1,12,0:3:0:0:
247,0,49803,38,0,P|226:44|236:93,2,100.499995246124,10|2|8,0:3|0:0|0:3,0:0:0:0:
306,54,50957,2,0,P|332:69|387:71,1,66.9999968307497,2|2,0:2|0:2,0:0:0:0:
421,13,51534,2,0,L|425:160,1,133.999993661499,10|2,0:0|0:2,0:0:0:0:
404,225,52400,1,12,0:3:0:0:
205,89,53265,6,0,P|158:74|95:85,2,100.499995246124,12|0|8,0:0|0:0|0:3,0:0:0:0:
253,153,54419,2,0,P|218:169|174:163,1,66.9999968307497,2|2,0:2|0:2,0:0:0:0:
122,211,54996,2,0,L|48:200,2,66.9999968307497,10|2|2,0:3|0:2|0:2,0:0:0:0:
151,286,55861,2,0,L|237:274,1,66.9999968307497,8|2,0:3|0:0,0:0:0:0:
282,324,56438,2,0,L|348:286,1,66.9999968307497,2|12,0:0|0:3,0:0:0:0:
340,290,57592,38,0,P|267:304|203:277,1,133.999993661499,10|2,0:3|0:2,0:0:0:0:
135,259,58457,2,0,L|60:287,2,66.9999968307497,10|2|2,0:0|0:2|0:2,0:0:0:0:
183,194,59323,2,0,P|236:141|224:71,1,133.999993661499,10|2,0:3|0:2,0:0:0:0:
158,117,60188,2,0,L|91:111,2,66.9999968307497,10|2|2,0:1|0:2|0:2,0:0:0:0:
220,168,61053,5,12,0:3:0:0:
288,125,61342,2,0,L|381:133,1,66.9999968307497,2|2,0:2|0:2,0:0:0:0:
411,188,61919,2,0,L|480:199,2,66.9999968307497,10|2|2,0:0|0:2|0:2,0:0:0:0:
342,228,62784,2,0,P|299:214|227:235,2,100.499995246124,10|4|2,0:3|0:2|0:0,0:0:0:0:
406,276,63938,2,0,P|448:279|480:261,1,66.9999968307497,2|12,0:0|0:3,0:0:0:0:
428,199,64515,38,0,P|447:139|419:51,1,133.999993661499,8|2,0:3|0:2,0:0:0:0:
353,56,65380,2,0,P|370:17|419:-6,2,66.9999968307497,10|2|2,0:0|0:2|0:2,0:0:0:0:
316,128,66246,2,0,P|247:159|173:155,1,133.999993661499,10|6,0:3|0:2,0:0:0:0:
114,129,67111,2,0,P|147:90|180:79,2,66.9999968307497,10|2|14,0:1|0:2|0:2,0:0:0:0:
127,208,67976,5,10,0:3:0:0:
201,239,68265,2,0,P|241:237|302:234,1,66.9999968307497,2|2,0:2|0:2,0:0:0:0:
326,180,68842,2,0,P|343:205|347:250,2,66.9999968307497,10|2|2,0:0|0:2|0:2,0:0:0:0:
249,153,69707,2,0,P|283:112|344:101,2,100.499995246124,10|4|4,0:3|0:2|0:2,0:0:0:0:
196,214,70861,2,0,P|155:230|126:234,1,66.9999968307497,2|2,0:0|0:0,0:0:0:0:
55,222,71438,21,8,0:3:0:0:
55,222,72303,2,0,P|123:235|158:229,1,100,10|0,0:0|0:0,0:0:0:0:
200,214,73169,1,8,0:3:0:0:
200,214,74034,38,0,P|263:215|318:229,1,100,10|4,0:0|0:1,0:0:0:0:
340,251,74900,2,0,P|391:253|446:240,1,100,8|0,0:3|2:0,0:0:0:0:
443,192,75765,2,0,P|481:184|523:186,2,75,10|0|8,0:0|0:0|0:3,0:0:0:0:
382,329,77496,6,0,P|325:327|262:314,1,100,10|4,0:0|0:1,0:0:0:0:
252,359,78361,2,0,P|200:358|134:374,1,100,8|0,0:3|2:0,0:0:0:0:
111,339,79226,2,0,P|66:337|22:326,2,75,10|0|8,0:0|0:0|0:3,0:0:0:0:
260,324,80957,22,0,P|310:315|376:317,1,100,10|8,0:0|0:3,0:0:0:0:
408,308,81823,2,0,P|417:271|416:240,1,50,8|2,0:3|2:2,0:0:0:0:
323,225,82688,2,0,P|326:167|346:115,1,100,10|0,0:0|0:0,0:0:0:0:
387,115,83553,2,0,P|394:79|389:47,1,50,10|4,0:3|2:1,0:0:0:0:
346,48,84130,2,0,P|339:12|344:-20,1,50,0|8,0:0|0:3,0:0:0:0:
256,192,84707,12,0,89611,0:0:0:0:
