osu file format v14

[General]
AudioFilename: audio.mp3
AudioLeadIn: 0
PreviewTime: -1
Countdown: 0
SampleSet: Normal
StackLeniency: 0.7
Mode: 3
LetterboxInBreaks: 0
SpecialStyle: 0
WidescreenStoryboard: 0

[Editor]
DistanceSpacing: 1.2
BeatDivisor: 4
GridSize: 32
TimelineZoom: 1

[Metadata]
Title:Marble Machine (Tha Boogie Bandit Remix) / MIAMI 2016 AFTERMOVIE
TitleUnicode:Marble Machine (Tha Boogie Bandit Remix)
Artist:Wintergatan
ArtistUnicode:Wintergatan
Creator:Enygmatique
Version:NSV
Source:
Tags:
BeatmapID:1872831
BeatmapSetID:896420

[Difficulty]
HPDrainRate:7
CircleSize:4
OverallDifficulty:7
ApproachRate:5
SliderMultiplier:1.4
SliderTickRate:1

[Events]
//Background and Video events
//Break Periods
2,115045,126845
//Storyboard Layer 0 (Background)
//Storyboard Layer 1 (Fail)
//Storyboard Layer 2 (Pass)
//Storyboard Layer 3 (Foreground)
//Storyboard Sound Samples

[TimingPoints]
86,400,4,1,0,0,1,0
12845,400,4,1,0,0,1,0
25656,400,4,1,0,0,1,0
38414,400,4,1,0,0,1,0
51245,400,4,1,0,0,1,0
64087,389.61038961039,4,1,0,0,1,0
65245,400,4,1,0,0,1,0
90445,400,4,1,0,0,1,0
128045,400,4,1,0,0,1,0

[HitObjects]
448,192,86,128,0,286:0:0:0:0:
448,192,486,128,0,686:0:0:0:0:
448,192,886,128,0,1086:0:0:0:0:
448,192,1286,128,0,1486:0:0:0:0:
448,192,1686,128,0,1886:0:0:0:0:
448,192,2086,128,0,2286:0:0:0:0:
448,192,2486,128,0,2686:0:0:0:0:
448,192,2886,128,0,3086:0:0:0:0:
320,192,3286,128,0,3486:0:0:0:0:
320,192,3686,128,0,3886:0:0:0:0:
320,192,4086,128,0,4286:0:0:0:0:
320,192,4486,128,0,4686:0:0:0:0:
320,192,4886,128,0,5086:0:0:0:0:
320,192,5286,128,0,5486:0:0:0:0:
320,192,5686,128,0,5886:0:0:0:0:
320,192,6086,128,0,6286:0:0:0:0:
192,192,6486,128,0,6686:0:0:0:0:
192,192,6886,128,0,7086:0:0:0:0:
192,192,7286,128,0,7486:0:0:0:0:
192,192,7686,128,0,7886:0:0:0:0:
192,192,8086,128,0,8286:0:0:0:0:
192,192,8486,128,0,8686:0:0:0:0:
192,192,8886,128,0,9086:0:0:0:0:
192,192,9286,128,0,9486:0:0:0:0:
320,192,9686,128,0,9886:0:0:0:0:
320,192,10086,128,0,10286:0:0:0:0:
320,192,10486,128,0,10686:0:0:0:0:
320,192,10886,128,0,11086:0:0:0:0:
320,192,11286,128,0,11486:0:0:0:0:
320,192,11686,128,0,11886:0:0:0:0:
320,192,12086,128,0,12286:0:0:0:0:
320,192,12486,128,0,12686:0:0:0:0:
64,192,12845,1,0,0:0:0:0:
192,192,12845,1,0,0:0:0:0:
448,192,12945,128,0,13145:0:0:0:0:
320,192,13045,1,0,0:0:0:0:
448,192,13345,128,0,13545:0:0:0:0:
192,192,13645,1,0,0:0:0:0:
320,192,13645,1,0,0:0:0:0:
448,192,13745,128,0,13945:0:0:0:0:
64,192,13845,1,0,0:0:0:0:
192,192,14045,1,0,0:0:0:0:
448,192,14145,128,0,14345:0:0:0:0:
64,192,14245,1,0,0:0:0:0:
320,192,14445,1,0,0:0:0:0:
192,192,14445,1,0,0:0:0:0:
448,192,14545,128,0,14745:0:0:0:0:
64,192,14645,1,0,0:0:0:0:
448,192,14945,128,0,15145:0:0:0:0:
320,192,15045,1,0,0:0:0:0:
192,192,15245,1,0,0:0:0:0:
448,192,15345,128,0,15545:0:0:0:0:
64,192,15445,1,0,0:0:0:0:
448,192,15745,128,0,15945:0:0:0:0:
192,192,16045,1,0,0:0:0:0:
64,192,16045,1,0,0:0:0:0:
320,192,16145,128,0,16345:0:0:0:0:
448,192,16245,1,0,0:0:0:0:
320,192,16545,128,0,16745:0:0:0:0:
448,192,16845,1,0,0:0:0:0:
192,192,16845,1,0,0:0:0:0:
320,192,16945,128,0,17145:0:0:0:0:
64,192,17045,1,0,0:0:0:0:
192,192,17245,1,0,0:0:0:0:
320,192,17345,128,0,17545:0:0:0:0:
448,192,17445,1,0,0:0:0:0:
192,192,17645,1,0,0:0:0:0:
64,192,17645,1,0,0:0:0:0:
320,192,17745,128,0,17945:0:0:0:0:
448,192,17845,1,0,0:0:0:0:
320,192,18145,128,0,18345:0:0:0:0:
64,192,18245,1,0,0:0:0:0:
192,192,18445,1,0,0:0:0:0:
320,192,18545,128,0,18745:0:0:0:0:
448,192,18645,1,0,0:0:0:0:
320,192,18945,128,0,19145:0:0:0:0:
448,192,19245,1,0,0:0:0:0:
64,192,19245,1,0,0:0:0:0:
192,192,19345,128,0,19545:0:0:0:0:
320,192,19445,1,0,0:0:0:0:
192,192,19745,128,0,19945:0:0:0:0:
448,192,20045,1,0,0:0:0:0:
320,192,20045,1,0,0:0:0:0:
192,192,20145,128,0,20345:0:0:0:0:
64,192,20245,1,0,0:0:0:0:
320,192,20445,1,0,0:0:0:0:
192,192,20545,128,0,20745:0:0:0:0:
448,192,20645,1,0,0:0:0:0:
320,192,20845,1,0,0:0:0:0:
64,192,20845,1,0,0:0:0:0:
192,192,20945,128,0,21145:0:0:0:0:
448,192,21045,1,0,0:0:0:0:
192,192,21345,128,0,21545:0:0:0:0:
320,192,21445,1,0,0:0:0:0:
64,192,21645,1,0,0:0:0:0:
448,192,21645,1,0,0:0:0:0:
192,192,21745,128,0,21945:0:0:0:0:
320,192,21845,1,0,0:0:0:0:
192,192,22145,128,0,22345:0:0:0:0:
448,192,22245,1,0,0:0:0:0:
64,192,22445,1,0,0:0:0:0:
320,192,22545,128,0,22745:0:0:0:0:
192,192,22645,1,0,0:0:0:0:
64,192,22845,1,0,0:0:0:0:
320,192,22945,128,0,23145:0:0:0:0:
192,192,23045,1,0,0:0:0:0:
448,192,23245,1,0,0:0:0:0:
64,192,23245,1,0,0:0:0:0:
320,192,23345,128,0,23545:0:0:0:0:
192,192,23445,1,0,0:0:0:0:
64,192,23645,1,0,0:0:0:0:
320,192,23745,128,0,23945:0:0:0:0:
192,192,23845,1,0,0:0:0:0:
448,192,24045,1,0,0:0:0:0:
192,192,24045,1,0,0:0:0:0:
320,192,24145,128,0,24345:0:0:0:0:
64,192,24245,1,0,0:0:0:0:
320,192,24545,128,0,24745:0:0:0:0:
192,192,24645,1,0,0:0:0:0:
64,192,24845,1,0,0:0:0:0:
192,192,24845,1,0,0:0:0:0:
320,192,24945,128,0,25145:0:0:0:0:
448,192,25045,1,0,0:0:0:0:
320,192,25345,128,0,25545:0:0:0:0:
64,192,25645,1,0,0:0:0:0:
192,192,25645,1,0,0:0:0:0:
448,192,25856,1,0,0:0:0:0:
64,192,26056,1,0,0:0:0:0:
320,192,26056,1,0,0:0:0:0:
192,192,26256,1,0,0:0:0:0:
320,192,26456,1,0,0:0:0:0:
448,192,26456,1,0,0:0:0:0:
192,192,26656,1,0,0:0:0:0:
64,192,26856,1,0,0:0:0:0:
320,192,26856,1,0,0:0:0:0:
192,192,27056,1,0,0:0:0:0:
320,192,27256,1,0,0:0:0:0:
448,192,27256,1,0,0:0:0:0:
192,192,27456,1,0,0:0:0:0:
192,192,27656,1,0,0:0:0:0:
448,192,27656,1,0,0:0:0:0:
320,192,27856,1,0,0:0:0:0:
192,192,28056,1,0,0:0:0:0:
64,192,28056,1,0,0:0:0:0:
320,192,28256,1,0,0:0:0:0:
192,192,28456,1,0,0:0:0:0:
64,192,28656,1,0,0:0:0:0:
192,192,28856,1,0,0:0:0:0:
448,192,28856,1,0,0:0:0:0:
320,192,29056,1,0,0:0:0:0:
320,192,29256,1,0,0:0:0:0:
192,192,29256,1,0,0:0:0:0:
192,192,29456,1,0,0:0:0:0:
64,192,29656,1,0,0:0:0:0:
320,192,29656,1,0,0:0:0:0:
192,192,29856,1,0,0:0:0:0:
320,192,30056,1,0,0:0:0:0:
448,192,30056,1,0,0:0:0:0:
192,192,30256,1,0,0:0:0:0:
64,192,30456,1,0,0:0:0:0:
320,192,30456,1,0,0:0:0:0:
192,192,30656,1,0,0:0:0:0:
320,192,30856,1,0,0:0:0:0:
448,192,31056,1,0,0:0:0:0:
192,192,31256,1,0,0:0:0:0:
320,192,31256,1,0,0:0:0:0:
448,192,31456,1,0,0:0:0:0:
64,192,31656,1,0,0:0:0:0:
320,192,31656,1,0,0:0:0:0:
192,192,31856,1,0,0:0:0:0:
320,192,32056,1,0,0:0:0:0:
448,192,32056,1,0,0:0:0:0:
64,192,32156,1,0,0:0:0:0:
192,192,32256,1,0,0:0:0:0:
448,192,32356,1,0,0:0:0:0:
64,192,32456,1,0,0:0:0:0:
320,192,32456,1,0,0:0:0:0:
192,192,32656,1,0,0:0:0:0:
320,192,32856,1,0,0:0:0:0:
448,192,32856,1,0,0:0:0:0:
64,192,32956,1,0,0:0:0:0:
192,192,33056,1,0,0:0:0:0:
448,192,33156,1,0,0:0:0:0:
320,192,33256,1,0,0:0:0:0:
64,192,33256,1,0,0:0:0:0:
192,192,33456,1,0,0:0:0:0:
320,192,33656,1,0,0:0:0:0:
448,192,33656,1,0,0:0:0:0:
64,192,33756,1,0,0:0:0:0:
192,192,33856,1,0,0:0:0:0:
448,192,33956,1,0,0:0:0:0:
64,192,34056,1,0,0:0:0:0:
320,192,34056,1,0,0:0:0:0:
192,192,34256,1,0,0:0:0:0:
320,192,34456,1,0,0:0:0:0:
448,192,34456,1,0,0:0:0:0:
64,192,34556,1,0,0:0:0:0:
192,192,34656,1,0,0:0:0:0:
448,192,34756,1,0,0:0:0:0:
64,192,34856,1,0,0:0:0:0:
320,192,34856,1,0,0:0:0:0:
192,192,35056,1,0,0:0:0:0:
320,192,35256,1,0,0:0:0:0:
64,192,35256,1,0,0:0:0:0:
448,192,35356,1,0,0:0:0:0:
192,192,35456,1,0,0:0:0:0:
64,192,35556,1,0,0:0:0:0:
320,192,35656,1,0,0:0:0:0:
448,192,35656,1,0,0:0:0:0:
192,192,35856,1,0,0:0:0:0:
64,192,36056,1,0,0:0:0:0:
320,192,36056,1,0,0:0:0:0:
448,192,36156,1,0,0:0:0:0:
192,192,36256,1,0,0:0:0:0:
64,192,36356,1,0,0:0:0:0:
192,192,36456,1,0,0:0:0:0:
320,192,36456,1,0,0:0:0:0:
448,192,36656,1,0,0:0:0:0:
64,192,36856,1,0,0:0:0:0:
320,192,36856,1,0,0:0:0:0:
448,192,36956,1,0,0:0:0:0:
192,192,37056,1,0,0:0:0:0:
64,192,37156,1,0,0:0:0:0:
192,192,37256,1,0,0:0:0:0:
320,192,37256,1,0,0:0:0:0:
448,192,37456,1,0,0:0:0:0:
192,192,37656,1,0,0:0:0:0:
320,192,37656,1,0,0:0:0:0:
448,192,37756,1,0,0:0:0:0:
64,192,37856,1,0,0:0:0:0:
320,192,37956,1,0,0:0:0:0:
192,192,38056,1,0,0:0:0:0:
320,192,38256,1,0,0:0:0:0:
64,192,38414,1,0,0:0:0:0:
448,192,38456,1,0,0:0:0:0:
320,192,38514,1,0,0:0:0:0:
192,192,38614,1,0,0:0:0:0:
320,192,38714,1,0,0:0:0:0:
192,192,38814,1,0,0:0:0:0:
64,192,39014,1,0,0:0:0:0:
192,192,39214,1,0,0:0:0:0:
320,192,39214,1,0,0:0:0:0:
64,192,39314,1,0,0:0:0:0:
448,192,39414,1,0,0:0:0:0:
192,192,39514,1,0,0:0:0:0:
64,192,39614,1,0,0:0:0:0:
320,192,39614,1,0,0:0:0:0:
320,192,39814,1,0,0:0:0:0:
448,192,39814,1,0,0:0:0:0:
192,192,40014,1,0,0:0:0:0:
448,192,40014,1,0,0:0:0:0:
64,192,40114,1,0,0:0:0:0:
320,192,40214,1,0,0:0:0:0:
448,192,40314,1,0,0:0:0:0:
64,192,40414,1,0,0:0:0:0:
192,192,40414,1,0,0:0:0:0:
320,192,40614,1,0,0:0:0:0:
448,192,40814,1,0,0:0:0:0:
192,192,40814,1,0,0:0:0:0:
64,192,40914,1,0,0:0:0:0:
320,192,41014,1,0,0:0:0:0:
448,192,41114,1,0,0:0:0:0:
64,192,41214,1,0,0:0:0:0:
192,192,41414,1,0,0:0:0:0:
320,192,41614,1,0,0:0:0:0:
448,192,41614,1,0,0:0:0:0:
192,192,41714,1,0,0:0:0:0:
64,192,41814,1,0,0:0:0:0:
320,192,41914,1,0,0:0:0:0:
192,192,42014,1,0,0:0:0:0:
448,192,42014,1,0,0:0:0:0:
320,192,42214,1,0,0:0:0:0:
192,192,42414,1,0,0:0:0:0:
320,192,42414,1,0,0:0:0:0:
448,192,42514,1,0,0:0:0:0:
64,192,42614,1,0,0:0:0:0:
320,192,42714,1,0,0:0:0:0:
192,192,42814,1,0,0:0:0:0:
448,192,42814,1,0,0:0:0:0:
64,192,42914,1,0,0:0:0:0:
320,192,43014,1,0,0:0:0:0:
192,192,43214,1,0,0:0:0:0:
448,192,43214,1,0,0:0:0:0:
64,192,43314,1,0,0:0:0:0:
320,192,43414,1,0,0:0:0:0:
448,192,43514,1,0,0:0:0:0:
64,192,43614,1,0,0:0:0:0:
192,192,43614,1,0,0:0:0:0:
192,192,43814,1,0,0:0:0:0:
320,192,44014,1,0,0:0:0:0:
64,192,44014,1,0,0:0:0:0:
448,192,44114,1,0,0:0:0:0:
192,192,44214,1,0,0:0:0:0:
448,192,44314,1,0,0:0:0:0:
320,192,44414,1,0,0:0:0:0:
64,192,44414,1,0,0:0:0:0:
192,192,44614,1,0,0:0:0:0:
320,192,44814,1,0,0:0:0:0:
448,192,44814,1,0,0:0:0:0:
192,192,44914,1,0,0:0:0:0:
64,192,45014,1,0,0:0:0:0:
320,192,45014,1,0,0:0:0:0:
448,192,45114,1,0,0:0:0:0:
192,192,45214,1,0,0:0:0:0:
320,192,45214,1,0,0:0:0:0:
448,192,45414,1,0,0:0:0:0:
192,192,45614,1,0,0:0:0:0:
320,192,45614,1,0,0:0:0:0:
448,192,45714,1,0,0:0:0:0:
64,192,45814,1,0,0:0:0:0:
448,192,45914,1,0,0:0:0:0:
192,192,46014,1,0,0:0:0:0:
320,192,46014,1,0,0:0:0:0:
192,192,46214,1,0,0:0:0:0:
320,192,46414,1,0,0:0:0:0:
64,192,46414,1,0,0:0:0:0:
448,192,46514,1,0,0:0:0:0:
192,192,46614,1,0,0:0:0:0:
320,192,46714,1,0,0:0:0:0:
64,192,46814,1,0,0:0:0:0:
192,192,46814,1,0,0:0:0:0:
320,192,47014,1,0,0:0:0:0:
192,192,47214,1,0,0:0:0:0:
448,192,47214,1,0,0:0:0:0:
64,192,47314,1,0,0:0:0:0:
320,192,47414,1,0,0:0:0:0:
448,192,47514,1,0,0:0:0:0:
192,192,47614,1,0,0:0:0:0:
64,192,47814,1,0,0:0:0:0:
448,192,48014,1,0,0:0:0:0:
192,192,48014,1,0,0:0:0:0:
64,192,48114,1,0,0:0:0:0:
320,192,48214,1,0,0:0:0:0:
448,192,48314,1,0,0:0:0:0:
192,192,48414,1,0,0:0:0:0:
320,192,48414,1,0,0:0:0:0:
64,192,48614,1,0,0:0:0:0:
192,192,48814,1,0,0:0:0:0:
320,192,48814,1,0,0:0:0:0:
64,192,48914,1,0,0:0:0:0:
448,192,49014,1,0,0:0:0:0:
192,192,49114,1,0,0:0:0:0:
64,192,49214,1,0,0:0:0:0:
320,192,49214,1,0,0:0:0:0:
192,192,49314,1,0,0:0:0:0:
320,192,49414,1,0,0:0:0:0:
192,192,49514,1,0,0:0:0:0:
320,192,49614,1,0,0:0:0:0:
64,192,49614,1,0,0:0:0:0:
192,192,49714,1,0,0:0:0:0:
448,192,49814,1,0,0:0:0:0:
320,192,49914,1,0,0:0:0:0:
192,192,50014,1,0,0:0:0:0:
448,192,50014,1,0,0:0:0:0:
320,192,50114,1,0,0:0:0:0:
192,192,50214,1,0,0:0:0:0:
64,192,50314,1,0,0:0:0:0:
192,192,50414,1,0,0:0:0:0:
320,192,50414,1,0,0:0:0:0:
448,192,50514,1,0,0:0:0:0:
64,192,50614,1,0,0:0:0:0:
192,192,50714,1,0,0:0:0:0:
320,192,50814,1,0,0:0:0:0:
448,192,50814,1,0,0:0:0:0:
192,192,50914,1,0,0:0:0:0:
64,192,51014,1,0,0:0:0:0:
320,192,51014,1,0,0:0:0:0:
192,192,51114,1,0,0:0:0:0:
64,192,51245,1,0,0:0:0:0:
320,192,51245,1,0,0:0:0:0:
192,192,51245,1,0,0:0:0:0:
448,192,51345,1,0,0:0:0:0:
64,192,51445,1,0,0:0:0:0:
448,192,51545,1,0,0:0:0:0:
64,192,51645,1,0,0:0:0:0:
448,192,51745,1,0,0:0:0:0:
64,192,51845,1,0,0:0:0:0:
448,192,51945,1,0,0:0:0:0:
64,192,52045,1,0,0:0:0:0:
320,192,52045,1,0,0:0:0:0:
448,192,52145,1,0,0:0:0:0:
64,192,52245,1,0,0:0:0:0:
448,192,52345,1,0,0:0:0:0:
64,192,52445,1,0,0:0:0:0:
448,192,52545,1,0,0:0:0:0:
64,192,52645,1,0,0:0:0:0:
448,192,52745,1,0,0:0:0:0:
64,192,52845,1,0,0:0:0:0:
192,192,52845,1,0,0:0:0:0:
448,192,52945,1,0,0:0:0:0:
64,192,53045,1,0,0:0:0:0:
448,192,53145,1,0,0:0:0:0:
64,192,53245,1,0,0:0:0:0:
448,192,53345,1,0,0:0:0:0:
64,192,53445,1,0,0:0:0:0:
448,192,53545,1,0,0:0:0:0:
64,192,53645,1,0,0:0:0:0:
192,192,53645,1,0,0:0:0:0:
448,192,53745,1,0,0:0:0:0:
64,192,53845,1,0,0:0:0:0:
448,192,53945,1,0,0:0:0:0:
64,192,54045,1,0,0:0:0:0:
448,192,54145,1,0,0:0:0:0:
64,192,54245,1,0,0:0:0:0:
448,192,54345,1,0,0:0:0:0:
64,192,54445,1,0,0:0:0:0:
320,192,54445,1,0,0:0:0:0:
448,192,54545,1,0,0:0:0:0:
64,192,54645,1,0,0:0:0:0:
448,192,54745,1,0,0:0:0:0:
64,192,54845,1,0,0:0:0:0:
448,192,54945,1,0,0:0:0:0:
64,192,55045,1,0,0:0:0:0:
448,192,55145,1,0,0:0:0:0:
64,192,55245,1,0,0:0:0:0:
192,192,55245,1,0,0:0:0:0:
448,192,55345,1,0,0:0:0:0:
64,192,55445,1,0,0:0:0:0:
448,192,55545,1,0,0:0:0:0:
64,192,55645,1,0,0:0:0:0:
448,192,55745,1,0,0:0:0:0:
64,192,55845,1,0,0:0:0:0:
448,192,55945,1,0,0:0:0:0:
64,192,56045,1,0,0:0:0:0:
320,192,56045,1,0,0:0:0:0:
448,192,56145,1,0,0:0:0:0:
64,192,56245,1,0,0:0:0:0:
448,192,56345,1,0,0:0:0:0:
64,192,56445,1,0,0:0:0:0:
448,192,56545,1,0,0:0:0:0:
64,192,56645,1,0,0:0:0:0:
448,192,56745,1,0,0:0:0:0:
64,192,56845,1,0,0:0:0:0:
192,192,56845,1,0,0:0:0:0:
448,192,56945,1,0,0:0:0:0:
64,192,57045,1,0,0:0:0:0:
448,192,57145,1,0,0:0:0:0:
64,192,57245,1,0,0:0:0:0:
320,192,57245,1,0,0:0:0:0:
448,192,57345,1,0,0:0:0:0:
64,192,57445,1,0,0:0:0:0:
448,192,57545,1,0,0:0:0:0:
64,192,57645,1,0,0:0:0:0:
192,192,57778,1,0,0:0:0:0:
448,192,57845,1,0,0:0:0:0:
64,192,57845,1,0,0:0:0:0:
320,192,57911,1,0,0:0:0:0:
448,192,57978,1,0,0:0:0:0:
64,192,58045,1,0,0:0:0:0:
192,192,58045,1,0,0:0:0:0:
320,192,58145,1,0,0:0:0:0:
192,192,58211,1,0,0:0:0:0:
448,192,58245,1,0,0:0:0:0:
64,192,58245,1,0,0:0:0:0:
320,192,58311,1,0,0:0:0:0:
448,192,58378,1,0,0:0:0:0:
64,192,58445,1,0,0:0:0:0:
192,192,58445,1,0,0:0:0:0:
320,192,58578,1,0,0:0:0:0:
448,192,58645,1,0,0:0:0:0:
192,192,58645,1,0,0:0:0:0:
320,192,58711,1,0,0:0:0:0:
448,192,58778,1,0,0:0:0:0:
64,192,58845,1,0,0:0:0:0:
192,192,58845,1,0,0:0:0:0:
448,192,58945,1,0,0:0:0:0:
320,192,58978,1,0,0:0:0:0:
192,192,59045,1,0,0:0:0:0:
64,192,59045,1,0,0:0:0:0:
320,192,59111,1,0,0:0:0:0:
448,192,59178,1,0,0:0:0:0:
192,192,59245,1,0,0:0:0:0:
320,192,59345,1,0,0:0:0:0:
64,192,59411,1,0,0:0:0:0:
448,192,59445,1,0,0:0:0:0:
192,192,59445,1,0,0:0:0:0:
320,192,59511,1,0,0:0:0:0:
448,192,59578,1,0,0:0:0:0:
64,192,59645,1,0,0:0:0:0:
192,192,59645,1,0,0:0:0:0:
320,192,59745,1,0,0:0:0:0:
448,192,59811,1,0,0:0:0:0:
64,192,59845,1,0,0:0:0:0:
448,192,59911,1,0,0:0:0:0:
320,192,59978,1,0,0:0:0:0:
192,192,60045,1,0,0:0:0:0:
448,192,60145,1,0,0:0:0:0:
320,192,60178,1,0,0:0:0:0:
64,192,60245,1,0,0:0:0:0:
320,192,60311,1,0,0:0:0:0:
448,192,60378,1,0,0:0:0:0:
192,192,60445,1,0,0:0:0:0:
320,192,60545,1,0,0:0:0:0:
448,192,60645,1,0,0:0:0:0:
64,192,60645,1,0,0:0:0:0:
320,192,60711,1,0,0:0:0:0:
448,192,60778,1,0,0:0:0:0:
64,192,60845,1,0,0:0:0:0:
192,192,60845,1,0,0:0:0:0:
448,192,60945,1,0,0:0:0:0:
320,192,61011,1,0,0:0:0:0:
64,192,61045,1,0,0:0:0:0:
448,192,61078,1,0,0:0:0:0:
320,192,61145,1,0,0:0:0:0:
448,192,61211,1,0,0:0:0:0:
192,192,61245,1,0,0:0:0:0:
320,192,61311,1,0,0:0:0:0:
448,192,61378,1,0,0:0:0:0:
64,192,61445,1,0,0:0:0:0:
448,192,61511,1,0,0:0:0:0:
320,192,61545,1,0,0:0:0:0:
64,192,61645,1,0,0:0:0:0:
448,192,61645,1,0,0:0:0:0:
192,192,61711,1,0,0:0:0:0:
448,192,61778,1,0,0:0:0:0:
64,192,61845,1,0,0:0:0:0:
320,192,61845,1,0,0:0:0:0:
448,192,61911,1,0,0:0:0:0:
320,192,61978,1,0,0:0:0:0:
64,192,62045,1,0,0:0:0:0:
448,192,62045,1,0,0:0:0:0:
320,192,62111,1,0,0:0:0:0:
192,192,62178,1,0,0:0:0:0:
64,192,62245,1,0,0:0:0:0:
320,192,62245,1,0,0:0:0:0:
448,192,62311,1,0,0:0:0:0:
192,192,62378,1,0,0:0:0:0:
64,192,62445,1,0,0:0:0:0:
320,192,62445,1,0,0:0:0:0:
448,192,62545,1,0,0:0:0:0:
192,192,62545,1,0,0:0:0:0:
64,192,62645,1,0,0:0:0:0:
320,192,62645,1,0,0:0:0:0:
448,192,62778,1,0,0:0:0:0:
64,192,62845,1,0,0:0:0:0:
192,192,62845,1,0,0:0:0:0:
320,192,62845,1,0,0:0:0:0:
320,192,62978,1,0,0:0:0:0:
64,192,63045,1,0,0:0:0:0:
448,192,63045,1,0,0:0:0:0:
192,192,63045,1,0,0:0:0:0:
320,192,63178,1,0,0:0:0:0:
192,192,63245,1,0,0:0:0:0:
448,192,64086,1,0,0:0:0:0:
64,192,64281,1,0,0:0:0:0:
320,192,64476,1,0,0:0:0:0:
192,192,64671,1,0,0:0:0:0:
64,192,64671,1,0,0:0:0:0:
320,192,64768,1,0,0:0:0:0:
192,192,64768,1,0,0:0:0:0:
64,192,64866,1,0,0:0:0:0:
448,192,64866,1,0,0:0:0:0:
192,192,65245,1,0,0:0:0:0:
320,192,65245,1,0,0:0:0:0:
64,192,65645,1,0,0:0:0:0:
192,192,65845,1,0,0:0:0:0:
320,192,65845,1,0,0:0:0:0:
448,192,66045,1,0,0:0:0:0:
320,192,66145,1,0,0:0:0:0:
192,192,66245,1,0,0:0:0:0:
448,192,66245,1,0,0:0:0:0:
320,192,66345,1,0,0:0:0:0:
192,192,66445,1,0,0:0:0:0:
64,192,66445,1,0,0:0:0:0:
192,192,66645,1,0,0:0:0:0:
448,192,66845,1,0,0:0:0:0:
192,192,67245,1,0,0:0:0:0:
320,192,67245,1,0,0:0:0:0:
64,192,67311,128,0,67445:0:0:0:0:
192,192,67445,1,0,0:0:0:0:
320,192,67445,1,0,0:0:0:0:
448,192,67511,128,0,67845:0:0:0:0:
64,192,67845,1,0,0:0:0:0:
192,192,67845,1,0,0:0:0:0:
320,192,67911,128,0,68045:0:0:0:0:
192,192,68045,1,0,0:0:0:0:
448,192,68045,1,0,0:0:0:0:
64,192,68045,128,0,68245:0:0:0:0:
64,192,68445,1,0,0:0:0:0:
192,192,68445,1,0,0:0:0:0:
448,192,68511,128,0,68645:0:0:0:0:
320,192,68645,1,0,0:0:0:0:
192,192,68645,1,0,0:0:0:0:
64,192,68711,128,0,69045:0:0:0:0:
448,192,69045,1,0,0:0:0:0:
320,192,69111,128,0,69245:0:0:0:0:
192,192,69311,128,0,69445:0:0:0:0:
448,192,69445,1,0,0:0:0:0:
64,192,69445,1,0,0:0:0:0:
320,192,69511,128,0,69645:0:0:0:0:
192,192,69645,1,0,0:0:0:0:
64,192,69645,1,0,0:0:0:0:
320,192,70045,1,0,0:0:0:0:
192,192,70045,1,0,0:0:0:0:
64,192,70245,1,0,0:0:0:0:
192,192,70378,1,0,0:0:0:0:
320,192,70445,1,0,0:0:0:0:
64,192,70445,1,0,0:0:0:0:
192,192,70645,1,0,0:0:0:0:
64,192,70845,1,0,0:0:0:0:
448,192,70845,1,0,0:0:0:0:
320,192,70945,1,0,0:0:0:0:
192,192,70945,1,0,0:0:0:0:
64,192,71045,1,0,0:0:0:0:
192,192,71045,1,0,0:0:0:0:
320,192,71145,1,0,0:0:0:0:
448,192,71145,1,0,0:0:0:0:
192,192,71245,1,0,0:0:0:0:
448,192,71245,1,0,0:0:0:0:
320,192,71445,1,0,0:0:0:0:
64,192,71511,128,0,71711:0:0:0:0:
320,192,71645,1,0,0:0:0:0:
448,192,71645,1,0,0:0:0:0:
192,192,71711,128,0,71845:0:0:0:0:
320,192,71845,1,0,0:0:0:0:
64,192,72045,1,0,0:0:0:0:
320,192,72045,1,0,0:0:0:0:
192,192,72111,128,0,72245:0:0:0:0:
320,192,72245,1,0,0:0:0:0:
448,192,72245,1,0,0:0:0:0:
64,192,72245,128,0,72378:0:0:0:0:
192,192,72378,1,0,0:0:0:0:
448,192,72445,1,0,0:0:0:0:
320,192,72445,1,0,0:0:0:0:
64,192,72578,1,0,0:0:0:0:
320,192,72578,1,0,0:0:0:0:
448,192,72645,1,0,0:0:0:0:
192,192,72645,1,0,0:0:0:0:
64,192,72711,128,0,72845:0:0:0:0:
320,192,72845,1,0,0:0:0:0:
192,192,72845,1,0,0:0:0:0:
448,192,73045,1,0,0:0:0:0:
64,192,73245,1,0,0:0:0:0:
192,192,73445,1,0,0:0:0:0:
192,192,73645,1,0,0:0:0:0:
64,192,73645,1,0,0:0:0:0:
448,192,73711,128,0,73845:0:0:0:0:
192,192,73845,1,0,0:0:0:0:
320,192,73845,1,0,0:0:0:0:
64,192,73911,128,0,73978:0:0:0:0:
448,192,74045,1,0,0:0:0:0:
320,192,74111,1,0,0:0:0:0:
192,192,74178,1,0,0:0:0:0:
64,192,74245,1,0,0:0:0:0:
448,192,74345,1,0,0:0:0:0:
192,192,74445,1,0,0:0:0:0:
64,192,74445,1,0,0:0:0:0:
320,192,74611,1,0,0:0:0:0:
64,192,74811,1,0,0:0:0:0:
320,192,74845,1,0,0:0:0:0:
192,192,74845,1,0,0:0:0:0:
192,192,75045,1,0,0:0:0:0:
320,192,75045,1,0,0:0:0:0:
448,192,75311,1,0,0:0:0:0:
320,192,75378,1,0,0:0:0:0:
192,192,75445,1,0,0:0:0:0:
64,192,75545,1,0,0:0:0:0:
320,192,75678,1,0,0:0:0:0:
192,192,75811,1,0,0:0:0:0:
64,192,76011,1,0,0:0:0:0:
192,192,76045,1,0,0:0:0:0:
320,192,76045,1,0,0:0:0:0:
320,192,76245,1,0,0:0:0:0:
192,192,76245,1,0,0:0:0:0:
320,192,76478,1,0,0:0:0:0:
448,192,76478,1,0,0:0:0:0:
192,192,76645,1,0,0:0:0:0:
320,192,76645,1,0,0:0:0:0:
320,192,76778,1,0,0:0:0:0:
448,192,76778,1,0,0:0:0:0:
64,192,76911,128,0,77045:0:0:0:0:
192,192,77111,128,0,77245:0:0:0:0:
64,192,77311,128,0,77445:0:0:0:0:
448,192,77445,1,0,0:0:0:0:
320,192,77445,1,0,0:0:0:0:
192,192,77578,1,0,0:0:0:0:
320,192,77578,1,0,0:0:0:0:
64,192,77645,1,0,0:0:0:0:
448,192,77645,1,0,0:0:0:0:
320,192,78045,1,0,0:0:0:0:
448,192,78045,1,0,0:0:0:0:
320,192,78645,1,0,0:0:0:0:
448,192,78645,1,0,0:0:0:0:
320,192,79045,1,0,0:0:0:0:
448,192,79045,1,0,0:0:0:0:
64,192,79245,1,0,0:0:0:0:
192,192,79345,1,0,0:0:0:0:
320,192,79445,1,0,0:0:0:0:
448,192,79545,1,0,0:0:0:0:
64,192,79645,1,0,0:0:0:0:
192,192,79745,1,0,0:0:0:0:
320,192,79845,1,0,0:0:0:0:
448,192,79945,1,0,0:0:0:0:
64,192,80045,1,0,0:0:0:0:
192,192,80045,1,0,0:0:0:0:
64,192,80311,1,0,0:0:0:0:
192,192,80311,1,0,0:0:0:0:
64,192,80645,1,0,0:0:0:0:
192,192,80645,1,0,0:0:0:0:
64,192,80845,1,0,0:0:0:0:
192,192,80845,1,0,0:0:0:0:
64,192,81245,1,0,0:0:0:0:
320,192,81245,1,0,0:0:0:0:
192,192,81511,1,0,0:0:0:0:
64,192,81511,1,0,0:0:0:0:
192,192,81878,1,0,0:0:0:0:
64,192,81878,1,0,0:0:0:0:
192,192,82111,1,0,0:0:0:0:
320,192,82111,1,0,0:0:0:0:
320,192,82245,1,0,0:0:0:0:
448,192,82245,1,0,0:0:0:0:
192,192,82311,1,0,0:0:0:0:
64,192,82445,1,0,0:0:0:0:
448,192,82645,1,0,0:0:0:0:
320,192,82845,1,0,0:0:0:0:
64,192,83045,1,0,0:0:0:0:
448,192,83145,1,0,0:0:0:0:
192,192,83245,1,0,0:0:0:0:
320,192,83245,1,0,0:0:0:0:
192,192,83645,1,0,0:0:0:0:
320,192,83645,1,0,0:0:0:0:
192,192,83911,1,0,0:0:0:0:
320,192,83911,1,0,0:0:0:0:
64,192,84045,1,0,0:0:0:0:
192,192,84278,1,0,0:0:0:0:
320,192,84278,1,0,0:0:0:0:
192,192,84445,1,0,0:0:0:0:
320,192,84445,1,0,0:0:0:0:
192,192,84845,1,0,0:0:0:0:
320,192,84845,1,0,0:0:0:0:
192,192,85045,1,0,0:0:0:0:
320,192,85045,1,0,0:0:0:0:
192,192,85445,1,0,0:0:0:0:
320,192,85445,1,0,0:0:0:0:
192,192,85645,1,0,0:0:0:0:
448,192,85645,1,0,0:0:0:0:
64,192,86045,1,0,0:0:0:0:
192,192,86145,1,0,0:0:0:0:
320,192,86245,1,0,0:0:0:0:
192,192,86378,1,0,0:0:0:0:
64,192,86445,1,0,0:0:0:0:
320,192,86445,1,0,0:0:0:0:
320,192,86711,1,0,0:0:0:0:
64,192,86711,1,0,0:0:0:0:
448,192,86878,1,0,0:0:0:0:
320,192,86945,1,0,0:0:0:0:
192,192,87011,1,0,0:0:0:0:
64,192,87078,1,0,0:0:0:0:
192,192,87145,1,0,0:0:0:0:
448,192,87245,1,0,0:0:0:0:
320,192,87245,1,0,0:0:0:0:
192,192,87411,1,0,0:0:0:0:
64,192,87611,1,0,0:0:0:0:
320,192,87645,1,0,0:0:0:0:
448,192,87645,1,0,0:0:0:0:
320,192,87911,1,0,0:0:0:0:
448,192,87911,1,0,0:0:0:0:
64,192,88045,1,0,0:0:0:0:
448,192,88111,1,0,0:0:0:0:
320,192,88178,1,0,0:0:0:0:
192,192,88245,1,0,0:0:0:0:
64,192,88345,1,0,0:0:0:0:
448,192,88445,1,0,0:0:0:0:
320,192,88578,1,0,0:0:0:0:
192,192,88778,1,0,0:0:0:0:
64,192,88945,1,0,0:0:0:0:
448,192,89045,1,0,0:0:0:0:
320,192,89178,1,0,0:0:0:0:
192,192,89311,1,0,0:0:0:0:
64,192,89411,1,0,0:0:0:0:
448,192,89545,1,0,0:0:0:0:
448,192,90445,1,0,0:0:0:0:
320,192,90445,1,0,0:0:0:0:
192,192,90545,1,0,0:0:0:0:
64,192,90845,1,0,0:0:0:0:
192,192,90845,1,0,0:0:0:0:
320,192,91045,1,0,0:0:0:0:
448,192,91245,1,0,0:0:0:0:
320,192,91245,1,0,0:0:0:0:
192,192,91445,1,0,0:0:0:0:
64,192,91545,1,0,0:0:0:0:
320,192,91545,1,0,0:0:0:0:
192,192,91645,1,0,0:0:0:0:
320,192,91845,1,0,0:0:0:0:
448,192,91845,1,0,0:0:0:0:
192,192,92045,1,0,0:0:0:0:
448,192,92045,1,0,0:0:0:0:
64,192,92045,1,0,0:0:0:0:
64,192,92245,1,0,0:0:0:0:
192,192,92445,1,0,0:0:0:0:
64,192,92645,1,0,0:0:0:0:
320,192,92845,1,0,0:0:0:0:
192,192,92845,1,0,0:0:0:0:
448,192,92945,1,0,0:0:0:0:
192,192,93045,1,0,0:0:0:0:
64,192,93145,1,0,0:0:0:0:
320,192,93145,1,0,0:0:0:0:
192,192,93245,1,0,0:0:0:0:
448,192,93245,1,0,0:0:0:0:
320,192,93445,1,0,0:0:0:0:
192,192,93445,1,0,0:0:0:0:
64,192,93645,1,0,0:0:0:0:
192,192,93645,1,0,0:0:0:0:
448,192,93645,1,0,0:0:0:0:
320,192,93845,1,0,0:0:0:0:
192,192,94045,1,0,0:0:0:0:
320,192,94245,1,0,0:0:0:0:
192,192,94445,1,0,0:0:0:0:
448,192,94445,1,0,0:0:0:0:
320,192,94645,1,0,0:0:0:0:
192,192,94745,1,0,0:0:0:0:
448,192,94745,1,0,0:0:0:0:
320,192,94845,1,0,0:0:0:0:
64,192,94845,1,0,0:0:0:0:
192,192,95045,1,0,0:0:0:0:
320,192,95045,1,0,0:0:0:0:
448,192,95145,1,0,0:0:0:0:
192,192,95245,1,0,0:0:0:0:
64,192,95245,1,0,0:0:0:0:
320,192,95245,1,0,0:0:0:0:
320,192,95445,1,0,0:0:0:0:
448,192,95445,1,0,0:0:0:0:
192,192,95645,1,0,0:0:0:0:
320,192,95645,1,0,0:0:0:0:
448,192,95645,1,0,0:0:0:0:
64,192,95845,1,0,0:0:0:0:
192,192,96045,1,0,0:0:0:0:
448,192,96045,1,0,0:0:0:0:
64,192,96045,1,0,0:0:0:0:
320,192,96145,1,0,0:0:0:0:
192,192,96245,1,0,0:0:0:0:
192,192,96645,1,0,0:0:0:0:
320,192,96645,1,0,0:0:0:0:
448,192,96645,1,0,0:0:0:0:
192,192,96845,1,0,0:0:0:0:
448,192,96845,1,0,0:0:0:0:
64,192,96945,1,0,0:0:0:0:
192,192,97045,1,0,0:0:0:0:
320,192,97245,1,0,0:0:0:0:
448,192,97245,1,0,0:0:0:0:
64,192,97245,1,0,0:0:0:0:
192,192,97445,1,0,0:0:0:0:
64,192,97745,1,0,0:0:0:0:
192,192,97845,1,0,0:0:0:0:
448,192,97845,1,0,0:0:0:0:
448,192,98045,1,0,0:0:0:0:
192,192,98045,1,0,0:0:0:0:
64,192,98245,1,0,0:0:0:0:
192,192,98245,1,0,0:0:0:0:
320,192,98245,1,0,0:0:0:0:
448,192,98445,1,0,0:0:0:0:
192,192,98445,1,0,0:0:0:0:
64,192,98645,1,0,0:0:0:0:
192,192,98745,1,0,0:0:0:0:
320,192,98845,1,0,0:0:0:0:
448,192,98945,1,0,0:0:0:0:
192,192,99045,1,0,0:0:0:0:
64,192,99245,1,0,0:0:0:0:
320,192,99245,1,0,0:0:0:0:
448,192,99245,1,0,0:0:0:0:
192,192,99445,1,0,0:0:0:0:
320,192,99645,1,0,0:0:0:0:
192,192,99845,1,0,0:0:0:0:
448,192,99845,1,0,0:0:0:0:
320,192,100045,1,0,0:0:0:0:
64,192,100045,1,0,0:0:0:0:
192,192,100245,1,0,0:0:0:0:
320,192,100445,1,0,0:0:0:0:
448,192,100445,1,0,0:0:0:0:
64,192,100445,1,0,0:0:0:0:
192,192,100645,1,0,0:0:0:0:
64,192,100945,1,0,0:0:0:0:
192,192,101045,1,0,0:0:0:0:
448,192,101045,1,0,0:0:0:0:
64,192,101245,1,0,0:0:0:0:
320,192,101245,1,0,0:0:0:0:
192,192,101445,1,0,0:0:0:0:
320,192,101445,1,0,0:0:0:0:
320,192,101645,1,0,0:0:0:0:
448,192,101645,1,0,0:0:0:0:
64,192,101845,1,0,0:0:0:0:
320,192,101845,1,0,0:0:0:0:
192,192,101945,1,0,0:0:0:0:
320,192,101945,1,0,0:0:0:0:
320,192,102045,1,0,0:0:0:0:
448,192,102045,1,0,0:0:0:0:
192,192,102145,1,0,0:0:0:0:
64,192,102145,1,0,0:0:0:0:
192,192,102245,1,0,0:0:0:0:
448,192,102245,1,0,0:0:0:0:
320,192,102445,1,0,0:0:0:0:
448,192,102445,1,0,0:0:0:0:
64,192,102445,1,0,0:0:0:0:
64,192,102645,1,0,0:0:0:0:
192,192,102845,1,0,0:0:0:0:
320,192,102845,1,0,0:0:0:0:
448,192,102845,1,0,0:0:0:0:
448,192,103045,1,0,0:0:0:0:
64,192,103045,1,0,0:0:0:0:
192,192,103245,1,0,0:0:0:0:
320,192,103245,1,0,0:0:0:0:
448,192,103245,1,0,0:0:0:0:
64,192,103445,1,0,0:0:0:0:
192,192,103645,1,0,0:0:0:0:
448,192,103645,1,0,0:0:0:0:
64,192,103645,1,0,0:0:0:0:
320,192,103845,1,0,0:0:0:0:
64,192,104045,1,0,0:0:0:0:
192,192,104045,1,0,0:0:0:0:
448,192,104045,1,0,0:0:0:0:
320,192,104245,1,0,0:0:0:0:
192,192,104445,1,0,0:0:0:0:
320,192,104445,1,0,0:0:0:0:
64,192,104445,1,0,0:0:0:0:
448,192,104645,1,0,0:0:0:0:
64,192,104645,1,0,0:0:0:0:
192,192,104845,1,0,0:0:0:0:
320,192,104845,1,0,0:0:0:0:
448,192,104845,1,0,0:0:0:0:
320,192,105045,1,0,0:0:0:0:
192,192,105245,1,0,0:0:0:0:
448,192,105245,1,0,0:0:0:0:
64,192,105245,1,0,0:0:0:0:
320,192,105445,1,0,0:0:0:0:
64,192,105645,1,0,0:0:0:0:
192,192,105645,1,0,0:0:0:0:
448,192,105645,1,0,0:0:0:0:
320,192,105845,1,0,0:0:0:0:
64,192,106045,1,0,0:0:0:0:
192,192,106045,1,0,0:0:0:0:
320,192,106045,1,0,0:0:0:0:
192,192,106245,1,0,0:0:0:0:
448,192,106245,1,0,0:0:0:0:
320,192,106445,1,0,0:0:0:0:
192,192,106445,1,0,0:0:0:0:
64,192,106445,1,0,0:0:0:0:
64,192,106645,1,0,0:0:0:0:
192,192,106845,1,0,0:0:0:0:
320,192,106845,1,0,0:0:0:0:
448,192,106845,1,0,0:0:0:0:
448,192,107045,1,0,0:0:0:0:
64,192,107245,1,0,0:0:0:0:
192,192,107245,1,0,0:0:0:0:
448,192,107245,1,0,0:0:0:0:
320,192,107445,1,0,0:0:0:0:
192,192,107645,1,0,0:0:0:0:
320,192,107645,1,0,0:0:0:0:
64,192,107645,1,0,0:0:0:0:
448,192,107845,1,0,0:0:0:0:
64,192,107845,1,0,0:0:0:0:
192,192,108045,1,0,0:0:0:0:
320,192,108045,1,0,0:0:0:0:
64,192,108045,1,0,0:0:0:0:
448,192,108245,1,0,0:0:0:0:
192,192,108445,1,0,0:0:0:0:
320,192,108445,1,0,0:0:0:0:
64,192,108445,1,0,0:0:0:0:
448,192,108645,1,0,0:0:0:0:
192,192,108845,1,0,0:0:0:0:
448,192,108845,1,0,0:0:0:0:
64,192,108845,1,0,0:0:0:0:
320,192,109045,1,0,0:0:0:0:
64,192,109445,1,0,0:0:0:0:
192,192,109445,1,0,0:0:0:0:
448,192,109445,1,0,0:0:0:0:
448,192,109645,1,0,0:0:0:0:
192,192,109645,1,0,0:0:0:0:
320,192,109745,1,0,0:0:0:0:
64,192,109845,1,0,0:0:0:0:
192,192,110045,1,0,0:0:0:0:
320,192,110045,1,0,0:0:0:0:
448,192,110045,1,0,0:0:0:0:
448,192,110245,1,0,0:0:0:0:
320,192,110445,1,0,0:0:0:0:
192,192,110645,1,0,0:0:0:0:
448,192,110645,1,0,0:0:0:0:
64,192,110845,1,0,0:0:0:0:
320,192,110845,1,0,0:0:0:0:
192,192,111045,1,0,0:0:0:0:
320,192,111045,1,0,0:0:0:0:
64,192,111045,1,0,0:0:0:0:
448,192,111245,1,0,0:0:0:0:
192,192,111245,1,0,0:0:0:0:
320,192,111445,1,0,0:0:0:0:
448,192,111445,1,0,0:0:0:0:
192,192,111545,1,0,0:0:0:0:
320,192,111545,1,0,0:0:0:0:
64,192,111645,1,0,0:0:0:0:
192,192,111645,1,0,0:0:0:0:
448,192,111745,1,0,0:0:0:0:
320,192,111845,1,0,0:0:0:0:
192,192,112045,1,0,0:0:0:0:
64,192,112045,1,0,0:0:0:0:
320,192,112045,1,0,0:0:0:0:
192,192,112245,1,0,0:0:0:0:
448,192,112245,1,0,0:0:0:0:
320,192,112445,1,0,0:0:0:0:
64,192,112445,1,0,0:0:0:0:
192,192,112645,1,0,0:0:0:0:
448,192,112645,1,0,0:0:0:0:
320,192,112845,1,0,0:0:0:0:
448,192,112845,1,0,0:0:0:0:
192,192,113045,1,0,0:0:0:0:
320,192,113045,1,0,0:0:0:0:
64,192,113245,1,0,0:0:0:0:
192,192,113245,1,0,0:0:0:0:
448,192,113245,1,0,0:0:0:0:
320,192,113445,1,0,0:0:0:0:
192,192,113445,1,0,0:0:0:0:
64,192,113645,1,0,0:0:0:0:
192,192,113645,1,0,0:0:0:0:
192,192,113845,1,0,0:0:0:0:
320,192,113845,1,0,0:0:0:0:
448,192,113945,1,0,0:0:0:0:
320,192,114045,1,0,0:0:0:0:
64,192,114045,1,0,0:0:0:0:
192,192,114145,1,0,0:0:0:0:
320,192,114245,1,0,0:0:0:0:
448,192,114245,1,0,0:0:0:0:
192,192,114345,1,0,0:0:0:0:
64,192,114445,1,0,0:0:0:0:
320,192,114445,1,0,0:0:0:0:
192,192,114645,1,0,0:0:0:0:
320,192,114645,1,0,0:0:0:0:
448,192,114845,1,0,0:0:0:0:
320,192,114845,1,0,0:0:0:0:
64,192,114845,1,0,0:0:0:0:
320,192,128045,5,0,0:0:0:0:
448,192,128045,1,0,0:0:0:0:
64,192,128245,1,0,0:0:0:0:
192,192,128445,1,0,0:0:0:0:
320,192,128445,1,0,0:0:0:0:
64,192,128545,1,0,0:0:0:0:
448,192,128645,1,0,0:0:0:0:
320,192,128645,1,0,0:0:0:0:
192,192,128745,1,0,0:0:0:0:
64,192,128845,1,0,0:0:0:0:
192,192,129045,1,0,0:0:0:0:
320,192,129045,1,0,0:0:0:0:
448,192,129145,1,0,0:0:0:0:
192,192,129145,1,0,0:0:0:0:
64,192,129245,1,0,0:0:0:0:
320,192,129245,1,0,0:0:0:0:
192,192,129445,1,0,0:0:0:0:
320,192,129645,1,0,0:0:0:0:
448,192,129645,1,0,0:0:0:0:
192,192,129845,1,0,0:0:0:0:
64,192,130045,1,0,0:0:0:0:
320,192,130045,1,0,0:0:0:0:
192,192,130245,1,0,0:0:0:0:
320,192,130345,1,0,0:0:0:0:
192,192,130445,1,0,0:0:0:0:
64,192,130445,1,0,0:0:0:0:
320,192,130545,1,0,0:0:0:0:
448,192,130545,1,0,0:0:0:0:
448,192,130645,1,0,0:0:0:0:
192,192,130645,1,0,0:0:0:0:
320,192,130845,1,0,0:0:0:0:
448,192,131045,1,0,0:0:0:0:
192,192,131145,1,0,0:0:0:0:
64,192,131245,1,0,0:0:0:0:
320,192,131245,1,0,0:0:0:0:
192,192,131445,1,0,0:0:0:0:
320,192,131545,1,0,0:0:0:0:
448,192,131645,1,0,0:0:0:0:
64,192,131645,1,0,0:0:0:0:
192,192,131845,1,0,0:0:0:0:
320,192,131845,1,0,0:0:0:0:
448,192,132045,1,0,0:0:0:0:
192,192,132245,1,0,0:0:0:0:
64,192,132245,1,0,0:0:0:0:
320,192,132345,1,0,0:0:0:0:
448,192,132345,1,0,0:0:0:0:
192,192,132445,1,0,0:0:0:0:
448,192,132445,1,0,0:0:0:0:
320,192,132645,1,0,0:0:0:0:
448,192,132745,1,0,0:0:0:0:
192,192,132845,1,0,0:0:0:0:
64,192,132845,1,0,0:0:0:0:
320,192,133045,1,0,0:0:0:0:
192,192,133245,1,0,0:0:0:0:
448,192,133245,1,0,0:0:0:0:
64,192,133345,1,0,0:0:0:0:
320,192,133445,1,0,0:0:0:0:
192,192,133645,1,0,0:0:0:0:
320,192,133845,1,0,0:0:0:0:
192,192,134045,1,0,0:0:0:0:
64,192,134245,1,0,0:0:0:0:
192,192,134445,1,0,0:0:0:0:
320,192,134445,1,0,0:0:0:0:
448,192,134645,1,0,0:0:0:0:
320,192,134845,1,0,0:0:0:0:
64,192,134845,1,0,0:0:0:0:
192,192,135045,1,0,0:0:0:0:
320,192,135045,1,0,0:0:0:0:
448,192,135245,1,0,0:0:0:0:
192,192,135445,1,0,0:0:0:0:
320,192,135445,1,0,0:0:0:0:
64,192,135545,1,0,0:0:0:0:
448,192,135545,1,0,0:0:0:0:
192,192,135645,1,0,0:0:0:0:
448,192,135645,1,0,0:0:0:0:
320,192,135845,1,0,0:0:0:0:
64,192,135945,1,0,0:0:0:0:
192,192,136045,1,0,0:0:0:0:
64,192,136245,1,0,0:0:0:0:
192,192,136445,1,0,0:0:0:0:
320,192,136445,1,0,0:0:0:0:
64,192,136545,1,0,0:0:0:0:
448,192,136645,1,0,0:0:0:0:
320,192,136745,1,0,0:0:0:0:
192,192,136845,1,0,0:0:0:0:
64,192,136845,1,0,0:0:0:0:
320,192,136945,1,0,0:0:0:0:
448,192,136945,1,0,0:0:0:0:
192,192,137045,1,0,0:0:0:0:
64,192,137045,1,0,0:0:0:0:
320,192,137245,1,0,0:0:0:0:
192,192,137245,1,0,0:0:0:0:
448,192,137245,1,0,0:0:0:0:
448,192,137445,1,0,0:0:0:0:
192,192,137645,1,0,0:0:0:0:
320,192,137645,1,0,0:0:0:0:
64,192,137845,1,0,0:0:0:0:
192,192,138045,1,0,0:0:0:0:
320,192,138045,1,0,0:0:0:0:
448,192,138245,1,0,0:0:0:0:
320,192,138245,1,0,0:0:0:0:
192,192,138445,1,0,0:0:0:0:
64,192,138645,1,0,0:0:0:0:
448,192,138645,1,0,0:0:0:0:
320,192,138745,1,0,0:0:0:0:
192,192,138745,1,0,0:0:0:0:
192,192,138845,1,0,0:0:0:0:
448,192,138845,1,0,0:0:0:0:
320,192,139045,1,0,0:0:0:0:
448,192,139145,1,0,0:0:0:0:
192,192,139245,1,0,0:0:0:0:
64,192,139245,1,0,0:0:0:0:
320,192,139445,1,0,0:0:0:0:
192,192,139645,1,0,0:0:0:0:
448,192,139645,1,0,0:0:0:0:
320,192,139845,1,0,0:0:0:0:
192,192,140045,1,0,0:0:0:0:
448,192,140045,1,0,0:0:0:0:
320,192,140245,1,0,0:0:0:0:
320,192,140845,1,0,0:0:0:0:
448,192,140845,1,0,0:0:0:0:
192,192,141045,1,0,0:0:0:0:
64,192,141145,1,0,0:0:0:0:
192,192,141245,1,0,0:0:0:0:
448,192,141245,1,0,0:0:0:0:
320,192,141445,1,0,0:0:0:0:
192,192,141445,1,0,0:0:0:0:
64,192,141545,1,0,0:0:0:0:
448,192,141645,1,0,0:0:0:0:
192,192,141845,1,0,0:0:0:0:
320,192,141845,1,0,0:0:0:0:
64,192,141945,1,0,0:0:0:0:
320,192,141945,1,0,0:0:0:0:
192,192,142045,1,0,0:0:0:0:
448,192,142045,1,0,0:0:0:0:
320,192,142245,1,0,0:0:0:0:
448,192,142345,1,0,0:0:0:0:
64,192,142445,1,0,0:0:0:0:
192,192,142445,1,0,0:0:0:0:
320,192,142645,1,0,0:0:0:0:
192,192,142745,1,0,0:0:0:0:
64,192,142845,1,0,0:0:0:0:
320,192,142845,1,0,0:0:0:0:
448,192,143045,1,0,0:0:0:0:
320,192,143145,1,0,0:0:0:0:
192,192,143245,1,0,0:0:0:0:
64,192,143245,1,0,0:0:0:0:
320,192,143345,1,0,0:0:0:0:
448,192,143345,1,0,0:0:0:0:
64,192,143445,1,0,0:0:0:0:
320,192,143445,1,0,0:0:0:0:
192,192,143545,1,0,0:0:0:0:
320,192,143645,1,0,0:0:0:0:
448,192,143645,1,0,0:0:0:0:
192,192,143845,1,0,0:0:0:0:
64,192,144045,1,0,0:0:0:0:
192,192,144045,1,0,0:0:0:0:
448,192,144045,1,0,0:0:0:0:
320,192,144145,1,0,0:0:0:0:
192,192,144245,1,0,0:0:0:0:
320,192,144345,1,0,0:0:0:0:
192,192,144445,1,0,0:0:0:0:
448,192,144445,1,0,0:0:0:0:
64,192,144545,1,0,0:0:0:0:
320,192,144645,1,0,0:0:0:0:
192,192,144645,1,0,0:0:0:0:
448,192,144745,1,0,0:0:0:0:
64,192,144845,1,0,0:0:0:0:
448,192,144945,1,0,0:0:0:0:
192,192,145045,1,0,0:0:0:0:
320,192,145045,1,0,0:0:0:0:
448,192,145145,1,0,0:0:0:0:
192,192,145145,1,0,0:0:0:0:
320,192,145245,1,0,0:0:0:0:
64,192,145245,1,0,0:0:0:0:
448,192,145345,1,0,0:0:0:0:
192,192,145445,1,0,0:0:0:0:
448,192,145545,1,0,0:0:0:0:
320,192,145645,1,0,0:0:0:0:
192,192,145645,1,0,0:0:0:0:
448,192,145745,1,0,0:0:0:0:
64,192,145845,1,0,0:0:0:0:
192,192,145945,1,0,0:0:0:0:
320,192,146045,1,0,0:0:0:0:
64,192,146045,1,0,0:0:0:0:
448,192,146145,1,0,0:0:0:0:
192,192,146245,1,0,0:0:0:0:
320,192,146345,1,0,0:0:0:0:
64,192,146445,1,0,0:0:0:0:
448,192,146645,1,0,0:0:0:0:
192,192,146845,1,0,0:0:0:0:
64,192,147045,1,0,0:0:0:0:
192,192,147245,1,0,0:0:0:0:
320,192,147245,1,0,0:0:0:0:
64,192,147345,1,0,0:0:0:0:
448,192,147445,1,0,0:0:0:0:
192,192,147545,1,0,0:0:0:0:
64,192,147645,1,0,0:0:0:0:
320,192,147645,1,0,0:0:0:0:
192,192,147745,1,0,0:0:0:0:
448,192,147845,1,0,0:0:0:0:
320,192,147845,1,0,0:0:0:0:
64,192,147945,1,0,0:0:0:0:
192,192,148045,1,0,0:0:0:0:
448,192,148145,1,0,0:0:0:0:
64,192,148245,1,0,0:0:0:0:
192,192,148245,1,0,0:0:0:0:
320,192,148345,1,0,0:0:0:0:
448,192,148345,1,0,0:0:0:0:
192,192,148445,1,0,0:0:0:0:
448,192,148445,1,0,0:0:0:0:
64,192,148545,1,0,0:0:0:0:
320,192,148645,1,0,0:0:0:0:
448,192,148745,1,0,0:0:0:0:
64,192,148845,1,0,0:0:0:0:
192,192,148845,1,0,0:0:0:0:
448,192,148945,1,0,0:0:0:0:
320,192,149045,1,0,0:0:0:0:
64,192,149145,1,0,0:0:0:0:
448,192,149245,1,0,0:0:0:0:
192,192,149245,1,0,0:0:0:0:
320,192,149345,1,0,0:0:0:0:
64,192,149445,1,0,0:0:0:0:
448,192,149545,1,0,0:0:0:0:
320,192,149545,1,0,0:0:0:0:
192,192,149645,1,0,0:0:0:0:
320,192,149645,1,0,0:0:0:0:
448,192,149745,1,0,0:0:0:0:
64,192,149745,1,0,0:0:0:0:
320,192,149845,1,0,0:0:0:0:
192,192,149845,1,0,0:0:0:0:
192,192,150045,1,0,0:0:0:0:
320,192,150045,1,0,0:0:0:0:
448,192,150245,1,0,0:0:0:0:
320,192,150445,1,0,0:0:0:0:
192,192,150445,1,0,0:0:0:0:
448,192,150545,1,0,0:0:0:0:
64,192,150645,1,0,0:0:0:0:
320,192,150745,1,0,0:0:0:0:
192,192,150845,1,0,0:0:0:0:
448,192,150845,1,0,0:0:0:0:
64,192,150945,1,0,0:0:0:0:
320,192,151045,1,0,0:0:0:0:
448,192,151145,1,0,0:0:0:0:
192,192,151245,1,0,0:0:0:0:
448,192,151345,1,0,0:0:0:0:
64,192,151445,1,0,0:0:0:0:
320,192,151445,1,0,0:0:0:0:
192,192,151545,1,0,0:0:0:0:
320,192,151545,1,0,0:0:0:0:
448,192,151645,1,0,0:0:0:0:
64,192,151645,1,0,0:0:0:0:
320,192,151745,1,0,0:0:0:0:
192,192,151845,1,0,0:0:0:0:
64,192,151945,1,0,0:0:0:0:
320,192,152045,1,0,0:0:0:0:
448,192,152045,1,0,0:0:0:0:
64,192,152145,1,0,0:0:0:0:
192,192,152245,1,0,0:0:0:0:
448,192,152345,1,0,0:0:0:0:
64,192,152445,1,0,0:0:0:0:
320,192,152445,1,0,0:0:0:0:
448,192,152545,1,0,0:0:0:0:
192,192,152645,1,0,0:0:0:0:
64,192,152745,1,0,0:0:0:0:
320,192,152845,1,0,0:0:0:0:
448,192,152845,1,0,0:0:0:0:
64,192,152945,1,0,0:0:0:0:
192,192,153045,1,0,0:0:0:0:
320,192,153145,1,0,0:0:0:0:
64,192,153245,1,0,0:0:0:0:
320,192,153645,1,0,0:0:0:0:
448,192,153645,1,0,0:0:0:0:
192,192,153645,1,0,0:0:0:0:
64,192,153745,1,0,0:0:0:0:
192,192,153845,1,0,0:0:0:0:
320,192,153945,1,0,0:0:0:0:
448,192,154045,1,0,0:0:0:0:
192,192,154045,1,0,0:0:0:0:
64,192,154145,1,0,0:0:0:0:
192,192,154245,1,0,0:0:0:0:
448,192,154245,1,0,0:0:0:0:
320,192,154345,1,0,0:0:0:0:
448,192,154445,1,0,0:0:0:0:
192,192,154445,1,0,0:0:0:0:
64,192,154545,1,0,0:0:0:0:
192,192,154645,1,0,0:0:0:0:
320,192,154745,1,0,0:0:0:0:
64,192,154745,1,0,0:0:0:0:
448,192,154845,1,0,0:0:0:0:
192,192,154845,1,0,0:0:0:0:
64,192,154945,1,0,0:0:0:0:
192,192,155045,1,0,0:0:0:0:
320,192,155145,1,0,0:0:0:0:
448,192,155245,1,0,0:0:0:0:
192,192,155245,1,0,0:0:0:0:
64,192,155345,1,0,0:0:0:0:
192,192,155445,1,0,0:0:0:0:
320,192,155545,1,0,0:0:0:0:
448,192,155645,1,0,0:0:0:0:
192,192,155645,1,0,0:0:0:0:
64,192,155745,1,0,0:0:0:0:
192,192,155845,1,0,0:0:0:0:
448,192,155845,1,0,0:0:0:0:
320,192,155945,1,0,0:0:0:0:
448,192,156045,1,0,0:0:0:0:
192,192,156045,1,0,0:0:0:0:
64,192,156145,1,0,0:0:0:0:
192,192,156245,1,0,0:0:0:0:
320,192,156345,1,0,0:0:0:0:
64,192,156345,1,0,0:0:0:0:
448,192,156445,1,0,0:0:0:0:
192,192,156445,1,0,0:0:0:0:
64,192,156545,1,0,0:0:0:0:
192,192,156645,1,0,0:0:0:0:
448,192,156645,1,0,0:0:0:0:
320,192,156745,1,0,0:0:0:0:
448,192,156845,1,0,0:0:0:0:
192,192,156845,1,0,0:0:0:0:
64,192,156945,1,0,0:0:0:0:
192,192,157045,1,0,0:0:0:0:
320,192,157145,1,0,0:0:0:0:
448,192,157245,1,0,0:0:0:0:
192,192,157245,1,0,0:0:0:0:
64,192,157345,1,0,0:0:0:0:
192,192,157445,1,0,0:0:0:0:
448,192,157445,1,0,0:0:0:0:
320,192,157545,1,0,0:0:0:0:
448,192,157645,1,0,0:0:0:0:
192,192,157645,1,0,0:0:0:0:
64,192,157745,1,0,0:0:0:0:
192,192,157845,1,0,0:0:0:0:
320,192,157945,1,0,0:0:0:0:
64,192,157945,1,0,0:0:0:0:
448,192,158045,1,0,0:0:0:0:
192,192,158045,1,0,0:0:0:0:
64,192,158145,1,0,0:0:0:0:
192,192,158245,1,0,0:0:0:0:
448,192,158245,1,0,0:0:0:0:
320,192,158345,1,0,0:0:0:0:
448,192,158445,1,0,0:0:0:0:
192,192,158445,1,0,0:0:0:0:
64,192,158545,1,0,0:0:0:0:
192,192,158645,1,0,0:0:0:0:
320,192,158745,1,0,0:0:0:0:
448,192,158845,1,0,0:0:0:0:
192,192,158845,1,0,0:0:0:0:
64,192,158945,1,0,0:0:0:0:
192,192,159045,1,0,0:0:0:0:
448,192,159045,1,0,0:0:0:0:
320,192,159145,1,0,0:0:0:0:
448,192,159245,1,0,0:0:0:0:
192,192,159245,1,0,0:0:0:0:
64,192,159345,1,0,0:0:0:0:
192,192,159445,1,0,0:0:0:0:
320,192,159545,1,0,0:0:0:0:
64,192,159545,1,0,0:0:0:0:
448,192,159645,1,0,0:0:0:0:
192,192,159645,1,0,0:0:0:0:
64,192,159745,1,0,0:0:0:0:
192,192,159845,1,0,0:0:0:0:
448,192,159845,1,0,0:0:0:0:
320,192,159945,1,0,0:0:0:0:
448,192,160045,1,0,0:0:0:0:
64,192,160045,1,0,0:0:0:0:
192,192,160045,1,0,0:0:0:0:
320,192,160178,1,0,0:0:0:0:
192,192,160245,1,0,0:0:0:0:
64,192,160311,1,0,0:0:0:0:
448,192,160378,1,0,0:0:0:0:
320,192,160445,1,0,0:0:0:0:
64,192,160445,1,0,0:0:0:0:
192,192,160511,1,0,0:0:0:0:
64,192,160578,1,0,0:0:0:0:
448,192,160645,1,0,0:0:0:0:
320,192,160711,1,0,0:0:0:0:
192,192,160778,1,0,0:0:0:0:
64,192,160845,1,0,0:0:0:0:
320,192,160845,1,0,0:0:0:0:
448,192,160911,1,0,0:0:0:0:
320,192,160978,1,0,0:0:0:0:
192,192,161045,1,0,0:0:0:0:
64,192,161111,1,0,0:0:0:0:
448,192,161178,1,0,0:0:0:0:
320,192,161245,1,0,0:0:0:0:
64,192,161245,1,0,0:0:0:0:
192,192,161311,1,0,0:0:0:0:
64,192,161378,1,0,0:0:0:0:
448,192,161445,1,0,0:0:0:0:
192,192,161445,1,0,0:0:0:0:
320,192,161511,1,0,0:0:0:0:
192,192,161578,1,0,0:0:0:0:
64,192,161645,1,0,0:0:0:0:
320,192,161645,1,0,0:0:0:0:
448,192,161711,1,0,0:0:0:0:
320,192,161778,1,0,0:0:0:0:
192,192,161845,1,0,0:0:0:0:
64,192,161911,1,0,0:0:0:0:
448,192,161978,1,0,0:0:0:0:
320,192,162045,1,0,0:0:0:0:
64,192,162045,1,0,0:0:0:0:
192,192,162111,1,0,0:0:0:0:
64,192,162178,1,0,0:0:0:0:
448,192,162245,1,0,0:0:0:0:
320,192,162311,1,0,0:0:0:0:
192,192,162378,1,0,0:0:0:0:
64,192,162445,1,0,0:0:0:0:
320,192,162445,1,0,0:0:0:0:
448,192,162511,1,0,0:0:0:0:
320,192,162578,1,0,0:0:0:0:
192,192,162645,1,0,0:0:0:0:
448,192,162645,1,0,0:0:0:0:
64,192,162711,1,0,0:0:0:0:
448,192,162778,1,0,0:0:0:0:
320,192,162845,1,0,0:0:0:0:
192,192,162911,1,0,0:0:0:0:
64,192,162978,1,0,0:0:0:0:
448,192,163045,1,0,0:0:0:0:
192,192,163045,1,0,0:0:0:0:
320,192,163111,1,0,0:0:0:0:
192,192,163178,1,0,0:0:0:0:
64,192,163245,1,0,0:0:0:0:
320,192,163245,1,0,0:0:0:0:
448,192,163311,1,0,0:0:0:0:
320,192,163378,1,0,0:0:0:0:
192,192,163445,1,0,0:0:0:0:
64,192,163511,1,0,0:0:0:0:
448,192,163578,1,0,0:0:0:0:
320,192,163645,1,0,0:0:0:0:
64,192,163645,1,0,0:0:0:0:
192,192,163711,1,0,0:0:0:0:
64,192,163778,1,0,0:0:0:0:
448,192,163845,1,0,0:0:0:0:
320,192,163911,1,0,0:0:0:0:
192,192,163978,1,0,0:0:0:0:
64,192,164045,1,0,0:0:0:0:
320,192,164045,1,0,0:0:0:0:
448,192,164111,1,0,0:0:0:0:
320,192,164178,1,0,0:0:0:0:
192,192,164245,1,0,0:0:0:0:
448,192,164245,1,0,0:0:0:0:
64,192,164311,1,0,0:0:0:0:
448,192,164378,1,0,0:0:0:0:
320,192,164445,1,0,0:0:0:0:
192,192,164511,1,0,0:0:0:0:
64,192,164578,1,0,0:0:0:0:
448,192,164645,1,0,0:0:0:0:
192,192,164645,1,0,0:0:0:0:
320,192,164711,1,0,0:0:0:0:
192,192,164778,1,0,0:0:0:0:
64,192,164845,1,0,0:0:0:0:
320,192,164845,1,0,0:0:0:0:
448,192,164911,1,0,0:0:0:0:
320,192,164978,1,0,0:0:0:0:
192,192,165045,1,0,0:0:0:0:
64,192,165111,1,0,0:0:0:0:
448,192,165178,1,0,0:0:0:0:
320,192,165245,1,0,0:0:0:0:
64,192,165245,1,0,0:0:0:0:
192,192,165311,1,0,0:0:0:0:
64,192,165378,1,0,0:0:0:0:
448,192,165445,1,0,0:0:0:0:
320,192,165511,1,0,0:0:0:0:
192,192,165578,1,0,0:0:0:0:
64,192,165645,1,0,0:0:0:0:
448,192,166045,1,0,0:0:0:0:
320,192,166045,1,0,0:0:0:0:
64,192,166445,1,0,0:0:0:0:
192,192,167045,1,0,0:0:0:0:
448,192,167145,1,0,0:0:0:0:
320,192,167245,1,0,0:0:0:0:
64,192,167245,1,0,0:0:0:0:
