osu file format v14

[General]
AudioFilename: new.mp3
AudioLeadIn: 0
PreviewTime: 51918
Countdown: 0
SampleSet: Normal
StackLeniency: 0.7
Mode: 1
LetterboxInBreaks: 0
WidescreenStoryboard: 1

[Editor]
Bookmarks: 154697
DistanceSpacing: 1.1
BeatDivisor: 4
GridSize: 32
TimelineZoom: 2.899999

[Metadata]
Title:Meiecundimees uks Korsakov laks eile Latti
TitleUnicode:Meiecundimees üks Korsakov läks eile Lätti
Artist:Winny Puhh
ArtistUnicode:Winny Puhh
Creator:The Law
Version:Muzukashii
Source:
Tags:kdj8381 cryceptio estonian eesti metal kes küsib? kusib? laul 2013 Pole See Jõumehe joumehe Elu Üldse uldse Kerge punk liku the_law
BeatmapID:4121511
BeatmapSetID:1936604

[Difficulty]
HPDrainRate:6
CircleSize:5
OverallDifficulty:5
ApproachRate:5
SliderMultiplier:1.4
SliderTickRate:1

[Events]
//Background and Video events
0,0,"wallhaven-zygeko.jpg",0,0
//Break Periods
//Storyboard Layer 0 (Background)
//Storyboard Layer 1 (Fail)
//Storyboard Layer 2 (Pass)
//Storyboard Layer 3 (Foreground)
//Storyboard Layer 4 (Overlay)
//Storyboard Sound Samples

[TimingPoints]
265,260.869565217391,4,1,0,50,1,0
265,-100,4,1,0,50,0,0
5417,-100,4,1,0,75,0,0
10634,-100,4,1,0,100,0,0
10699,260.869565217391,4,1,0,100,1,0
27199,-100,4,1,0,95,0,0
27330,-100,4,1,0,90,0,0
41994,260.303687635575,4,1,0,90,1,0
41994,-100,4,1,0,90,0,0
44076,260.869565217391,4,1,0,85,1,0
45059,-100,4,1,0,100,0,0
46037,-100,4,1,0,85,0,0
47146,-100,4,1,0,100,0,0
48073,-100,4,1,0,85,0,0
48249,260.869565217391,4,1,0,100,1,8
48266,260.869565217391,4,1,0,100,1,0
49233,-100,4,1,0,100,0,0
50211,-100,4,1,0,85,0,0
51320,-100,4,1,0,100,0,0
52439,-100,4,1,0,100,0,0
68220,-100,4,1,0,50,0,0
71155,-100,4,1,0,90,0,0
87918,-100,4,1,0,100,0,1
96265,-100,4,1,0,100,0,0
112764,-100,4,1,0,95,0,0
112959,260.529743812419,4,1,0,90,1,0
112959,-100,4,1,0,90,0,0
129307,-100,4,1,0,100,0,0
129632,260.529743812419,4,1,0,100,1,8
129652,260.529743812419,4,1,0,100,1,0
146260,-100,4,1,0,75,0,0
148410,260.529743812419,4,1,0,100,1,8
148437,260.869565217391,4,1,0,100,1,1
148437,-100,4,1,0,100,0,1
165132,-100,4,1,0,90,0,0

[HitObjects]
256,192,5482,1,0,0:0:0:0:
256,192,5743,1,0,0:0:0:0:
256,192,6004,1,0,0:0:0:0:
256,192,6264,1,0,0:0:0:0:
256,192,6525,1,0,0:0:0:0:
256,192,6786,1,0,0:0:0:0:
256,192,7047,1,0,0:0:0:0:
256,192,7308,1,0,0:0:0:0:
112,261,7569,5,0,0:0:0:0:
143,266,7830,1,8,0:0:0:0:
310,276,7960,1,0,0:0:0:0:
310,276,8025,1,0,0:0:0:0:
310,276,8091,1,0,0:0:0:0:
316,282,8221,1,0,0:0:0:0:
316,282,8351,1,8,0:0:0:0:
310,284,8612,1,8,0:0:0:0:
310,284,8743,1,0,0:0:0:0:
310,284,8873,1,8,0:0:0:0:
309,286,9004,1,8,0:0:0:0:
309,286,9134,1,0,0:0:0:0:
23,128,9199,1,0,0:0:0:0:
309,286,9264,1,0,0:0:0:0:
310,284,9395,1,8,0:0:0:0:
310,284,9656,1,8,0:0:0:0:
179,163,9721,1,8,0:0:0:0:
306,288,9786,1,8,0:0:0:0:
309,286,9917,1,8,0:0:0:0:
301,288,10047,1,0,0:0:0:0:
303,288,10178,1,8,0:0:0:0:
155,132,10699,1,4,0:0:0:0:
125,238,10959,1,8,0:0:0:0:
125,238,11090,1,8,0:0:0:0:
155,132,11220,1,0,0:0:0:0:
122,184,11285,1,0,0:0:0:0:
235,188,11351,1,0,0:0:0:0:
125,238,11481,1,8,0:0:0:0:
155,132,11742,1,8,0:0:0:0:
222,197,11872,1,0,0:0:0:0:
222,197,12003,1,8,0:0:0:0:
222,197,12068,1,8,0:0:0:0:
163,66,12133,1,8,0:0:0:0:
222,197,12264,1,0,0:0:0:0:
147,132,12525,1,8,0:0:0:0:
155,132,12785,1,0,0:0:0:0:
122,184,12916,1,0,0:0:0:0:
125,238,13046,1,8,0:0:0:0:
125,238,13177,1,0,0:0:0:0:
155,132,13307,1,8,0:0:0:0:
122,184,13372,1,8,0:0:0:0:
235,188,13438,1,8,0:0:0:0:
125,238,13568,1,0,0:0:0:0:
155,132,13829,1,8,0:0:0:0:
222,197,13959,1,8,0:0:0:0:
222,197,14090,1,0,0:0:0:0:
222,197,14155,1,0,0:0:0:0:
163,66,14220,1,0,0:0:0:0:
222,197,14351,1,8,0:0:0:0:
161,159,14612,1,8,0:0:0:0:
155,132,14872,1,0,0:0:0:0:
125,238,15133,1,8,0:0:0:0:
125,238,15264,1,8,0:0:0:0:
155,132,15394,1,0,0:0:0:0:
122,184,15459,1,0,0:0:0:0:
235,188,15525,1,0,0:0:0:0:
125,238,15655,1,8,0:0:0:0:
155,132,15916,1,0,0:0:0:0:
222,197,16046,1,0,0:0:0:0:
222,197,16177,1,8,0:0:0:0:
222,197,16242,1,8,0:0:0:0:
163,66,16307,1,8,0:0:0:0:
222,197,16438,1,0,0:0:0:0:
188,132,16698,1,8,0:0:0:0:
182,169,16959,1,8,0:0:0:0:
152,146,17220,1,0,0:0:0:0:
152,146,17351,1,8,0:0:0:0:
152,146,17481,1,0,0:0:0:0:
152,146,17612,1,0,0:0:0:0:
152,146,17742,1,8,0:0:0:0:
186,120,17807,1,8,0:0:0:0:
118,152,17872,1,8,0:0:0:0:
130,140,18003,1,0,0:0:0:0:
130,140,18133,1,0,0:0:0:0:
132,140,18264,1,8,0:0:0:0:
132,140,18329,1,8,0:0:0:0:
132,140,18394,1,8,0:0:0:0:
103,168,18525,1,0,0:0:0:0:
155,132,19046,1,0,0:0:0:0:
125,238,19307,1,8,0:0:0:0:
125,238,19438,1,8,0:0:0:0:
155,132,19568,1,0,0:0:0:0:
122,184,19633,1,0,0:0:0:0:
235,188,19698,1,0,0:0:0:0:
125,238,19829,1,8,0:0:0:0:
155,132,20090,1,8,0:0:0:0:
222,197,20220,1,0,0:0:0:0:
222,197,20351,1,8,0:0:0:0:
222,197,20416,1,8,0:0:0:0:
163,66,20481,1,8,0:0:0:0:
222,197,20612,1,0,0:0:0:0:
147,132,20872,1,8,0:0:0:0:
155,132,21133,1,0,0:0:0:0:
122,184,21264,1,0,0:0:0:0:
125,238,21394,1,8,0:0:0:0:
125,238,21525,1,0,0:0:0:0:
155,132,21655,1,8,0:0:0:0:
122,184,21720,1,8,0:0:0:0:
235,188,21785,1,8,0:0:0:0:
125,238,21916,1,0,0:0:0:0:
155,132,22177,1,8,0:0:0:0:
222,197,22307,1,8,0:0:0:0:
222,197,22438,1,0,0:0:0:0:
222,197,22503,1,0,0:0:0:0:
163,66,22568,1,0,0:0:0:0:
222,197,22698,1,8,0:0:0:0:
161,159,22959,1,8,0:0:0:0:
155,132,23220,1,0,0:0:0:0:
125,238,23481,1,8,0:0:0:0:
125,238,23612,1,8,0:0:0:0:
155,132,23742,1,0,0:0:0:0:
122,184,23807,1,0,0:0:0:0:
235,188,23872,1,0,0:0:0:0:
125,238,24003,1,8,0:0:0:0:
155,132,24264,1,0,0:0:0:0:
222,197,24394,1,0,0:0:0:0:
222,197,24525,1,8,0:0:0:0:
222,197,24590,1,8,0:0:0:0:
163,66,24655,1,8,0:0:0:0:
222,197,24785,1,0,0:0:0:0:
188,132,25046,1,8,0:0:0:0:
182,169,25307,1,8,0:0:0:0:
152,146,25568,1,0,0:0:0:0:
152,146,25698,1,8,0:0:0:0:
152,146,25829,1,0,0:0:0:0:
152,146,25959,1,0,0:0:0:0:
152,146,26090,1,8,0:0:0:0:
186,120,26155,1,8,0:0:0:0:
118,152,26220,1,8,0:0:0:0:
130,140,26351,1,0,0:0:0:0:
130,140,26481,1,8,0:0:0:0:
132,140,26612,1,0,0:0:0:0:
132,140,26677,1,0,0:0:0:0:
132,140,26742,1,0,0:0:0:0:
103,168,26872,1,8,0:0:0:0:
189,191,27394,1,0,0:0:0:0:
204,242,27655,1,8,0:0:0:0:
204,242,27785,1,0,0:0:0:0:
204,242,27916,1,8,0:0:0:0:
296,109,28046,1,0,0:0:0:0:
204,242,28177,1,8,0:0:0:0:
191,198,28438,1,0,0:0:0:0:
296,109,28568,1,0,0:0:0:0:
202,220,28698,1,8,0:0:0:0:
168,275,28829,1,8,0:0:0:0:
168,275,28959,1,0,0:0:0:0:
168,275,29220,1,8,0:0:0:0:
189,191,29481,1,0,0:0:0:0:
171,238,29742,1,8,0:0:0:0:
171,238,29872,1,0,0:0:0:0:
232,178,30003,1,8,0:0:0:0:
171,238,30264,1,0,0:0:0:0:
171,238,30394,1,0,0:0:0:0:
189,191,30525,1,8,0:0:0:0:
296,109,30655,1,0,0:0:0:0:
178,193,30785,1,8,0:0:0:0:
296,109,30916,1,8,0:0:0:0:
178,193,31046,1,0,0:0:0:0:
178,193,31568,1,0,0:0:0:0:
171,239,31829,1,8,0:0:0:0:
171,239,31959,1,0,0:0:0:0:
171,239,32090,1,8,0:0:0:0:
146,244,32220,1,0,0:0:0:0:
171,239,32351,1,8,0:0:0:0:
174,244,32612,1,0,0:0:0:0:
146,244,32742,1,0,0:0:0:0:
174,244,32872,1,8,0:0:0:0:
146,244,33003,1,0,0:0:0:0:
174,244,33133,1,8,0:0:0:0:
171,239,33394,1,8,0:0:0:0:
178,193,33655,1,0,0:0:0:0:
152,232,33785,1,8,0:0:0:0:
177,258,33916,1,0,0:0:0:0:
177,258,34046,1,8,0:0:0:0:
177,258,34177,1,0,0:0:0:0:
154,227,34307,1,0,0:0:0:0:
152,232,34438,1,8,0:0:0:0:
178,193,34698,1,0,0:0:0:0:
154,227,34829,1,0,0:0:0:0:
198,252,34959,1,8,0:0:0:0:
198,252,35090,1,0,0:0:0:0:
198,252,35220,1,8,0:0:0:0:
395,296,35742,1,0,0:0:0:0:
198,252,36003,1,8,0:0:0:0:
198,252,36133,1,0,0:0:0:0:
379,295,36264,1,8,0:0:0:0:
159,145,36394,1,0,0:0:0:0:
198,252,36525,1,8,0:0:0:0:
395,296,36785,1,0,0:0:0:0:
159,145,36916,1,0,0:0:0:0:
395,296,37046,1,8,0:0:0:0:
177,185,37177,1,0,0:0:0:0:
379,295,37307,1,8,0:0:0:0:
204,191,37568,1,8,0:0:0:0:
379,295,37829,1,8,0:0:0:0:
163,235,38090,1,0,0:0:0:0:
163,235,38220,1,0,0:0:0:0:
379,295,38351,1,8,0:0:0:0:
153,132,38481,1,0,0:0:0:0:
163,235,38612,1,8,0:0:0:0:
153,132,38742,1,8,0:0:0:0:
163,235,38872,1,0,0:0:0:0:
163,235,39133,1,8,0:0:0:0:
163,235,39264,1,0,0:0:0:0:
373,295,39394,1,8,0:0:0:0:
373,296,39916,1,0,0:0:0:0:
206,175,40177,1,8,0:0:0:0:
206,175,40307,1,8,0:0:0:0:
206,175,40438,1,0,0:0:0:0:
151,132,40568,1,0,0:0:0:0:
206,175,40698,1,8,0:0:0:0:
373,296,40959,1,8,0:0:0:0:
151,132,41090,1,0,0:0:0:0:
373,295,41220,1,8,0:0:0:0:
206,175,41351,1,8,0:0:0:0:
373,295,41481,1,0,0:0:0:0:
206,175,41742,1,8,0:0:0:0:
388,282,41994,1,0,0:0:0:0:
151,132,42124,1,0,0:0:0:0:
206,175,42254,1,8,0:0:0:0:
206,175,42384,1,0,0:0:0:0:
88,195,42514,1,8,0:0:0:0:
151,132,42644,1,0,0:0:0:0:
88,195,42774,1,8,0:0:0:0:
206,175,42905,1,8,0:0:0:0:
88,195,43035,1,0,0:0:0:0:
192,177,43295,1,8,0:0:0:0:
192,177,43425,1,0,0:0:0:0:
192,177,43555,1,8,0:0:0:0:
201,172,44076,1,0,0:0:0:0:
159,151,44206,1,0,0:0:0:0:
225,215,44336,1,8,0:0:0:0:
192,177,44467,1,8,0:0:0:0:
225,215,44597,1,0,0:0:0:0:
159,151,44662,1,0,0:0:0:0:
159,151,44728,1,0,0:0:0:0:
159,151,44858,1,8,0:0:0:0:
256,192,45119,8,0,45902,0:0:0:0:
197,158,46162,5,0,0:0:0:0:
195,131,46293,1,0,0:0:0:0:
254,197,46423,1,8,0:0:0:0:
214,180,46554,1,8,0:0:0:0:
254,197,46684,1,0,0:0:0:0:
145,153,46815,1,8,0:0:0:0:
145,153,46880,1,8,0:0:0:0:
145,153,46945,1,8,0:0:0:0:
256,192,47206,8,0,47989,0:0:0:0:
134,154,48266,5,0,0:0:0:0:
145,137,48396,1,0,0:0:0:0:
134,154,48526,1,8,0:0:0:0:
202,177,48657,1,8,0:0:0:0:
134,154,48787,1,0,0:0:0:0:
202,177,49048,1,8,0:0:0:0:
256,192,49309,8,0,50092,0:0:0:0:
83,212,50352,5,0,0:0:0:0:
83,212,50613,1,8,0:0:0:0:
198,177,50744,1,8,0:0:0:0:
83,212,50874,1,0,0:0:0:0:
106,129,51005,1,0,0:0:0:0:
83,212,51135,1,8,0:0:0:0:
256,192,51396,8,0,52048,0:0:0:0:
155,132,52439,5,4,0:0:0:0:
125,238,52699,1,8,0:0:0:0:
125,238,52830,1,8,0:0:0:0:
155,132,52960,1,0,0:0:0:0:
122,184,53025,1,0,0:0:0:0:
235,188,53091,1,0,0:0:0:0:
125,238,53221,1,8,0:0:0:0:
155,132,53482,1,8,0:0:0:0:
222,197,53612,1,0,0:0:0:0:
222,197,53743,1,8,0:0:0:0:
222,197,53808,1,8,0:0:0:0:
163,66,53873,1,8,0:0:0:0:
222,197,54004,1,0,0:0:0:0:
147,132,54265,1,8,0:0:0:0:
155,132,54525,1,0,0:0:0:0:
122,184,54656,1,0,0:0:0:0:
125,238,54786,1,8,0:0:0:0:
125,238,54917,1,0,0:0:0:0:
155,132,55047,1,8,0:0:0:0:
122,184,55112,1,8,0:0:0:0:
235,188,55178,1,8,0:0:0:0:
125,238,55308,1,0,0:0:0:0:
155,132,55569,1,8,0:0:0:0:
222,197,55699,1,8,0:0:0:0:
222,197,55830,1,0,0:0:0:0:
222,197,55895,1,0,0:0:0:0:
163,66,55960,1,0,0:0:0:0:
222,197,56091,1,8,0:0:0:0:
161,159,56352,1,8,0:0:0:0:
155,132,56612,1,0,0:0:0:0:
125,238,56873,1,8,0:0:0:0:
125,238,57004,1,8,0:0:0:0:
155,132,57134,1,0,0:0:0:0:
122,184,57199,1,0,0:0:0:0:
235,188,57265,1,0,0:0:0:0:
125,238,57395,1,8,0:0:0:0:
155,132,57656,1,0,0:0:0:0:
222,197,57786,1,0,0:0:0:0:
222,197,57917,1,8,0:0:0:0:
222,197,57982,1,8,0:0:0:0:
163,66,58047,1,8,0:0:0:0:
222,197,58178,1,0,0:0:0:0:
188,132,58438,1,8,0:0:0:0:
182,169,58699,1,8,0:0:0:0:
230,171,58960,1,0,0:0:0:0:
152,146,59091,1,8,0:0:0:0:
152,146,59221,1,0,0:0:0:0:
230,171,59286,1,0,0:0:0:0:
152,146,59352,1,0,0:0:0:0:
152,146,59482,1,8,0:0:0:0:
130,140,59743,1,0,0:0:0:0:
181,183,59873,1,0,0:0:0:0:
132,140,60004,1,8,0:0:0:0:
132,140,60069,1,8,0:0:0:0:
132,140,60134,1,8,0:0:0:0:
103,168,60265,1,0,0:0:0:0:
103,168,60525,1,8,0:0:0:0:
155,132,60786,1,0,0:0:0:0:
125,238,61047,1,8,0:0:0:0:
125,238,61178,1,8,0:0:0:0:
155,132,61308,1,0,0:0:0:0:
122,184,61373,1,0,0:0:0:0:
235,188,61438,1,0,0:0:0:0:
125,238,61569,1,8,0:0:0:0:
155,132,61830,1,8,0:0:0:0:
222,197,61960,1,0,0:0:0:0:
222,197,62091,1,8,0:0:0:0:
222,197,62156,1,8,0:0:0:0:
163,66,62221,1,8,0:0:0:0:
222,197,62352,1,0,0:0:0:0:
147,132,62612,1,8,0:0:0:0:
155,132,62873,1,0,0:0:0:0:
122,184,63004,1,0,0:0:0:0:
125,238,63134,1,8,0:0:0:0:
125,238,63265,1,0,0:0:0:0:
155,132,63395,1,8,0:0:0:0:
122,184,63460,1,8,0:0:0:0:
235,188,63525,1,8,0:0:0:0:
125,238,63656,1,0,0:0:0:0:
155,132,63917,1,8,0:0:0:0:
222,197,64047,1,8,0:0:0:0:
222,197,64178,1,0,0:0:0:0:
222,197,64243,1,0,0:0:0:0:
163,66,64308,1,0,0:0:0:0:
222,197,64438,1,8,0:0:0:0:
161,159,64699,1,8,0:0:0:0:
155,132,64960,1,0,0:0:0:0:
125,238,65221,1,8,0:0:0:0:
125,238,65352,1,8,0:0:0:0:
155,132,65482,1,0,0:0:0:0:
122,184,65547,1,0,0:0:0:0:
235,188,65612,1,0,0:0:0:0:
125,238,65743,1,8,0:0:0:0:
155,132,66004,1,0,0:0:0:0:
222,197,66134,1,0,0:0:0:0:
222,197,66265,1,8,0:0:0:0:
222,197,66330,1,8,0:0:0:0:
163,66,66395,1,8,0:0:0:0:
222,197,66525,1,0,0:0:0:0:
170,169,66656,1,0,0:0:0:0:
188,132,66786,1,8,0:0:0:0:
182,169,67047,1,8,0:0:0:0:
152,146,67308,1,0,0:0:0:0:
152,146,67438,1,8,0:0:0:0:
152,146,67569,1,0,0:0:0:0:
152,146,67699,1,0,0:0:0:0:
152,146,67830,1,8,0:0:0:0:
186,120,67895,1,8,0:0:0:0:
118,152,67960,1,8,0:0:0:0:
130,140,68091,1,4,0:0:0:0:
189,191,71221,1,0,0:0:0:0:
204,242,71482,1,8,0:0:0:0:
204,242,71612,1,0,0:0:0:0:
204,242,71743,1,8,0:0:0:0:
125,151,71873,1,0,0:0:0:0:
204,242,72004,1,8,0:0:0:0:
191,198,72265,1,0,0:0:0:0:
125,151,72395,1,0,0:0:0:0:
202,220,72525,1,8,0:0:0:0:
168,275,72656,1,8,0:0:0:0:
168,275,72786,1,0,0:0:0:0:
168,275,73047,1,8,0:0:0:0:
189,191,73308,1,0,0:0:0:0:
171,238,73569,1,8,0:0:0:0:
171,238,73699,1,0,0:0:0:0:
232,178,73830,1,8,0:0:0:0:
125,152,73960,1,0,0:0:0:0:
171,238,74091,1,8,0:0:0:0:
171,238,74221,1,8,0:0:0:0:
189,191,74352,1,0,0:0:0:0:
195,130,74612,1,8,0:0:0:0:
190,185,74743,1,0,0:0:0:0:
178,193,74873,1,8,0:0:0:0:
178,193,75395,1,0,0:0:0:0:
171,239,75656,1,8,0:0:0:0:
171,239,75786,1,0,0:0:0:0:
171,239,75917,1,8,0:0:0:0:
125,152,76047,1,8,0:0:0:0:
171,239,76178,1,0,0:0:0:0:
174,244,76438,1,0,0:0:0:0:
125,152,76569,1,0,0:0:0:0:
174,244,76699,1,8,0:0:0:0:
175,150,76830,1,0,0:0:0:0:
174,244,76960,1,8,0:0:0:0:
171,239,77221,1,8,0:0:0:0:
178,193,77482,1,0,0:0:0:0:
125,152,77612,1,0,0:0:0:0:
177,258,77743,1,8,0:0:0:0:
177,258,77873,1,0,0:0:0:0:
177,258,78004,1,0,0:0:0:0:
125,152,78134,1,0,0:0:0:0:
94,131,78265,1,8,0:0:0:0:
218,125,78395,1,8,0:0:0:0:
178,193,78525,1,0,0:0:0:0:
198,252,78786,1,8,0:0:0:0:
198,252,78917,1,8,0:0:0:0:
198,252,79047,1,0,0:0:0:0:
395,296,79569,1,0,0:0:0:0:
198,252,79830,1,8,0:0:0:0:
198,252,79960,1,0,0:0:0:0:
379,295,80091,1,8,0:0:0:0:
125,152,80221,1,0,0:0:0:0:
198,252,80352,1,8,0:0:0:0:
395,296,80612,1,0,0:0:0:0:
125,152,80743,1,0,0:0:0:0:
395,296,80873,1,8,0:0:0:0:
177,185,81004,1,8,0:0:0:0:
379,295,81134,1,0,0:0:0:0:
204,191,81395,1,8,0:0:0:0:
379,295,81656,1,0,0:0:0:0:
168,77,81786,1,0,0:0:0:0:
163,235,81917,1,8,0:0:0:0:
163,235,82047,1,8,0:0:0:0:
379,295,82178,1,0,0:0:0:0:
125,152,82308,1,0,0:0:0:0:
163,235,82438,1,8,0:0:0:0:
125,152,82569,1,8,0:0:0:0:
163,235,82699,1,0,0:0:0:0:
163,235,82960,1,8,0:0:0:0:
163,235,83091,1,0,0:0:0:0:
373,295,83221,1,8,0:0:0:0:
373,296,83743,1,0,0:0:0:0:
206,175,84004,1,8,0:0:0:0:
206,175,84134,1,0,0:0:0:0:
206,175,84265,1,8,0:0:0:0:
125,152,84395,1,8,0:0:0:0:
206,175,84525,1,0,0:0:0:0:
373,296,84786,1,8,0:0:0:0:
125,152,84917,1,0,0:0:0:0:
373,295,85047,1,8,0:0:0:0:
206,175,85178,1,8,0:0:0:0:
373,295,85308,1,0,0:0:0:0:
206,175,85569,1,0,0:0:0:0:
388,282,85830,1,8,0:0:0:0:
125,152,86091,1,8,0:0:0:0:
206,175,86221,1,8,0:0:0:0:
88,195,86352,1,0,0:0:0:0:
125,152,86482,1,0,0:0:0:0:
88,195,86612,1,8,0:0:0:0:
125,152,86743,1,0,0:0:0:0:
88,195,86873,1,8,0:0:0:0:
232,157,87004,1,0,0:0:0:0:
192,177,87134,1,8,0:0:0:0:
192,177,87265,1,8,0:0:0:0:
192,177,87395,1,0,0:0:0:0:
138,243,87918,1,0,0:0:0:0:
138,243,88047,1,8,0:0:0:0:
123,241,88112,1,8,0:0:0:0:
123,241,88178,1,8,0:0:0:0:
123,241,88308,1,8,0:0:0:0:
123,241,88438,1,0,0:0:0:0:
111,233,88569,1,0,0:0:0:0:
110,233,88699,1,8,0:0:0:0:
110,233,88960,1,0,0:0:0:0:
110,233,89091,1,0,0:0:0:0:
110,233,89221,1,8,0:0:0:0:
110,233,89352,1,0,0:0:0:0:
110,233,89417,1,0,0:0:0:0:
111,233,89482,1,0,0:0:0:0:
111,233,89612,1,0,0:0:0:0:
110,233,89743,1,8,0:0:0:0:
117,147,90004,1,0,0:0:0:0:
117,147,90134,1,8,0:0:0:0:
117,147,90199,1,8,0:0:0:0:
117,147,90265,1,8,0:0:0:0:
117,147,90395,1,8,0:0:0:0:
117,147,90525,1,0,0:0:0:0:
141,182,90656,1,0,0:0:0:0:
133,118,90786,1,8,0:0:0:0:
133,118,91047,1,0,0:0:0:0:
108,124,91178,1,0,0:0:0:0:
108,124,91308,1,8,0:0:0:0:
107,126,91438,1,8,0:0:0:0:
108,124,91569,1,0,0:0:0:0:
97,126,92091,1,0,0:0:0:0:
123,178,92221,1,8,0:0:0:0:
123,178,92286,1,8,0:0:0:0:
123,178,92352,1,8,0:0:0:0:
123,178,92482,1,8,0:0:0:0:
123,178,92612,1,0,0:0:0:0:
123,178,92873,1,8,0:0:0:0:
123,178,93134,1,0,0:0:0:0:
123,178,93395,1,8,0:0:0:0:
123,178,93525,1,8,0:0:0:0:
123,178,93656,1,0,0:0:0:0:
123,178,93721,1,0,0:0:0:0:
123,178,93786,1,0,0:0:0:0:
123,178,93917,1,8,0:0:0:0:
123,178,94178,1,0,0:0:0:0:
123,178,94308,1,8,0:0:0:0:
123,178,94373,1,8,0:0:0:0:
123,178,94438,1,8,0:0:0:0:
123,178,94569,1,0,0:0:0:0:
123,178,94699,1,0,0:0:0:0:
123,178,94960,1,8,0:0:0:0:
123,178,95221,1,0,0:0:0:0:
123,178,95352,1,0,0:0:0:0:
123,178,95482,1,8,0:0:0:0:
123,178,95612,1,8,0:0:0:0:
123,178,95743,1,0,0:0:0:0:
123,178,95808,1,0,0:0:0:0:
123,178,95873,1,0,0:0:0:0:
123,178,96004,1,8,0:0:0:0:
155,132,96265,1,0,0:0:0:0:
155,132,96786,1,0,0:0:0:0:
235,188,96917,1,0,0:0:0:0:
125,238,97047,1,8,0:0:0:0:
155,132,97308,1,0,0:0:0:0:
222,197,97438,1,8,0:0:0:0:
222,197,97569,1,0,0:0:0:0:
222,197,97634,1,0,0:0:0:0:
163,66,97699,1,0,0:0:0:0:
222,197,97830,1,8,0:0:0:0:
147,132,98091,1,8,0:0:0:0:
155,132,98352,1,0,0:0:0:0:
122,184,98482,1,0,0:0:0:0:
125,238,98612,1,8,0:0:0:0:
125,238,98743,1,0,0:0:0:0:
155,132,98873,1,8,0:0:0:0:
122,184,98938,1,8,0:0:0:0:
235,188,99004,1,8,0:0:0:0:
125,238,99134,1,0,0:0:0:0:
155,132,99395,1,8,0:0:0:0:
222,197,99525,1,0,0:0:0:0:
222,197,99656,1,8,0:0:0:0:
222,197,99721,1,8,0:0:0:0:
163,66,99786,1,8,0:0:0:0:
222,197,99917,1,0,0:0:0:0:
161,159,100178,1,8,0:0:0:0:
155,132,100438,1,0,0:0:0:0:
125,238,100699,1,8,0:0:0:0:
125,238,100830,1,8,0:0:0:0:
155,132,100960,1,0,0:0:0:0:
122,184,101025,1,0,0:0:0:0:
235,188,101091,1,0,0:0:0:0:
125,238,101221,1,8,0:0:0:0:
155,132,101482,1,0,0:0:0:0:
222,197,101612,1,8,0:0:0:0:
222,197,101743,1,0,0:0:0:0:
222,197,101808,1,0,0:0:0:0:
163,66,101873,1,0,0:0:0:0:
222,197,102004,1,8,0:0:0:0:
188,132,102265,1,8,0:0:0:0:
182,169,102525,1,0,0:0:0:0:
152,146,102786,1,0,0:0:0:0:
152,146,102917,1,8,0:0:0:0:
152,146,103047,1,0,0:0:0:0:
152,146,103178,1,0,0:0:0:0:
152,146,103308,1,8,0:0:0:0:
186,120,103373,1,8,0:0:0:0:
118,152,103438,1,8,0:0:0:0:
130,140,103569,1,0,0:0:0:0:
130,140,103699,1,8,0:0:0:0:
132,140,103830,1,0,0:0:0:0:
132,140,103895,1,0,0:0:0:0:
132,140,103960,1,0,0:0:0:0:
103,168,104091,1,8,0:0:0:0:
155,132,104612,1,0,0:0:0:0:
125,238,104873,1,8,0:0:0:0:
125,238,105004,1,8,0:0:0:0:
155,132,105134,1,0,0:0:0:0:
122,184,105199,1,0,0:0:0:0:
235,188,105265,1,0,0:0:0:0:
125,238,105395,1,8,0:0:0:0:
155,132,105656,1,0,0:0:0:0:
222,197,105786,1,8,0:0:0:0:
222,197,105917,1,0,0:0:0:0:
222,197,105982,1,0,0:0:0:0:
163,66,106047,1,0,0:0:0:0:
222,197,106178,1,8,0:0:0:0:
147,132,106438,1,8,0:0:0:0:
155,132,106699,1,0,0:0:0:0:
122,184,106830,1,0,0:0:0:0:
125,238,106960,1,8,0:0:0:0:
125,238,107091,1,0,0:0:0:0:
155,132,107221,1,8,0:0:0:0:
122,184,107286,1,8,0:0:0:0:
235,188,107352,1,8,0:0:0:0:
125,238,107482,1,0,0:0:0:0:
155,132,107743,1,8,0:0:0:0:
222,197,107873,1,0,0:0:0:0:
222,197,108004,1,8,0:0:0:0:
222,197,108069,1,8,0:0:0:0:
163,66,108134,1,8,0:0:0:0:
222,197,108265,1,0,0:0:0:0:
161,159,108525,1,8,0:0:0:0:
155,132,108786,1,0,0:0:0:0:
125,238,109047,1,8,0:0:0:0:
125,238,109178,1,8,0:0:0:0:
155,132,109308,1,0,0:0:0:0:
122,184,109373,1,0,0:0:0:0:
235,188,109438,1,0,0:0:0:0:
125,238,109569,1,8,0:0:0:0:
155,132,109830,1,0,0:0:0:0:
222,197,109960,1,8,0:0:0:0:
222,197,110091,1,0,0:0:0:0:
222,197,110156,1,0,0:0:0:0:
163,66,110221,1,0,0:0:0:0:
222,197,110352,1,8,0:0:0:0:
188,132,110612,1,8,0:0:0:0:
182,169,110873,1,8,0:0:0:0:
152,146,111134,1,0,0:0:0:0:
152,146,111265,1,8,0:0:0:0:
152,146,111395,1,0,0:0:0:0:
152,146,111525,1,0,0:0:0:0:
152,146,111656,1,8,0:0:0:0:
186,120,111721,1,8,0:0:0:0:
118,152,111786,1,8,0:0:0:0:
130,140,111917,1,0,0:0:0:0:
130,140,112047,1,8,0:0:0:0:
132,140,112178,1,0,0:0:0:0:
132,140,112243,1,0,0:0:0:0:
132,140,112308,1,0,0:0:0:0:
103,168,112438,1,8,0:0:0:0:
189,191,112960,1,0,0:0:0:0:
204,242,113219,1,8,0:0:0:0:
204,242,113349,1,8,0:0:0:0:
204,242,113480,1,0,0:0:0:0:
204,242,113740,1,8,0:0:0:0:
191,198,114001,1,0,0:0:0:0:
144,250,114131,1,0,0:0:0:0:
202,220,114261,1,8,0:0:0:0:
168,275,114391,1,0,0:0:0:0:
168,275,114522,1,0,0:0:0:0:
168,275,114782,1,8,0:0:0:0:
189,191,115043,1,0,0:0:0:0:
179,155,115173,1,0,0:0:0:0:
171,238,115303,1,8,0:0:0:0:
171,238,115434,1,8,0:0:0:0:
232,178,115564,1,0,0:0:0:0:
143,249,115694,1,0,0:0:0:0:
171,238,115824,1,8,0:0:0:0:
189,191,116085,1,0,0:0:0:0:
143,249,116215,1,0,0:0:0:0:
178,193,116345,1,8,0:0:0:0:
143,249,116476,1,0,0:0:0:0:
178,193,116606,1,8,0:0:0:0:
178,193,117127,1,0,0:0:0:0:
171,239,117388,1,8,0:0:0:0:
171,239,117518,1,0,0:0:0:0:
171,239,117648,1,8,0:0:0:0:
178,193,117778,1,0,0:0:0:0:
171,239,117909,1,8,0:0:0:0:
174,244,118169,1,0,0:0:0:0:
179,188,118299,1,0,0:0:0:0:
179,188,118430,1,8,0:0:0:0:
179,188,118560,1,8,0:0:0:0:
174,244,118690,1,0,0:0:0:0:
171,239,118951,1,8,0:0:0:0:
178,193,119211,1,0,0:0:0:0:
176,193,119341,1,0,0:0:0:0:
177,258,119472,1,8,0:0:0:0:
177,258,119602,1,0,0:0:0:0:
177,258,119732,1,8,0:0:0:0:
178,177,119863,1,0,0:0:0:0:
94,131,119993,1,8,0:0:0:0:
178,193,120253,1,0,0:0:0:0:
198,252,120514,1,8,0:0:0:0:
198,252,120644,1,8,0:0:0:0:
198,252,120774,1,0,0:0:0:0:
395,296,121295,1,0,0:0:0:0:
198,252,121556,1,8,0:0:0:0:
198,252,121686,1,0,0:0:0:0:
379,295,121817,1,8,0:0:0:0:
198,252,122077,1,8,0:0:0:0:
395,296,122338,1,0,0:0:0:0:
134,193,122468,1,0,0:0:0:0:
395,296,122598,1,8,0:0:0:0:
177,185,122728,1,0,0:0:0:0:
379,295,122859,1,0,0:0:0:0:
204,191,123119,1,8,0:0:0:0:
379,295,123380,1,0,0:0:0:0:
163,235,123640,1,8,0:0:0:0:
163,235,123770,1,8,0:0:0:0:
379,295,123901,1,0,0:0:0:0:
176,193,124031,1,0,0:0:0:0:
163,235,124161,1,8,0:0:0:0:
163,235,124422,1,0,0:0:0:0:
176,193,124552,1,0,0:0:0:0:
163,235,124682,1,8,0:0:0:0:
163,235,124813,1,0,0:0:0:0:
373,295,124943,1,8,0:0:0:0:
373,296,125464,1,0,0:0:0:0:
206,175,125724,1,8,0:0:0:0:
206,175,125855,1,8,0:0:0:0:
206,175,125985,1,0,0:0:0:0:
206,175,126246,1,8,0:0:0:0:
373,296,126506,1,0,0:0:0:0:
145,137,126636,1,0,0:0:0:0:
373,295,126767,1,8,0:0:0:0:
206,175,126897,1,8,0:0:0:0:
373,295,127027,1,0,0:0:0:0:
206,175,127288,1,8,0:0:0:0:
230,166,127483,1,0,0:0:0:0:
388,282,127548,1,0,0:0:0:0:
206,175,127809,1,8,0:0:0:0:
88,195,128069,1,0,0:0:0:0:
228,163,128199,1,0,0:0:0:0:
88,195,128330,1,8,0:0:0:0:
88,195,128590,1,0,0:0:0:0:
225,160,128655,1,0,0:0:0:0:
155,173,128721,1,0,0:0:0:0:
192,177,128851,1,8,0:0:0:0:
186,234,128916,1,8,0:0:0:0:
192,177,128981,1,8,0:0:0:0:
192,177,129111,1,0,0:0:0:0:
224,177,129372,1,8,0:0:0:0:
189,191,129652,1,4,0:0:0:0:
204,242,129912,1,8,0:0:0:0:
204,242,130042,1,8,0:0:0:0:
204,242,130173,1,0,0:0:0:0:
42,135,130303,1,0,0:0:0:0:
204,242,130433,1,8,0:0:0:0:
191,198,130694,1,0,0:0:0:0:
117,184,130759,1,0,0:0:0:0:
161,210,130824,1,0,0:0:0:0:
202,220,130954,1,8,0:0:0:0:
168,275,131084,1,0,0:0:0:0:
168,275,131215,1,8,0:0:0:0:
168,275,131475,1,8,0:0:0:0:
189,191,131736,1,0,0:0:0:0:
171,238,131996,1,8,0:0:0:0:
171,238,132127,1,8,0:0:0:0:
232,178,132257,1,0,0:0:0:0:
160,210,132387,1,0,0:0:0:0:
171,238,132517,1,8,0:0:0:0:
189,191,132778,1,8,0:0:0:0:
171,238,132908,1,0,0:0:0:0:
178,193,133038,1,8,0:0:0:0:
115,184,133104,1,8,0:0:0:0:
45,172,133169,1,8,0:0:0:0:
178,193,133299,1,0,0:0:0:0:
255,134,133559,1,8,0:0:0:0:
178,193,133820,1,0,0:0:0:0:
171,239,134081,1,8,0:0:0:0:
171,239,134211,1,0,0:0:0:0:
171,239,134341,1,8,0:0:0:0:
96,173,134471,1,0,0:0:0:0:
171,239,134602,1,8,0:0:0:0:
115,184,134862,1,0,0:0:0:0:
115,184,134927,1,0,0:0:0:0:
158,210,134992,1,0,0:0:0:0:
179,188,135123,1,8,0:0:0:0:
179,188,135253,1,8,0:0:0:0:
174,244,135383,1,0,0:0:0:0:
171,239,135644,1,8,0:0:0:0:
178,193,135904,1,0,0:0:0:0:
158,210,136034,1,0,0:0:0:0:
177,258,136165,1,8,0:0:0:0:
177,258,136295,1,8,0:0:0:0:
177,258,136425,1,0,0:0:0:0:
178,177,136556,1,0,0:0:0:0:
94,131,136686,1,8,0:0:0:0:
178,193,136946,1,8,0:0:0:0:
115,184,137011,1,8,0:0:0:0:
158,210,137077,1,8,0:0:0:0:
198,252,137207,1,0,0:0:0:0:
198,252,137337,1,0,0:0:0:0:
198,252,137467,1,8,0:0:0:0:
395,296,137988,1,0,0:0:0:0:
198,252,138249,1,8,0:0:0:0:
198,252,138379,1,0,0:0:0:0:
379,295,138510,1,8,0:0:0:0:
158,210,138640,1,0,0:0:0:0:
198,252,138770,1,8,0:0:0:0:
115,184,139031,1,0,0:0:0:0:
181,242,139096,1,0,0:0:0:0:
115,184,139161,1,0,0:0:0:0:
395,296,139291,1,8,0:0:0:0:
177,185,139421,1,8,0:0:0:0:
379,295,139552,1,0,0:0:0:0:
204,191,139812,1,8,0:0:0:0:
379,295,140073,1,0,0:0:0:0:
158,210,140203,1,0,0:0:0:0:
163,235,140333,1,8,0:0:0:0:
163,235,140463,1,0,0:0:0:0:
379,295,140594,1,8,0:0:0:0:
158,210,140724,1,0,0:0:0:0:
163,235,140854,1,8,0:0:0:0:
163,235,141115,1,0,0:0:0:0:
139,58,141245,1,0,0:0:0:0:
163,235,141375,1,8,0:0:0:0:
181,242,141440,1,8,0:0:0:0:
163,235,141506,1,8,0:0:0:0:
373,295,141636,1,0,0:0:0:0:
373,296,142157,1,0,0:0:0:0:
206,175,142417,1,8,0:0:0:0:
206,175,142548,1,8,0:0:0:0:
206,175,142678,1,0,0:0:0:0:
204,233,142808,1,0,0:0:0:0:
206,175,142939,1,8,0:0:0:0:
373,296,143199,1,0,0:0:0:0:
145,137,143329,1,8,0:0:0:0:
373,295,143460,1,0,0:0:0:0:
206,175,143590,1,0,0:0:0:0:
373,295,143720,1,8,0:0:0:0:
206,175,143981,1,8,0:0:0:0:
388,282,144241,1,0,0:0:0:0:
137,167,144371,1,8,0:0:0:0:
206,175,144502,1,0,0:0:0:0:
115,98,144632,1,0,0:0:0:0:
88,195,144762,1,8,0:0:0:0:
203,233,144892,1,0,0:0:0:0:
88,195,145023,1,8,0:0:0:0:
88,195,145283,1,0,0:0:0:0:
181,242,145348,1,0,0:0:0:0:
203,233,145414,1,0,0:0:0:0:
192,177,145544,1,8,0:0:0:0:
141,45,145674,1,0,0:0:0:0:
141,45,145804,1,8,0:0:0:0:
203,233,146065,1,0,0:0:0:0:
123,62,146325,1,8,0:0:0:0:
123,62,146846,1,0,0:0:0:0:
123,62,147368,1,4,0:0:0:0:
138,243,148437,1,0,0:0:0:0:
138,243,148567,1,8,0:0:0:0:
123,241,148632,1,8,0:0:0:0:
123,241,148697,1,8,0:0:0:0:
123,241,148828,1,8,0:0:0:0:
123,241,148958,1,0,0:0:0:0:
111,233,149089,1,0,0:0:0:0:
110,233,149219,1,8,0:0:0:0:
110,233,149480,1,0,0:0:0:0:
110,233,149610,1,0,0:0:0:0:
110,233,149741,1,8,0:0:0:0:
110,233,149871,1,0,0:0:0:0:
110,233,149937,1,0,0:0:0:0:
111,233,150002,1,0,0:0:0:0:
111,233,150132,1,0,0:0:0:0:
110,233,150263,1,8,0:0:0:0:
117,147,150523,1,0,0:0:0:0:
117,147,150654,1,8,0:0:0:0:
117,147,150719,1,8,0:0:0:0:
117,147,150784,1,8,0:0:0:0:
117,147,150915,1,8,0:0:0:0:
117,147,151045,1,0,0:0:0:0:
141,182,151176,1,0,0:0:0:0:
133,118,151306,1,8,0:0:0:0:
133,118,151567,1,0,0:0:0:0:
108,124,151697,1,0,0:0:0:0:
108,124,151828,1,8,0:0:0:0:
107,126,151958,1,8,0:0:0:0:
108,124,152089,1,0,0:0:0:0:
97,126,152610,1,0,0:0:0:0:
123,178,152741,1,8,0:0:0:0:
123,178,152806,1,8,0:0:0:0:
123,178,152871,1,8,0:0:0:0:
123,178,153002,1,8,0:0:0:0:
123,178,153132,1,0,0:0:0:0:
123,178,153393,1,8,0:0:0:0:
123,178,153654,1,0,0:0:0:0:
123,178,153915,1,8,0:0:0:0:
123,178,154045,1,8,0:0:0:0:
123,178,154176,1,0,0:0:0:0:
123,178,154241,1,0,0:0:0:0:
123,178,154306,1,0,0:0:0:0:
123,178,154437,1,8,0:0:0:0:
123,178,154697,1,0,0:0:0:0:
123,178,154828,1,8,0:0:0:0:
123,178,154893,1,8,0:0:0:0:
123,178,154958,1,8,0:0:0:0:
123,178,155089,1,0,0:0:0:0:
123,178,155219,1,0,0:0:0:0:
123,178,155480,1,8,0:0:0:0:
123,178,155741,1,0,0:0:0:0:
123,178,155871,1,0,0:0:0:0:
123,178,156002,1,8,0:0:0:0:
123,178,156132,1,0,0:0:0:0:
123,178,156263,1,8,0:0:0:0:
138,243,156784,1,0,0:0:0:0:
138,243,156915,1,8,0:0:0:0:
123,241,156980,1,8,0:0:0:0:
123,241,157045,1,8,0:0:0:0:
123,241,157176,1,8,0:0:0:0:
123,241,157306,1,0,0:0:0:0:
111,233,157437,1,0,0:0:0:0:
110,233,157567,1,8,0:0:0:0:
110,233,157828,1,0,0:0:0:0:
110,233,157958,1,0,0:0:0:0:
110,233,158089,1,8,0:0:0:0:
110,233,158219,1,0,0:0:0:0:
110,233,158284,1,0,0:0:0:0:
111,233,158350,1,0,0:0:0:0:
111,233,158480,1,0,0:0:0:0:
110,233,158610,1,8,0:0:0:0:
117,147,158871,1,0,0:0:0:0:
117,147,159002,1,8,0:0:0:0:
117,147,159067,1,8,0:0:0:0:
117,147,159132,1,8,0:0:0:0:
117,147,159263,1,8,0:0:0:0:
117,147,159393,1,0,0:0:0:0:
141,182,159523,1,0,0:0:0:0:
133,118,159654,1,8,0:0:0:0:
133,118,159915,1,0,0:0:0:0:
108,124,160045,1,0,0:0:0:0:
108,124,160176,1,8,0:0:0:0:
107,126,160306,1,8,0:0:0:0:
108,124,160437,1,0,0:0:0:0:
97,126,160958,1,0,0:0:0:0:
123,178,161089,1,8,0:0:0:0:
123,178,161154,1,8,0:0:0:0:
123,178,161219,1,8,0:0:0:0:
123,178,161350,1,8,0:0:0:0:
123,178,161480,1,0,0:0:0:0:
123,178,161741,1,8,0:0:0:0:
123,178,162002,1,0,0:0:0:0:
123,178,162263,1,8,0:0:0:0:
123,178,162393,1,8,0:0:0:0:
123,178,162523,1,0,0:0:0:0:
123,178,162589,1,0,0:0:0:0:
123,178,162654,1,0,0:0:0:0:
123,178,162784,1,8,0:0:0:0:
123,178,163045,1,0,0:0:0:0:
123,178,163176,1,8,0:0:0:0:
123,178,163241,1,8,0:0:0:0:
123,178,163306,1,8,0:0:0:0:
123,178,163436,1,0,0:0:0:0:
123,178,163567,1,0,0:0:0:0:
123,178,163828,1,8,0:0:0:0:
123,178,164089,1,0,0:0:0:0:
123,178,164219,1,0,0:0:0:0:
123,178,164350,1,8,0:0:0:0:
123,178,164480,1,8,0:0:0:0:
123,178,164610,1,0,0:0:0:0:
123,178,164676,1,0,0:0:0:0:
123,178,164741,1,0,0:0:0:0:
123,178,164871,1,8,0:0:0:0:
155,132,165132,1,0,0:0:0:0:
174,255,165654,1,0,0:0:0:0:
85,135,165784,1,0,0:0:0:0:
85,135,165915,1,8,0:0:0:0:
88,130,166045,1,0,0:0:0:0:
88,130,166306,1,0,0:0:0:0:
88,130,166436,1,8,0:0:0:0:
88,130,166697,1,0,0:0:0:0:
88,130,166828,1,0,0:0:0:0:
88,130,166958,1,8,0:0:0:0:
79,130,167089,1,8,0:0:0:0:
123,180,167219,1,0,0:0:0:0:
61,126,167480,1,8,0:0:0:0:
79,129,167741,1,0,0:0:0:0:
79,129,167871,1,0,0:0:0:0:
79,130,168002,1,8,0:0:0:0:
79,129,168132,1,0,0:0:0:0:
79,129,168393,1,0,0:0:0:0:
79,129,168523,1,8,0:0:0:0:
79,129,168654,1,8,0:0:0:0:
79,129,168784,1,0,0:0:0:0:
79,129,168915,1,0,0:0:0:0:
79,130,169045,1,8,0:0:0:0:
77,118,169306,1,0,0:0:0:0:
33,179,169567,1,8,0:0:0:0:
33,179,169828,1,0,0:0:0:0:
236,80,169958,1,0,0:0:0:0:
33,179,170089,1,8,0:0:0:0:
33,179,170350,1,0,0:0:0:0:
33,179,170610,1,8,0:0:0:0:
33,179,170741,1,0,0:0:0:0:
33,179,171002,1,0,0:0:0:0:
33,179,171132,1,8,0:0:0:0:
83,135,171263,1,8,0:0:0:0:
83,135,171393,1,0,0:0:0:0:
94,139,171654,1,8,0:0:0:0:
94,139,171915,1,0,0:0:0:0:
272,319,172176,1,8,0:0:0:0:
272,319,172306,1,0,0:0:0:0:
235,325,172436,1,0,0:0:0:0:
235,325,172697,1,8,0:0:0:0:
235,325,172958,1,0,0:0:0:0:
235,325,173089,1,0,0:0:0:0:
235,325,173219,1,8,0:0:0:0:
235,325,173350,1,0,0:0:0:0:
235,325,173480,1,0,0:0:0:0:
235,325,173741,1,8,0:0:0:0:
170,273,174002,1,0,0:0:0:0:
170,273,174263,1,8,0:0:0:0:
170,273,174523,1,0,0:0:0:0:
170,273,174654,1,0,0:0:0:0:
170,273,174784,1,8,0:0:0:0:
170,273,174915,1,8,0:0:0:0:
55,181,175045,1,0,0:0:0:0:
66,169,175306,1,8,0:0:0:0:
66,169,175567,1,0,0:0:0:0:
66,169,175697,1,0,0:0:0:0:
66,169,175828,1,8,0:0:0:0:
66,169,175958,1,8,0:0:0:0:
66,169,176089,1,0,0:0:0:0:
66,169,176350,1,8,0:0:0:0:
66,169,176480,1,0,0:0:0:0:
66,169,176610,1,0,0:0:0:0:
143,156,176871,1,8,0:0:0:0:
143,156,177132,1,0,0:0:0:0:
143,156,177263,1,0,0:0:0:0:
143,156,177393,1,8,0:0:0:0:
137,153,177523,1,8,0:0:0:0:
143,156,177654,1,0,0:0:0:0:
161,137,177915,1,8,0:0:0:0:
158,137,178176,1,0,0:0:0:0:
148,136,178436,1,8,0:0:0:0:
148,136,178567,1,0,0:0:0:0:
148,136,178697,1,0,0:0:0:0:
147,136,178958,1,8,0:0:0:0:
148,136,179219,1,0,0:0:0:0:
148,136,179350,1,0,0:0:0:0:
148,136,179480,1,8,0:0:0:0:
148,136,179741,1,0,0:0:0:0:
148,136,180002,1,8,0:0:0:0:
148,136,180132,1,8,0:0:0:0:
148,136,180263,1,0,0:0:0:0:
100,118,180393,1,0,0:0:0:0:
100,118,180523,1,8,0:0:0:0:
100,118,180784,1,0,0:0:0:0:
100,118,180915,1,0,0:0:0:0:
100,146,181045,1,8,0:0:0:0:
100,146,181176,1,0,0:0:0:0:
100,146,181306,1,8,0:0:0:0:
100,146,181436,1,0,0:0:0:0:
110,238,181567,1,8,0:0:0:0:
110,238,181632,1,8,0:0:0:0:
110,238,181697,1,8,0:0:0:0:
182,197,181828,1,4,0:0:0:0:
