osu file format v14

[General]
AudioFilename: new.mp3
AudioLeadIn: 0
PreviewTime: 51918
Countdown: 0
SampleSet: Normal
StackLeniency: 0.7
Mode: 1
LetterboxInBreaks: 0
WidescreenStoryboard: 1

[Editor]
Bookmarks: 154697
DistanceSpacing: 1.1
BeatDivisor: 4
GridSize: 32
TimelineZoom: 2.899999

[Metadata]
Title:Meiecundimees uks Korsakov laks eile Latti
TitleUnicode:Meiecundimees üks Korsakov läks eile Lätti
Artist:Winny Puhh
ArtistUnicode:Winny Puhh
Creator:The Law
Version:Cry's Oni
Source:
Tags:kdj8381 cryceptio estonian eesti metal kes küsib? kusib? laul 2013 Pole See Jõumehe joumehe Elu Üldse uldse Kerge punk liku the_law
BeatmapID:4128218
BeatmapSetID:1936604

[Difficulty]
HPDrainRate:6
CircleSize:5
OverallDifficulty:6
ApproachRate:5
SliderMultiplier:1.4
SliderTickRate:1

[Events]
//Background and Video events
0,0,"wallhaven-zygeko.jpg",0,0
//Break Periods
//Storyboard Layer 0 (Background)
//Storyboard Layer 1 (Fail)
//Storyboard Layer 2 (Pass)
//Storyboard Layer 3 (Foreground)
//Storyboard Layer 4 (Overlay)
//Storyboard Sound Samples

[TimingPoints]
265,260.869565217391,4,1,0,50,1,0
2352,-117.647058823529,4,1,0,70,0,0
7698,-117.647058823529,4,1,0,70,0,0
7829,-116.279069767442,4,1,0,70,0,0
7959,-114.942528735632,4,1,0,70,0,0
8024,-114.942528735632,4,1,0,70,0,0
8090,-113.636363636364,4,1,0,70,0,0
8220,-112.359550561798,4,1,0,70,0,0
8350,-111.111111111111,4,1,0,70,0,0
8481,-109.89010989011,4,1,0,70,0,0
8611,-108.695652173913,4,1,0,70,0,0
8742,-107.52688172043,4,1,0,70,0,0
8872,-106.382978723404,4,1,0,70,0,0
9003,-104.166666666667,4,1,0,70,0,0
9133,-103.092783505155,4,1,0,70,0,0
9198,-102.040816326531,4,1,0,70,0,0
9264,-102.040816326531,4,1,0,70,0,0
9329,-101.010101010101,4,1,0,70,0,0
9395,-100,4,1,0,70,0,0
10699,260.869565217391,4,1,0,90,1,0
10699,-100,4,1,0,90,0,0
27330,-105.263157894737,4,1,0,70,0,0
41994,260.303687635575,4,1,0,70,1,0
41994,-105.263157894737,4,1,0,70,0,0
44076,260.869565217391,4,1,0,70,1,0
44081,-100,4,1,0,70,0,0
45059,-72.463768115942,4,1,0,70,0,0
45907,-100,4,1,0,70,0,0
47146,-71.4285714285714,4,1,0,70,0,0
47994,-100,4,1,0,70,0,0
48249,260.869565217391,4,1,0,70,1,8
48266,260.869565217391,4,1,0,70,1,0
49298,-71.4285714285714,4,1,0,70,0,0
50081,-100,4,1,0,70,0,0
51385,-71.4285714285714,4,1,0,70,0,0
51972,-100,4,1,0,70,0,0
52439,-100,4,1,0,90,0,0
68089,-100,4,1,0,70,0,0
68090,-101.010101010101,4,1,0,70,0,0
68222,-101.010101010101,4,1,0,50,0,0
69132,-104.166666666667,4,1,0,50,0,0
70176,-111.111111111111,4,1,0,50,0,0
70959,-117.647058823529,4,1,0,70,0,0
71220,-105.263157894737,4,1,0,70,0,0
87918,-90.9090909090909,4,1,0,90,0,1
96265,-100,4,1,0,90,0,0
112959,260.529743812419,4,1,0,70,1,0
112959,-111.111111111111,4,1,0,70,0,0
129632,260.529743812419,4,1,0,70,1,8
129632,-105.263157894737,4,1,0,70,0,0
129652,260.529743812419,4,1,0,70,1,0
129652,-105.263157894737,4,1,0,70,0,0
146324,-104.166666666667,4,1,0,50,0,0
146845,-109.89010989011,4,1,0,50,0,0
147368,-117.647058823529,4,1,0,50,0,0
148410,260.529743812419,4,1,0,90,1,8
148437,260.869565217391,4,1,0,90,1,1
148437,-90.9090909090909,4,1,0,90,0,1
165132,-100,4,1,0,80,0,0

[HitObjects]
256,192,5482,5,0,0:0:0:0:
256,192,5743,1,0,0:0:0:0:
256,192,6004,1,0,0:0:0:0:
256,192,6264,1,0,0:0:0:0:
256,192,6525,1,0,0:0:0:0:
256,192,6786,1,0,0:0:0:0:
256,192,7047,1,0,0:0:0:0:
256,192,7308,1,0,0:0:0:0:
64,352,7569,5,0,0:0:0:0:
64,352,7699,1,0,0:0:0:0:
448,64,7830,1,8,0:0:0:0:
64,352,7960,1,0,0:0:0:0:
64,352,8025,1,0,0:0:0:0:
448,64,8091,1,8,0:0:0:0:
64,352,8221,1,0,0:0:0:0:
448,64,8351,1,8,0:0:0:0:
64,352,8482,1,0,0:0:0:0:
448,64,8612,1,8,0:0:0:0:
64,352,8743,1,0,0:0:0:0:
448,64,8873,1,8,0:0:0:0:
448,64,9004,1,8,0:0:0:0:
64,352,9134,1,0,0:0:0:0:
64,352,9199,1,0,0:0:0:0:
448,64,9264,1,8,0:0:0:0:
64,352,9330,1,0,0:0:0:0:
448,64,9395,1,8,0:0:0:0:
448,64,9656,1,8,0:0:0:0:
448,64,9721,1,8,0:0:0:0:
448,64,9786,1,8,0:0:0:0:
448,64,9851,1,8,0:0:0:0:
448,64,9917,1,8,0:0:0:0:
64,352,10047,1,0,0:0:0:0:
448,64,10178,1,8,0:0:0:0:
448,64,10438,1,8,0:0:0:0:
64,320,10699,1,4,0:0:0:0:
64,352,10829,1,0,0:0:0:0:
448,64,10959,1,8,0:0:0:0:
64,352,11090,1,0,0:0:0:0:
448,64,11220,1,8,0:0:0:0:
448,64,11285,1,8,0:0:0:0:
64,352,11351,1,0,0:0:0:0:
448,64,11481,1,8,0:0:0:0:
448,64,11612,1,8,0:0:0:0:
64,352,11742,1,0,0:0:0:0:
448,64,11872,1,8,0:0:0:0:
448,64,12003,1,8,0:0:0:0:
448,64,12068,1,8,0:0:0:0:
64,352,12133,1,0,0:0:0:0:
64,352,12198,1,0,0:0:0:0:
448,64,12264,1,8,0:0:0:0:
64,352,12394,1,0,0:0:0:0:
448,64,12525,1,8,0:0:0:0:
64,352,12785,1,0,0:0:0:0:
448,64,12916,1,8,0:0:0:0:
448,64,13046,1,8,0:0:0:0:
448,64,13177,1,8,0:0:0:0:
64,352,13307,1,0,0:0:0:0:
64,352,13372,1,0,0:0:0:0:
448,64,13438,1,8,0:0:0:0:
448,64,13568,1,8,0:0:0:0:
64,352,13698,1,0,0:0:0:0:
64,352,13829,1,0,0:0:0:0:
448,64,13959,1,8,0:0:0:0:
448,64,14090,1,8,0:0:0:0:
64,352,14155,1,0,0:0:0:0:
64,352,14220,1,0,0:0:0:0:
64,352,14285,1,0,0:0:0:0:
448,64,14351,1,8,0:0:0:0:
64,352,14481,1,0,0:0:0:0:
448,64,14612,1,8,0:0:0:0:
64,352,14872,1,0,0:0:0:0:
64,352,15003,1,0,0:0:0:0:
448,64,15133,1,8,0:0:0:0:
448,64,15264,1,8,0:0:0:0:
64,352,15394,1,0,0:0:0:0:
64,352,15459,1,0,0:0:0:0:
448,64,15525,1,8,0:0:0:0:
64,352,15655,1,0,0:0:0:0:
64,352,15785,1,0,0:0:0:0:
64,352,15916,1,0,0:0:0:0:
448,64,16046,1,8,0:0:0:0:
448,64,16177,1,8,0:0:0:0:
448,64,16242,1,8,0:0:0:0:
64,352,16307,1,0,0:0:0:0:
64,352,16372,1,0,0:0:0:0:
448,64,16438,1,8,0:0:0:0:
64,352,16568,1,0,0:0:0:0:
448,64,16698,1,8,0:0:0:0:
64,352,16959,1,0,0:0:0:0:
448,64,17090,1,8,0:0:0:0:
448,64,17220,1,8,0:0:0:0:
64,352,17351,1,0,0:0:0:0:
448,64,17481,1,8,0:0:0:0:
448,64,17546,1,8,0:0:0:0:
64,352,17612,1,0,0:0:0:0:
448,64,17742,1,8,0:0:0:0:
64,352,17872,1,0,0:0:0:0:
64,352,18003,1,0,0:0:0:0:
448,64,18133,1,8,0:0:0:0:
448,64,18264,1,8,0:0:0:0:
448,64,18329,1,8,0:0:0:0:
64,352,18394,1,0,0:0:0:0:
64,352,18459,1,0,0:0:0:0:
448,64,18525,1,8,0:0:0:0:
64,352,18655,1,0,0:0:0:0:
448,64,18785,1,8,0:0:0:0:
64,352,19046,1,0,0:0:0:0:
64,352,19177,1,0,0:0:0:0:
448,64,19307,1,8,0:0:0:0:
64,352,19438,1,0,0:0:0:0:
448,64,19568,1,8,0:0:0:0:
448,64,19633,1,8,0:0:0:0:
64,352,19698,1,0,0:0:0:0:
448,64,19829,1,8,0:0:0:0:
448,64,19959,1,8,0:0:0:0:
64,352,20090,1,0,0:0:0:0:
448,64,20220,1,8,0:0:0:0:
448,64,20351,1,8,0:0:0:0:
448,64,20416,1,8,0:0:0:0:
64,352,20481,1,0,0:0:0:0:
64,352,20546,1,0,0:0:0:0:
448,64,20612,1,8,0:0:0:0:
64,352,20742,1,0,0:0:0:0:
448,64,20872,1,8,0:0:0:0:
64,352,21133,1,0,0:0:0:0:
448,64,21264,1,8,0:0:0:0:
448,64,21394,1,8,0:0:0:0:
448,64,21525,1,8,0:0:0:0:
64,352,21655,1,0,0:0:0:0:
64,352,21720,1,0,0:0:0:0:
448,64,21785,1,8,0:0:0:0:
448,64,21916,1,8,0:0:0:0:
64,352,22046,1,0,0:0:0:0:
64,352,22177,1,0,0:0:0:0:
448,64,22307,1,8,0:0:0:0:
448,64,22438,1,8,0:0:0:0:
64,352,22503,1,0,0:0:0:0:
64,352,22568,1,0,0:0:0:0:
64,352,22633,1,0,0:0:0:0:
448,64,22698,1,8,0:0:0:0:
64,352,22829,1,0,0:0:0:0:
448,64,22959,1,8,0:0:0:0:
64,352,23220,1,0,0:0:0:0:
64,352,23351,1,0,0:0:0:0:
448,64,23481,1,8,0:0:0:0:
448,64,23612,1,8,0:0:0:0:
64,352,23742,1,0,0:0:0:0:
64,352,23807,1,0,0:0:0:0:
448,64,23872,1,8,0:0:0:0:
64,352,24003,1,0,0:0:0:0:
64,352,24133,1,0,0:0:0:0:
64,352,24264,1,0,0:0:0:0:
448,64,24394,1,8,0:0:0:0:
448,64,24525,1,8,0:0:0:0:
448,64,24590,1,8,0:0:0:0:
64,352,24655,1,0,0:0:0:0:
64,352,24720,1,0,0:0:0:0:
448,64,24785,1,8,0:0:0:0:
64,352,24916,1,0,0:0:0:0:
448,64,25046,1,8,0:0:0:0:
64,352,25307,1,0,0:0:0:0:
448,64,25438,1,8,0:0:0:0:
448,64,25568,1,8,0:0:0:0:
64,352,25698,1,0,0:0:0:0:
448,64,25829,1,8,0:0:0:0:
448,64,25894,1,8,0:0:0:0:
64,352,25959,1,0,0:0:0:0:
448,64,26090,1,8,0:0:0:0:
64,352,26220,1,0,0:0:0:0:
64,352,26351,1,0,0:0:0:0:
448,64,26481,1,8,0:0:0:0:
448,64,26612,1,8,0:0:0:0:
448,64,26677,1,8,0:0:0:0:
64,352,26742,1,0,0:0:0:0:
64,352,26807,1,0,0:0:0:0:
448,64,26872,1,8,0:0:0:0:
64,352,27003,1,0,0:0:0:0:
448,64,27133,1,8,0:0:0:0:
64,352,27394,1,0,0:0:0:0:
64,352,27525,1,0,0:0:0:0:
448,64,27655,1,8,0:0:0:0:
64,352,27785,1,0,0:0:0:0:
448,64,27916,1,8,0:0:0:0:
64,352,28046,1,0,0:0:0:0:
448,64,28177,1,8,0:0:0:0:
448,64,28307,1,8,0:0:0:0:
64,352,28438,1,0,0:0:0:0:
64,352,28568,1,0,0:0:0:0:
64,352,28698,1,0,0:0:0:0:
448,64,28764,1,8,0:0:0:0:
64,352,28829,1,0,0:0:0:0:
64,352,28894,1,0,0:0:0:0:
448,64,28959,1,8,0:0:0:0:
64,352,29090,1,0,0:0:0:0:
448,64,29220,1,8,0:0:0:0:
64,352,29481,1,0,0:0:0:0:
64,352,29612,1,0,0:0:0:0:
448,64,29742,1,8,0:0:0:0:
64,352,29872,1,0,0:0:0:0:
448,64,30003,1,8,0:0:0:0:
64,352,30133,1,0,0:0:0:0:
448,64,30264,1,8,0:0:0:0:
64,352,30329,1,0,0:0:0:0:
448,64,30394,1,8,0:0:0:0:
64,352,30525,1,0,0:0:0:0:
64,352,30655,1,0,0:0:0:0:
448,64,30785,1,8,0:0:0:0:
64,352,30851,1,0,0:0:0:0:
448,64,30916,1,8,0:0:0:0:
448,64,30981,1,8,0:0:0:0:
64,352,31046,1,0,0:0:0:0:
64,352,31177,1,0,0:0:0:0:
448,64,31307,1,8,0:0:0:0:
448,64,31568,1,8,0:0:0:0:
64,352,31698,1,0,0:0:0:0:
448,64,31829,1,8,0:0:0:0:
448,64,31959,1,8,0:0:0:0:
64,352,32090,1,0,0:0:0:0:
448,64,32220,1,8,0:0:0:0:
448,64,32351,1,8,0:0:0:0:
448,64,32481,1,8,0:0:0:0:
64,352,32612,1,0,0:0:0:0:
64,352,32742,1,0,0:0:0:0:
448,64,32872,1,8,0:0:0:0:
64,352,32938,1,0,0:0:0:0:
448,64,33003,1,8,0:0:0:0:
448,64,33068,1,8,0:0:0:0:
64,352,33133,1,0,0:0:0:0:
64,352,33264,1,0,0:0:0:0:
448,64,33394,1,8,0:0:0:0:
448,64,33655,1,8,0:0:0:0:
64,352,33785,1,0,0:0:0:0:
448,64,33916,1,8,0:0:0:0:
448,64,34046,1,8,0:0:0:0:
64,352,34177,1,0,0:0:0:0:
448,64,34307,1,8,0:0:0:0:
448,64,34372,1,8,0:0:0:0:
64,352,34438,1,0,0:0:0:0:
448,64,34568,1,8,0:0:0:0:
64,352,34698,1,0,0:0:0:0:
64,352,34829,1,0,0:0:0:0:
448,64,34959,1,8,0:0:0:0:
64,352,35090,1,0,0:0:0:0:
448,64,35220,1,8,0:0:0:0:
448,64,35285,1,8,0:0:0:0:
64,352,35351,1,0,0:0:0:0:
64,352,35416,1,0,0:0:0:0:
448,64,35481,1,8,0:0:0:0:
64,352,35742,1,0,0:0:0:0:
64,352,35872,1,0,0:0:0:0:
448,64,36003,1,8,0:0:0:0:
64,352,36133,1,0,0:0:0:0:
448,64,36264,1,8,0:0:0:0:
64,352,36394,1,0,0:0:0:0:
448,64,36525,1,8,0:0:0:0:
448,64,36655,1,8,0:0:0:0:
64,352,36785,1,0,0:0:0:0:
64,352,36916,1,0,0:0:0:0:
448,64,37046,1,8,0:0:0:0:
64,352,37177,1,0,0:0:0:0:
448,64,37307,1,8,0:0:0:0:
64,352,37372,1,0,0:0:0:0:
64,352,37438,1,0,0:0:0:0:
64,352,37503,1,0,0:0:0:0:
448,64,37568,1,8,0:0:0:0:
64,352,37829,1,0,0:0:0:0:
64,352,37959,1,0,0:0:0:0:
448,64,38090,1,8,0:0:0:0:
64,352,38220,1,0,0:0:0:0:
448,64,38351,1,8,0:0:0:0:
448,64,38481,1,8,0:0:0:0:
64,352,38546,1,0,0:0:0:0:
448,64,38612,1,8,0:0:0:0:
448,64,38742,1,8,0:0:0:0:
64,352,38872,1,0,0:0:0:0:
64,352,39003,1,0,0:0:0:0:
448,64,39133,1,8,0:0:0:0:
64,352,39198,1,0,0:0:0:0:
448,64,39264,1,8,0:0:0:0:
448,64,39329,1,8,0:0:0:0:
64,352,39394,1,0,0:0:0:0:
64,352,39525,1,0,0:0:0:0:
448,64,39655,1,8,0:0:0:0:
448,64,39916,1,8,0:0:0:0:
64,352,40046,1,0,0:0:0:0:
448,64,40177,1,8,0:0:0:0:
448,64,40307,1,8,0:0:0:0:
64,352,40438,1,0,0:0:0:0:
64,352,40568,1,0,0:0:0:0:
448,64,40698,1,8,0:0:0:0:
448,64,40829,1,8,0:0:0:0:
64,352,40959,1,0,0:0:0:0:
64,352,41090,1,0,0:0:0:0:
448,64,41220,1,8,0:0:0:0:
64,352,41351,1,0,0:0:0:0:
448,64,41481,1,8,0:0:0:0:
448,64,41546,1,8,0:0:0:0:
64,352,41612,1,0,0:0:0:0:
64,352,41677,1,0,0:0:0:0:
448,64,41742,1,8,0:0:0:0:
448,64,41994,1,8,0:0:0:0:
64,352,42124,1,0,0:0:0:0:
448,64,42254,1,8,0:0:0:0:
448,64,42384,1,8,0:0:0:0:
64,352,42514,1,0,0:0:0:0:
64,352,42644,1,0,0:0:0:0:
64,352,42709,1,0,0:0:0:0:
448,64,42774,1,8,0:0:0:0:
448,64,42905,1,8,0:0:0:0:
64,352,43035,1,0,0:0:0:0:
64,352,43165,1,0,0:0:0:0:
448,64,43295,1,8,0:0:0:0:
448,64,43360,1,8,0:0:0:0:
64,352,43425,1,0,0:0:0:0:
64,352,43490,1,0,0:0:0:0:
448,64,43555,1,8,0:0:0:0:
64,352,43685,1,0,0:0:0:0:
448,64,43816,1,8,0:0:0:0:
64,352,44076,1,0,0:0:0:0:
64,352,44206,1,0,0:0:0:0:
448,64,44336,1,8,0:0:0:0:
448,64,44467,1,8,0:0:0:0:
64,352,44597,1,0,0:0:0:0:
64,352,44728,1,0,0:0:0:0:
448,64,44858,1,8,0:0:0:0:
64,352,44989,1,0,0:0:0:0:
64,352,45119,2,4,L|277:353,3,193.2000002948
64,352,46162,1,0,0:0:0:0:
64,352,46293,1,0,0:0:0:0:
448,64,46423,1,8,0:0:0:0:
448,64,46554,1,8,0:0:0:0:
64,352,46684,1,0,0:0:0:0:
448,64,46815,1,8,0:0:0:0:
64,352,46945,1,0,0:0:0:0:
448,64,47076,1,8,0:0:0:0:
64,352,47206,2,4,L|283:350,3,195.999994018555
64,352,48266,1,0,0:0:0:0:
64,352,48396,1,0,0:0:0:0:
448,64,48526,1,8,0:0:0:0:
448,64,48657,1,8,0:0:0:0:
448,64,48787,1,8,0:0:0:0:
64,352,48918,1,0,0:0:0:0:
448,64,49048,1,8,0:0:0:0:
64,352,49179,1,0,0:0:0:0:
64,352,49309,2,4,L|293:353,3,195.999994018555
64,352,50352,1,0,0:0:0:0:
64,352,50483,1,0,0:0:0:0:
448,64,50613,1,8,0:0:0:0:
55,352,50744,1,0,0:0:0:0:
55,352,50874,1,0,0:0:0:0:
51,353,51005,1,0,0:0:0:0:
448,64,51135,1,8,0:0:0:0:
50,354,51266,1,0,0:0:0:0:
64,352,51396,6,4,L|443:60,1,489.869324990909
64,320,52439,1,4,0:0:0:0:
64,352,52569,1,0,0:0:0:0:
448,64,52699,1,8,0:0:0:0:
64,352,52830,1,0,0:0:0:0:
448,64,52960,1,8,0:0:0:0:
448,64,53025,1,8,0:0:0:0:
64,352,53091,1,0,0:0:0:0:
448,64,53221,1,8,0:0:0:0:
448,64,53352,1,8,0:0:0:0:
64,352,53482,1,0,0:0:0:0:
448,64,53612,1,8,0:0:0:0:
448,64,53743,1,8,0:0:0:0:
448,64,53808,1,8,0:0:0:0:
64,352,53873,1,0,0:0:0:0:
64,352,53939,1,0,0:0:0:0:
448,64,54004,1,8,0:0:0:0:
64,352,54134,1,0,0:0:0:0:
448,64,54265,1,8,0:0:0:0:
64,352,54525,1,0,0:0:0:0:
448,64,54656,1,8,0:0:0:0:
448,64,54786,1,8,0:0:0:0:
448,64,54917,1,8,0:0:0:0:
64,352,55047,1,0,0:0:0:0:
64,352,55112,1,0,0:0:0:0:
448,64,55178,1,8,0:0:0:0:
448,64,55308,1,8,0:0:0:0:
64,352,55439,1,0,0:0:0:0:
64,352,55569,1,0,0:0:0:0:
448,64,55699,1,8,0:0:0:0:
448,64,55830,1,8,0:0:0:0:
448,64,55895,1,8,0:0:0:0:
64,352,55960,1,0,0:0:0:0:
64,352,56025,1,0,0:0:0:0:
448,64,56091,1,8,0:0:0:0:
64,352,56221,1,0,0:0:0:0:
448,64,56352,1,8,0:0:0:0:
64,352,56612,1,0,0:0:0:0:
64,352,56743,1,0,0:0:0:0:
448,64,56873,1,8,0:0:0:0:
448,64,57004,1,8,0:0:0:0:
64,352,57134,1,0,0:0:0:0:
64,352,57199,1,0,0:0:0:0:
448,64,57265,1,8,0:0:0:0:
64,352,57395,1,0,0:0:0:0:
64,352,57525,1,0,0:0:0:0:
64,352,57656,1,0,0:0:0:0:
448,64,57786,1,8,0:0:0:0:
448,64,57917,1,8,0:0:0:0:
448,64,57982,1,8,0:0:0:0:
64,352,58047,1,0,0:0:0:0:
64,352,58112,1,0,0:0:0:0:
448,64,58178,1,8,0:0:0:0:
64,352,58308,1,0,0:0:0:0:
448,64,58438,1,8,0:0:0:0:
64,352,58699,1,0,0:0:0:0:
448,64,58830,1,8,0:0:0:0:
448,64,58960,1,8,0:0:0:0:
64,352,59091,1,0,0:0:0:0:
448,64,59221,1,8,0:0:0:0:
448,64,59286,1,8,0:0:0:0:
64,352,59352,1,0,0:0:0:0:
448,64,59482,1,8,0:0:0:0:
64,352,59612,1,0,0:0:0:0:
64,352,59743,1,0,0:0:0:0:
448,64,59873,1,8,0:0:0:0:
448,64,60004,1,8,0:0:0:0:
448,64,60069,1,8,0:0:0:0:
64,352,60134,1,0,0:0:0:0:
64,352,60199,1,0,0:0:0:0:
448,64,60265,1,8,0:0:0:0:
64,352,60395,1,0,0:0:0:0:
448,64,60525,1,8,0:0:0:0:
64,352,60786,1,0,0:0:0:0:
64,352,60917,1,0,0:0:0:0:
448,64,61047,1,8,0:0:0:0:
64,352,61178,1,0,0:0:0:0:
448,64,61308,1,8,0:0:0:0:
448,64,61373,1,8,0:0:0:0:
64,352,61438,1,0,0:0:0:0:
448,64,61569,1,8,0:0:0:0:
448,64,61699,1,8,0:0:0:0:
64,352,61830,1,0,0:0:0:0:
448,64,61960,1,8,0:0:0:0:
448,64,62091,1,8,0:0:0:0:
448,64,62156,1,8,0:0:0:0:
64,352,62221,1,0,0:0:0:0:
64,352,62286,1,0,0:0:0:0:
448,64,62352,1,8,0:0:0:0:
64,352,62482,1,0,0:0:0:0:
448,64,62612,1,8,0:0:0:0:
64,352,62873,1,0,0:0:0:0:
448,64,63004,1,8,0:0:0:0:
448,64,63134,1,8,0:0:0:0:
448,64,63265,1,8,0:0:0:0:
64,352,63395,1,0,0:0:0:0:
64,352,63460,1,0,0:0:0:0:
448,64,63525,1,8,0:0:0:0:
448,64,63656,1,8,0:0:0:0:
64,352,63786,1,0,0:0:0:0:
64,352,63917,1,0,0:0:0:0:
448,64,64047,1,8,0:0:0:0:
448,64,64178,1,8,0:0:0:0:
64,352,64243,1,0,0:0:0:0:
64,352,64308,1,0,0:0:0:0:
64,352,64373,1,0,0:0:0:0:
448,64,64438,1,8,0:0:0:0:
64,64,64569,1,0,0:0:0:0:
448,64,64699,1,8,0:0:0:0:
64,352,64960,1,0,0:0:0:0:
64,352,65091,1,0,0:0:0:0:
448,64,65221,1,8,0:0:0:0:
448,64,65352,1,8,0:0:0:0:
64,352,65482,1,0,0:0:0:0:
64,352,65547,1,0,0:0:0:0:
448,64,65612,1,8,0:0:0:0:
64,352,65743,1,0,0:0:0:0:
64,352,65873,1,0,0:0:0:0:
64,352,66004,1,0,0:0:0:0:
448,64,66134,1,8,0:0:0:0:
448,64,66265,1,8,0:0:0:0:
448,64,66330,1,8,0:0:0:0:
64,352,66395,1,0,0:0:0:0:
64,352,66460,1,0,0:0:0:0:
448,64,66525,1,8,0:0:0:0:
64,352,66656,1,0,0:0:0:0:
448,64,66786,1,8,0:0:0:0:
64,352,67047,1,0,0:0:0:0:
448,64,67178,1,8,0:0:0:0:
448,64,67308,1,8,0:0:0:0:
64,352,67438,1,0,0:0:0:0:
448,64,67569,1,8,0:0:0:0:
448,64,67634,1,8,0:0:0:0:
64,352,67699,1,0,0:0:0:0:
448,64,67830,1,8,0:0:0:0:
448,64,67960,1,8,0:0:0:0:
64,320,68091,1,4,0:0:0:0:
64,352,71221,1,0,0:0:0:0:
64,352,71352,1,0,0:0:0:0:
448,64,71482,1,8,0:0:0:0:
64,352,71612,1,0,0:0:0:0:
448,64,71743,1,8,0:0:0:0:
64,352,71873,1,0,0:0:0:0:
448,64,72004,1,8,0:0:0:0:
448,64,72134,1,8,0:0:0:0:
64,352,72265,1,0,0:0:0:0:
64,352,72395,1,0,0:0:0:0:
448,64,72525,1,8,0:0:0:0:
64,352,72656,1,0,0:0:0:0:
448,64,72786,1,8,0:0:0:0:
64,352,72852,1,0,0:0:0:0:
64,352,72917,1,0,0:0:0:0:
64,352,72982,1,0,0:0:0:0:
448,64,73047,1,8,0:0:0:0:
64,352,73308,1,0,0:0:0:0:
64,352,73438,1,0,0:0:0:0:
448,64,73569,1,8,0:0:0:0:
64,352,73699,1,0,0:0:0:0:
448,64,73830,1,8,0:0:0:0:
448,64,73960,1,8,0:0:0:0:
64,352,74091,1,0,0:0:0:0:
64,352,74156,1,0,0:0:0:0:
448,64,74221,1,8,0:0:0:0:
64,352,74352,1,0,0:0:0:0:
64,352,74482,1,0,0:0:0:0:
448,64,74612,1,8,0:0:0:0:
448,64,74743,1,8,0:0:0:0:
64,352,74873,1,0,0:0:0:0:
64,352,74938,1,0,0:0:0:0:
64,352,75004,1,0,0:0:0:0:
64,352,75069,1,0,0:0:0:0:
448,64,75134,1,8,0:0:0:0:
448,64,75395,1,8,0:0:0:0:
64,352,75525,1,0,0:0:0:0:
448,64,75656,1,8,0:0:0:0:
448,64,75786,1,8,0:0:0:0:
64,352,75917,1,0,0:0:0:0:
64,352,76047,1,0,0:0:0:0:
448,64,76178,1,8,0:0:0:0:
448,64,76308,1,8,0:0:0:0:
64,352,76438,1,0,0:0:0:0:
448,64,76569,1,8,0:0:0:0:
448,64,76699,1,8,0:0:0:0:
64,352,76830,1,0,0:0:0:0:
448,64,76960,1,8,0:0:0:0:
64,352,77025,1,0,0:0:0:0:
64,352,77091,1,0,0:0:0:0:
64,352,77156,1,0,0:0:0:0:
448,64,77221,1,8,0:0:0:0:
64,352,77482,1,0,0:0:0:0:
64,352,77612,1,0,0:0:0:0:
448,64,77743,1,8,0:0:0:0:
64,352,77873,1,0,0:0:0:0:
448,64,78004,1,8,0:0:0:0:
448,64,78134,1,8,0:0:0:0:
448,64,78199,1,8,0:0:0:0:
64,352,78265,1,0,0:0:0:0:
448,64,78395,1,8,0:0:0:0:
64,352,78525,1,0,0:0:0:0:
64,352,78656,1,0,0:0:0:0:
448,64,78786,1,8,0:0:0:0:
448,64,78917,1,8,0:0:0:0:
64,352,79047,1,0,0:0:0:0:
64,352,79112,1,0,0:0:0:0:
64,352,79178,1,0,0:0:0:0:
64,352,79243,1,0,0:0:0:0:
448,64,79308,1,8,0:0:0:0:
64,352,79569,1,0,0:0:0:0:
64,352,79699,1,0,0:0:0:0:
448,64,79830,1,8,0:0:0:0:
64,352,79960,1,0,0:0:0:0:
448,64,80091,1,8,0:0:0:0:
448,64,80221,1,8,0:0:0:0:
64,352,80352,1,0,0:0:0:0:
448,64,80482,1,8,0:0:0:0:
64,352,80612,1,0,0:0:0:0:
64,352,80743,1,0,0:0:0:0:
448,64,80873,1,8,0:0:0:0:
448,64,81004,1,8,0:0:0:0:
64,352,81134,1,0,0:0:0:0:
64,352,81199,1,0,0:0:0:0:
64,352,81265,1,0,0:0:0:0:
64,352,81330,1,0,0:0:0:0:
448,64,81395,1,8,0:0:0:0:
64,352,81656,1,0,0:0:0:0:
64,352,81786,1,0,0:0:0:0:
448,64,81917,1,8,0:0:0:0:
64,352,82047,1,0,0:0:0:0:
448,64,82178,1,8,0:0:0:0:
448,64,82308,1,8,0:0:0:0:
448,64,82373,1,8,0:0:0:0:
64,352,82438,1,0,0:0:0:0:
448,64,82569,1,8,0:0:0:0:
64,352,82699,1,0,0:0:0:0:
64,352,82830,1,0,0:0:0:0:
448,64,82960,1,8,0:0:0:0:
64,352,83091,1,0,0:0:0:0:
448,64,83221,1,8,0:0:0:0:
448,64,83286,1,8,0:0:0:0:
64,352,83352,1,0,0:0:0:0:
64,352,83417,1,0,0:0:0:0:
448,64,83482,1,8,0:0:0:0:
64,352,83743,1,0,0:0:0:0:
64,352,83873,1,0,0:0:0:0:
448,64,84004,1,8,0:0:0:0:
448,64,84134,1,8,0:0:0:0:
64,352,84265,1,0,0:0:0:0:
448,64,84395,1,8,0:0:0:0:
448,64,84525,1,8,0:0:0:0:
448,64,84656,1,8,0:0:0:0:
64,352,84786,1,0,0:0:0:0:
448,64,84917,1,8,0:0:0:0:
448,64,85047,1,8,0:0:0:0:
64,352,85178,1,0,0:0:0:0:
448,64,85308,1,8,0:0:0:0:
448,64,85373,1,8,0:0:0:0:
64,352,85438,1,0,0:0:0:0:
64,352,85504,1,0,0:0:0:0:
448,64,85569,1,8,0:0:0:0:
64,352,85830,1,0,0:0:0:0:
64,352,85960,1,0,0:0:0:0:
448,64,86091,1,8,0:0:0:0:
64,352,86221,1,0,0:0:0:0:
448,64,86352,1,8,0:0:0:0:
448,64,86482,1,8,0:0:0:0:
448,64,86547,1,8,0:0:0:0:
64,352,86612,1,0,0:0:0:0:
448,64,86743,1,8,0:0:0:0:
64,352,86873,1,0,0:0:0:0:
64,352,87004,1,0,0:0:0:0:
448,64,87134,1,8,0:0:0:0:
64,352,87199,1,0,0:0:0:0:
448,64,87265,1,8,0:0:0:0:
448,64,87330,1,8,0:0:0:0:
64,352,87395,1,0,0:0:0:0:
64,352,87525,1,0,0:0:0:0:
448,64,87656,1,8,0:0:0:0:
64,352,87918,1,0,0:0:0:0:
448,64,88047,1,8,0:0:0:0:
448,64,88178,1,8,0:0:0:0:
64,352,88308,1,0,0:0:0:0:
448,64,88438,1,8,0:0:0:0:
64,352,88569,1,0,0:0:0:0:
448,64,88699,1,8,0:0:0:0:
448,64,88765,1,8,0:0:0:0:
448,64,88830,1,8,0:0:0:0:
64,352,88960,1,0,0:0:0:0:
448,64,89091,1,8,0:0:0:0:
448,64,89221,1,8,0:0:0:0:
448,64,89286,1,8,0:0:0:0:
64,352,89352,1,0,0:0:0:0:
448,64,89482,1,8,0:0:0:0:
64,352,89547,1,0,0:0:0:0:
64,352,89612,1,0,0:0:0:0:
64,352,89678,1,0,0:0:0:0:
448,64,89743,1,8,0:0:0:0:
64,352,90004,1,0,0:0:0:0:
448,64,90134,1,8,0:0:0:0:
448,64,90265,1,8,0:0:0:0:
64,352,90395,1,0,0:0:0:0:
448,64,90525,1,8,0:0:0:0:
64,352,90656,1,0,0:0:0:0:
448,64,90786,1,8,0:0:0:0:
448,64,90852,1,8,0:0:0:0:
448,64,90917,1,8,0:0:0:0:
64,352,91047,1,0,0:0:0:0:
448,64,91178,1,8,0:0:0:0:
448,64,91308,1,8,0:0:0:0:
448,64,91373,1,8,0:0:0:0:
64,352,91438,1,0,0:0:0:0:
448,64,91569,1,8,0:0:0:0:
64,352,91634,1,0,0:0:0:0:
64,352,91699,1,0,0:0:0:0:
64,352,91765,1,0,0:0:0:0:
448,64,91830,1,8,0:0:0:0:
64,352,92091,1,0,0:0:0:0:
448,64,92221,1,8,0:0:0:0:
448,64,92352,1,8,0:0:0:0:
64,352,92482,1,0,0:0:0:0:
448,64,92612,1,8,0:0:0:0:
64,352,92743,1,0,0:0:0:0:
448,64,92873,1,8,0:0:0:0:
448,64,92938,1,8,0:0:0:0:
448,64,93004,1,8,0:0:0:0:
64,352,93134,1,0,0:0:0:0:
448,64,93265,1,8,0:0:0:0:
448,64,93395,1,8,0:0:0:0:
448,64,93460,1,8,0:0:0:0:
64,352,93525,1,0,0:0:0:0:
448,64,93656,1,8,0:0:0:0:
64,352,93721,1,0,0:0:0:0:
64,352,93786,1,0,0:0:0:0:
64,352,93852,1,0,0:0:0:0:
448,64,93917,1,8,0:0:0:0:
64,352,94178,1,0,0:0:0:0:
448,64,94308,1,8,0:0:0:0:
448,64,94438,1,8,0:0:0:0:
64,352,94569,1,0,0:0:0:0:
448,64,94699,1,8,0:0:0:0:
64,352,94830,1,0,0:0:0:0:
448,64,94960,1,8,0:0:0:0:
448,64,95025,1,8,0:0:0:0:
448,64,95091,1,8,0:0:0:0:
64,352,95221,1,0,0:0:0:0:
448,64,95352,1,8,0:0:0:0:
448,64,95482,1,8,0:0:0:0:
448,64,95547,1,8,0:0:0:0:
64,352,95612,1,0,0:0:0:0:
448,64,95743,1,8,0:0:0:0:
448,64,95808,1,8,0:0:0:0:
64,352,95873,1,0,0:0:0:0:
64,352,95938,1,0,0:0:0:0:
448,64,96004,1,8,0:0:0:0:
64,320,96265,1,0,0:0:0:0:
64,352,96395,1,0,0:0:0:0:
448,64,96525,1,8,0:0:0:0:
64,352,96656,1,0,0:0:0:0:
448,64,96786,1,8,0:0:0:0:
448,64,96852,1,8,0:0:0:0:
64,352,96917,1,0,0:0:0:0:
448,64,97047,1,8,0:0:0:0:
448,64,97178,1,8,0:0:0:0:
64,352,97308,1,0,0:0:0:0:
448,64,97438,1,8,0:0:0:0:
448,64,97569,1,8,0:0:0:0:
448,64,97634,1,8,0:0:0:0:
64,352,97699,1,0,0:0:0:0:
64,352,97765,1,0,0:0:0:0:
448,64,97830,1,8,0:0:0:0:
64,352,97960,1,0,0:0:0:0:
448,64,98091,1,8,0:0:0:0:
64,352,98352,1,0,0:0:0:0:
448,64,98482,1,8,0:0:0:0:
448,64,98612,1,8,0:0:0:0:
64,352,98743,1,0,0:0:0:0:
64,352,98873,1,0,0:0:0:0:
64,352,98938,1,0,0:0:0:0:
448,64,99004,1,8,0:0:0:0:
448,64,99134,1,8,0:0:0:0:
64,352,99265,1,0,0:0:0:0:
64,352,99395,1,0,0:0:0:0:
448,64,99525,1,8,0:0:0:0:
448,64,99656,1,8,0:0:0:0:
448,64,99721,1,8,0:0:0:0:
64,352,99786,1,0,0:0:0:0:
64,352,99852,1,0,0:0:0:0:
448,64,99917,1,8,0:0:0:0:
64,352,100047,1,0,0:0:0:0:
448,64,100178,1,8,0:0:0:0:
64,352,100438,1,0,0:0:0:0:
64,352,100569,1,0,0:0:0:0:
448,64,100699,1,8,0:0:0:0:
448,64,100830,1,8,0:0:0:0:
64,352,100960,1,0,0:0:0:0:
64,352,101025,1,0,0:0:0:0:
448,64,101091,1,8,0:0:0:0:
64,352,101221,1,0,0:0:0:0:
64,352,101352,1,0,0:0:0:0:
64,352,101482,1,0,0:0:0:0:
448,64,101612,1,8,0:0:0:0:
448,64,101743,1,8,0:0:0:0:
448,64,101808,1,8,0:0:0:0:
64,352,101873,1,0,0:0:0:0:
64,352,101938,1,0,0:0:0:0:
448,64,102004,1,8,0:0:0:0:
64,352,102134,1,0,0:0:0:0:
448,64,102265,1,8,0:0:0:0:
64,352,102525,1,0,0:0:0:0:
448,64,102656,1,8,0:0:0:0:
448,64,102786,1,8,0:0:0:0:
64,352,102917,1,0,0:0:0:0:
448,64,103047,1,8,0:0:0:0:
448,64,103112,1,8,0:0:0:0:
64,352,103178,1,0,0:0:0:0:
448,64,103308,1,8,0:0:0:0:
448,64,103438,1,8,0:0:0:0:
64,352,103569,1,0,0:0:0:0:
448,64,103699,1,8,0:0:0:0:
448,64,103830,1,8,0:0:0:0:
448,64,103895,1,8,0:0:0:0:
64,352,103960,1,0,0:0:0:0:
64,352,104025,1,0,0:0:0:0:
448,64,104091,1,8,0:0:0:0:
448,64,104221,1,8,0:0:0:0:
64,352,104352,1,0,0:0:0:0:
64,352,104612,1,0,0:0:0:0:
448,64,104743,1,8,0:0:0:0:
448,64,104873,1,8,0:0:0:0:
64,352,105004,1,0,0:0:0:0:
448,64,105134,1,8,0:0:0:0:
448,64,105199,1,8,0:0:0:0:
64,352,105265,1,0,0:0:0:0:
448,64,105395,1,8,0:0:0:0:
448,64,105525,1,8,0:0:0:0:
64,352,105656,1,0,0:0:0:0:
448,64,105786,1,8,0:0:0:0:
448,64,105917,1,8,0:0:0:0:
448,64,105982,1,8,0:0:0:0:
64,352,106047,1,0,0:0:0:0:
64,352,106112,1,0,0:0:0:0:
448,64,106178,1,8,0:0:0:0:
448,64,106308,1,8,0:0:0:0:
64,352,106438,1,0,0:0:0:0:
64,352,106699,1,0,0:0:0:0:
448,64,106830,1,8,0:0:0:0:
448,64,106960,1,8,0:0:0:0:
64,352,107091,1,0,0:0:0:0:
448,64,107221,1,8,0:0:0:0:
448,64,107286,1,8,0:0:0:0:
64,352,107352,1,0,0:0:0:0:
448,64,107482,1,8,0:0:0:0:
448,64,107612,1,8,0:0:0:0:
64,352,107743,1,0,0:0:0:0:
448,64,107873,1,8,0:0:0:0:
448,64,108004,1,8,0:0:0:0:
448,64,108069,1,8,0:0:0:0:
64,352,108134,1,0,0:0:0:0:
64,352,108199,1,0,0:0:0:0:
448,64,108265,1,8,0:0:0:0:
448,64,108395,1,8,0:0:0:0:
64,352,108525,1,0,0:0:0:0:
64,352,108786,1,0,0:0:0:0:
448,64,108917,1,8,0:0:0:0:
448,64,109047,1,8,0:0:0:0:
64,352,109178,1,0,0:0:0:0:
448,64,109308,1,8,0:0:0:0:
64,352,109373,1,0,0:0:0:0:
448,64,109438,1,8,0:0:0:0:
64,352,109569,1,0,0:0:0:0:
448,64,109699,1,8,0:0:0:0:
64,352,109830,1,0,0:0:0:0:
448,64,109960,1,8,0:0:0:0:
448,64,110091,1,8,0:0:0:0:
448,64,110156,1,8,0:0:0:0:
64,352,110221,1,0,0:0:0:0:
64,352,110286,1,0,0:0:0:0:
448,64,110352,1,8,0:0:0:0:
448,64,110482,1,8,0:0:0:0:
64,352,110612,1,0,0:0:0:0:
64,352,110873,1,0,0:0:0:0:
448,64,111004,1,8,0:0:0:0:
448,64,111134,1,8,0:0:0:0:
64,352,111265,1,0,0:0:0:0:
448,64,111395,1,8,0:0:0:0:
448,64,111460,1,8,0:0:0:0:
64,352,111525,1,0,0:0:0:0:
448,64,111656,1,8,0:0:0:0:
448,64,111786,1,8,0:0:0:0:
64,352,111917,1,0,0:0:0:0:
448,64,112047,1,8,0:0:0:0:
448,64,112178,1,8,0:0:0:0:
448,64,112243,1,8,0:0:0:0:
64,352,112308,1,0,0:0:0:0:
64,352,112373,1,0,0:0:0:0:
448,64,112438,1,8,0:0:0:0:
448,64,112569,1,8,0:0:0:0:
64,352,112699,1,0,0:0:0:0:
64,352,112960,1,0,0:0:0:0:
64,352,113089,1,0,0:0:0:0:
448,64,113219,1,8,0:0:0:0:
64,352,113349,1,0,0:0:0:0:
448,64,113480,1,8,0:0:0:0:
64,352,113610,1,0,0:0:0:0:
448,64,113740,1,8,0:0:0:0:
448,64,113870,1,8,0:0:0:0:
64,352,114001,1,0,0:0:0:0:
64,352,114131,1,0,0:0:0:0:
448,64,114261,1,8,0:0:0:0:
64,352,114391,1,0,0:0:0:0:
64,352,114522,1,0,0:0:0:0:
64,352,114652,1,0,0:0:0:0:
448,64,114782,1,8,0:0:0:0:
64,352,115043,1,0,0:0:0:0:
64,352,115173,1,0,0:0:0:0:
448,64,115303,1,8,0:0:0:0:
64,352,115434,1,0,0:0:0:0:
448,64,115564,1,8,0:0:0:0:
64,352,115694,1,0,0:0:0:0:
448,64,115824,1,8,0:0:0:0:
448,64,115955,1,8,0:0:0:0:
64,352,116085,1,0,0:0:0:0:
64,352,116215,1,0,0:0:0:0:
448,64,116345,1,8,0:0:0:0:
448,64,116476,1,8,0:0:0:0:
64,352,116606,1,0,0:0:0:0:
64,352,116736,1,0,0:0:0:0:
448,64,116866,1,8,0:0:0:0:
448,64,117127,1,8,0:0:0:0:
64,352,117257,1,0,0:0:0:0:
448,64,117388,1,8,0:0:0:0:
448,64,117518,1,8,0:0:0:0:
64,352,117648,1,0,0:0:0:0:
64,352,117778,1,0,0:0:0:0:
448,64,117909,1,8,0:0:0:0:
64,352,118039,1,0,0:0:0:0:
448,64,118169,1,8,0:0:0:0:
448,64,118299,1,8,0:0:0:0:
64,352,118430,1,0,0:0:0:0:
64,352,118560,1,0,0:0:0:0:
448,64,118690,1,8,0:0:0:0:
64,352,118820,1,0,0:0:0:0:
448,64,118951,1,8,0:0:0:0:
448,64,119211,1,8,0:0:0:0:
64,352,119341,1,0,0:0:0:0:
448,64,119472,1,8,0:0:0:0:
448,64,119602,1,8,0:0:0:0:
64,352,119732,1,0,0:0:0:0:
64,352,119863,1,0,0:0:0:0:
448,64,119993,1,8,0:0:0:0:
64,352,120123,1,0,0:0:0:0:
448,64,120253,1,8,0:0:0:0:
64,352,120384,1,0,0:0:0:0:
448,64,120514,1,8,0:0:0:0:
448,64,120644,1,8,0:0:0:0:
64,352,120774,1,0,0:0:0:0:
64,352,120905,1,0,0:0:0:0:
448,64,121035,1,8,0:0:0:0:
64,352,121295,1,0,0:0:0:0:
64,352,121426,1,0,0:0:0:0:
448,64,121556,1,8,0:0:0:0:
64,352,121686,1,0,0:0:0:0:
448,64,121817,1,8,0:0:0:0:
64,352,121947,1,0,0:0:0:0:
448,64,122077,1,8,0:0:0:0:
448,64,122207,1,8,0:0:0:0:
64,352,122338,1,0,0:0:0:0:
64,352,122468,1,0,0:0:0:0:
448,64,122598,1,8,0:0:0:0:
64,352,122728,1,0,0:0:0:0:
64,352,122859,1,0,0:0:0:0:
64,352,122989,1,0,0:0:0:0:
448,64,123119,1,8,0:0:0:0:
64,352,123380,1,0,0:0:0:0:
64,352,123510,1,0,0:0:0:0:
448,64,123640,1,8,0:0:0:0:
64,352,123770,1,0,0:0:0:0:
448,64,123901,1,8,0:0:0:0:
448,64,124031,1,8,0:0:0:0:
64,352,124161,1,0,0:0:0:0:
448,64,124292,1,8,0:0:0:0:
64,352,124422,1,0,0:0:0:0:
64,352,124552,1,0,0:0:0:0:
448,64,124682,1,8,0:0:0:0:
448,64,124813,1,8,0:0:0:0:
64,352,124943,1,0,0:0:0:0:
64,352,125073,1,0,0:0:0:0:
448,64,125203,1,8,0:0:0:0:
64,352,125464,1,0,0:0:0:0:
64,352,125594,1,0,0:0:0:0:
448,64,125724,1,8,0:0:0:0:
64,352,125855,1,0,0:0:0:0:
448,64,125985,1,8,0:0:0:0:
64,352,126115,1,0,0:0:0:0:
448,64,126246,1,8,0:0:0:0:
448,64,126376,1,8,0:0:0:0:
64,352,126506,1,0,0:0:0:0:
448,64,126636,1,8,0:0:0:0:
64,352,126767,1,0,0:0:0:0:
64,352,126897,1,0,0:0:0:0:
448,64,127027,1,8,0:0:0:0:
64,352,127157,1,0,0:0:0:0:
448,64,127288,1,8,0:0:0:0:
64,352,127548,1,0,0:0:0:0:
64,352,127678,1,0,0:0:0:0:
448,64,127809,1,8,0:0:0:0:
448,64,127939,1,8,0:0:0:0:
64,352,128069,1,0,0:0:0:0:
64,352,128199,1,0,0:0:0:0:
448,64,128330,1,8,0:0:0:0:
64,352,128460,1,0,0:0:0:0:
448,64,128590,1,8,0:0:0:0:
448,64,128655,1,8,0:0:0:0:
64,352,128721,1,0,0:0:0:0:
64,352,128786,1,0,0:0:0:0:
448,64,128851,1,8,0:0:0:0:
64,352,128981,1,0,0:0:0:0:
448,64,129111,1,8,0:0:0:0:
64,352,129242,1,0,0:0:0:0:
448,320,129372,1,12,0:0:0:0:
64,320,129652,1,4,0:0:0:0:
64,352,129782,1,0,0:0:0:0:
448,64,129912,1,8,0:0:0:0:
64,352,130042,1,0,0:0:0:0:
448,64,130173,1,8,0:0:0:0:
64,352,130303,1,0,0:0:0:0:
448,64,130433,1,8,0:0:0:0:
448,64,130563,1,8,0:0:0:0:
64,352,130694,1,0,0:0:0:0:
64,352,130824,1,0,0:0:0:0:
448,64,130954,1,8,0:0:0:0:
64,352,131084,1,0,0:0:0:0:
448,64,131215,1,8,0:0:0:0:
64,352,131280,1,0,0:0:0:0:
64,352,131345,1,0,0:0:0:0:
64,352,131410,1,0,0:0:0:0:
448,64,131475,1,8,0:0:0:0:
64,352,131736,1,0,0:0:0:0:
64,352,131866,1,0,0:0:0:0:
64,64,131931,1,0,0:0:0:0:
448,64,131996,1,8,0:0:0:0:
64,352,132127,1,0,0:0:0:0:
448,64,132257,1,8,0:0:0:0:
448,64,132387,1,8,0:0:0:0:
64,352,132517,1,0,0:0:0:0:
448,64,132648,1,8,0:0:0:0:
64,352,132778,1,0,0:0:0:0:
448,64,132908,1,8,0:0:0:0:
64,352,133038,1,0,0:0:0:0:
448,64,133169,1,8,0:0:0:0:
64,352,133299,1,0,0:0:0:0:
64,352,133364,1,0,0:0:0:0:
64,352,133429,1,0,0:0:0:0:
64,352,133494,1,0,0:0:0:0:
448,64,133559,1,8,0:0:0:0:
64,352,133820,1,0,0:0:0:0:
448,64,133950,1,8,0:0:0:0:
64,352,134081,1,0,0:0:0:0:
448,64,134211,1,8,0:0:0:0:
64,352,134341,1,0,0:0:0:0:
64,352,134471,1,0,0:0:0:0:
448,64,134602,1,8,0:0:0:0:
448,64,134732,1,8,0:0:0:0:
64,352,134862,1,0,0:0:0:0:
448,64,134992,1,8,0:0:0:0:
448,64,135123,1,8,0:0:0:0:
64,352,135253,1,0,0:0:0:0:
448,64,135383,1,8,0:0:0:0:
64,352,135448,1,0,0:0:0:0:
64,352,135513,1,0,0:0:0:0:
64,352,135579,1,0,0:0:0:0:
448,64,135644,1,8,0:0:0:0:
64,352,135904,1,0,0:0:0:0:
64,352,136034,1,0,0:0:0:0:
448,64,136165,1,8,0:0:0:0:
64,352,136295,1,0,0:0:0:0:
448,64,136425,1,8,0:0:0:0:
448,64,136556,1,8,0:0:0:0:
448,64,136621,1,8,0:0:0:0:
64,352,136686,1,0,0:0:0:0:
448,64,136816,1,8,0:0:0:0:
64,352,136946,1,0,0:0:0:0:
64,352,137077,1,0,0:0:0:0:
448,64,137207,1,8,0:0:0:0:
448,64,137337,1,8,0:0:0:0:
448,64,137402,1,8,0:0:0:0:
64,352,137467,1,0,0:0:0:0:
64,352,137598,1,0,0:0:0:0:
448,64,137728,1,8,0:0:0:0:
64,352,137988,1,0,0:0:0:0:
64,352,138119,1,0,0:0:0:0:
448,64,138249,1,8,0:0:0:0:
64,352,138379,1,0,0:0:0:0:
448,64,138510,1,8,0:0:0:0:
448,64,138640,1,8,0:0:0:0:
64,352,138770,1,0,0:0:0:0:
448,64,138900,1,8,0:0:0:0:
64,352,139031,1,0,0:0:0:0:
64,64,139161,1,0,0:0:0:0:
448,64,139291,1,8,0:0:0:0:
448,64,139421,1,8,0:0:0:0:
64,352,139552,1,0,0:0:0:0:
64,352,139617,1,0,0:0:0:0:
64,352,139682,1,0,0:0:0:0:
64,352,139747,1,0,0:0:0:0:
448,64,139812,1,8,0:0:0:0:
64,352,140073,1,0,0:0:0:0:
64,352,140203,1,0,0:0:0:0:
448,64,140333,1,8,0:0:0:0:
64,352,140463,1,0,0:0:0:0:
448,64,140594,1,8,0:0:0:0:
448,64,140724,1,8,0:0:0:0:
448,64,140789,1,8,0:0:0:0:
64,352,140854,1,0,0:0:0:0:
448,64,140985,1,8,0:0:0:0:
64,352,141115,1,0,0:0:0:0:
64,352,141245,1,0,0:0:0:0:
448,64,141375,1,8,0:0:0:0:
64,352,141506,1,0,0:0:0:0:
64,352,141571,1,0,0:0:0:0:
448,64,141636,1,8,0:0:0:0:
64,352,141766,1,0,0:0:0:0:
448,64,141896,1,8,0:0:0:0:
64,352,142157,1,0,0:0:0:0:
64,352,142287,1,0,0:0:0:0:
448,64,142417,1,8,0:0:0:0:
448,64,142548,1,8,0:0:0:0:
64,352,142678,1,0,0:0:0:0:
448,64,142808,1,8,0:0:0:0:
448,64,142939,1,8,0:0:0:0:
448,64,143069,1,8,0:0:0:0:
64,352,143199,1,0,0:0:0:0:
448,64,143329,1,8,0:0:0:0:
448,64,143460,1,8,0:0:0:0:
64,352,143590,1,0,0:0:0:0:
448,64,143720,1,8,0:0:0:0:
448,64,143785,1,8,0:0:0:0:
64,352,143850,1,0,0:0:0:0:
64,352,143916,1,0,0:0:0:0:
448,64,143981,1,8,0:0:0:0:
64,352,144241,1,0,0:0:0:0:
64,352,144371,1,0,0:0:0:0:
448,64,144502,1,8,0:0:0:0:
64,352,144632,1,0,0:0:0:0:
448,64,144762,1,8,0:0:0:0:
448,64,144892,1,8,0:0:0:0:
448,64,144958,1,8,0:0:0:0:
64,352,145023,1,0,0:0:0:0:
448,64,145153,1,8,0:0:0:0:
64,352,145283,1,0,0:0:0:0:
64,352,145414,1,0,0:0:0:0:
448,64,145544,1,8,0:0:0:0:
64,352,145609,1,0,0:0:0:0:
448,64,145674,1,8,0:0:0:0:
448,64,145739,1,8,0:0:0:0:
64,352,145804,1,0,0:0:0:0:
64,352,145935,1,0,0:0:0:0:
448,64,146065,1,8,0:0:0:0:
448,64,146325,1,8,0:0:0:0:
64,352,146846,1,0,0:0:0:0:
64,320,147368,1,4,0:0:0:0:
64,352,148437,1,0,0:0:0:0:
64,352,148567,1,0,0:0:0:0:
448,64,148697,1,8,0:0:0:0:
64,352,148828,1,0,0:0:0:0:
448,64,148958,1,8,0:0:0:0:
64,352,149089,1,0,0:0:0:0:
448,64,149219,1,8,0:0:0:0:
448,64,149284,1,8,0:0:0:0:
448,64,149350,1,8,0:0:0:0:
64,352,149480,1,0,0:0:0:0:
448,64,149610,1,8,0:0:0:0:
448,64,149741,1,8,0:0:0:0:
448,64,149806,1,8,0:0:0:0:
64,352,149871,1,0,0:0:0:0:
448,64,150002,1,8,0:0:0:0:
64,352,150067,1,0,0:0:0:0:
64,352,150132,1,0,0:0:0:0:
64,352,150197,1,0,0:0:0:0:
448,64,150263,1,8,0:0:0:0:
64,352,150523,1,0,0:0:0:0:
64,352,150654,1,0,0:0:0:0:
448,64,150784,1,8,0:0:0:0:
64,352,150915,1,0,0:0:0:0:
448,64,151045,1,8,0:0:0:0:
64,352,151176,1,0,0:0:0:0:
448,64,151306,1,8,0:0:0:0:
448,64,151371,1,8,0:0:0:0:
448,64,151437,1,8,0:0:0:0:
64,352,151567,1,0,0:0:0:0:
448,64,151697,1,8,0:0:0:0:
448,64,151828,1,8,0:0:0:0:
64,352,151893,1,0,0:0:0:0:
64,352,151958,1,0,0:0:0:0:
448,64,152089,1,8,0:0:0:0:
448,64,152154,1,8,0:0:0:0:
64,352,152219,1,0,0:0:0:0:
64,352,152284,1,0,0:0:0:0:
448,64,152350,1,8,0:0:0:0:
64,352,152610,1,0,0:0:0:0:
64,352,152741,1,0,0:0:0:0:
448,64,152871,1,8,0:0:0:0:
64,352,153002,1,0,0:0:0:0:
448,64,153132,1,8,0:0:0:0:
64,352,153263,1,0,0:0:0:0:
448,64,153393,1,8,0:0:0:0:
448,64,153458,1,8,0:0:0:0:
448,64,153523,1,8,0:0:0:0:
64,352,153654,1,0,0:0:0:0:
448,64,153784,1,8,0:0:0:0:
448,64,153915,1,8,0:0:0:0:
448,64,153980,1,8,0:0:0:0:
64,352,154045,1,0,0:0:0:0:
448,64,154176,1,8,0:0:0:0:
64,352,154241,1,0,0:0:0:0:
64,352,154306,1,0,0:0:0:0:
64,352,154371,1,0,0:0:0:0:
448,64,154437,1,8,0:0:0:0:
64,352,154697,1,0,0:0:0:0:
64,352,154828,1,0,0:0:0:0:
448,64,154958,1,8,0:0:0:0:
64,352,155089,1,0,0:0:0:0:
448,64,155219,1,8,0:0:0:0:
64,352,155350,1,0,0:0:0:0:
448,64,155480,1,8,0:0:0:0:
448,64,155545,1,8,0:0:0:0:
448,64,155610,1,8,0:0:0:0:
64,352,155741,1,0,0:0:0:0:
448,64,155871,1,8,0:0:0:0:
448,64,156002,1,8,0:0:0:0:
64,352,156067,1,0,0:0:0:0:
64,352,156132,1,0,0:0:0:0:
448,64,156263,1,8,0:0:0:0:
448,64,156328,1,8,0:0:0:0:
64,352,156393,1,0,0:0:0:0:
64,352,156458,1,0,0:0:0:0:
448,64,156523,1,8,0:0:0:0:
64,352,156784,1,0,0:0:0:0:
448,64,156915,1,8,0:0:0:0:
448,64,157045,1,8,0:0:0:0:
64,352,157176,1,0,0:0:0:0:
448,64,157306,1,8,0:0:0:0:
64,352,157437,1,0,0:0:0:0:
448,64,157567,1,8,0:0:0:0:
448,64,157632,1,8,0:0:0:0:
448,64,157697,1,8,0:0:0:0:
64,352,157828,1,0,0:0:0:0:
448,64,157958,1,8,0:0:0:0:
448,64,158089,1,8,0:0:0:0:
448,64,158154,1,8,0:0:0:0:
64,352,158219,1,0,0:0:0:0:
448,64,158350,1,8,0:0:0:0:
448,64,158415,1,8,0:0:0:0:
64,352,158480,1,0,0:0:0:0:
64,352,158545,1,0,0:0:0:0:
448,64,158610,1,8,0:0:0:0:
64,352,158871,1,0,0:0:0:0:
448,64,159002,1,8,0:0:0:0:
448,64,159132,1,8,0:0:0:0:
64,352,159263,1,0,0:0:0:0:
448,64,159393,1,8,0:0:0:0:
64,352,159523,1,0,0:0:0:0:
448,64,159654,1,8,0:0:0:0:
448,64,159719,1,8,0:0:0:0:
448,64,159784,1,8,0:0:0:0:
64,352,159915,1,0,0:0:0:0:
448,64,160045,1,8,0:0:0:0:
448,64,160176,1,8,0:0:0:0:
448,64,160241,1,8,0:0:0:0:
64,352,160306,1,0,0:0:0:0:
448,64,160437,1,8,0:0:0:0:
64,352,160502,1,0,0:0:0:0:
64,352,160567,1,0,0:0:0:0:
64,352,160632,1,0,0:0:0:0:
448,64,160697,1,8,0:0:0:0:
64,352,160958,1,0,0:0:0:0:
448,64,161089,1,8,0:0:0:0:
448,64,161219,1,8,0:0:0:0:
64,352,161350,1,0,0:0:0:0:
448,64,161480,1,8,0:0:0:0:
64,352,161610,1,0,0:0:0:0:
448,64,161741,1,8,0:0:0:0:
448,64,161806,1,8,0:0:0:0:
448,64,161871,1,8,0:0:0:0:
64,352,162002,1,0,0:0:0:0:
448,64,162132,1,8,0:0:0:0:
448,64,162263,1,8,0:0:0:0:
448,64,162328,1,8,0:0:0:0:
64,352,162393,1,0,0:0:0:0:
448,64,162523,1,8,0:0:0:0:
64,352,162589,1,0,0:0:0:0:
64,352,162654,1,0,0:0:0:0:
64,352,162719,1,0,0:0:0:0:
448,64,162784,1,8,0:0:0:0:
64,352,163045,1,0,0:0:0:0:
448,64,163176,1,8,0:0:0:0:
448,64,163306,1,8,0:0:0:0:
64,352,163436,1,0,0:0:0:0:
448,64,163567,1,8,0:0:0:0:
64,352,163697,1,0,0:0:0:0:
448,64,163828,1,8,0:0:0:0:
448,64,163893,1,8,0:0:0:0:
448,64,163958,1,8,0:0:0:0:
64,352,164089,1,0,0:0:0:0:
448,64,164219,1,8,0:0:0:0:
448,64,164350,1,8,0:0:0:0:
448,64,164415,1,8,0:0:0:0:
64,352,164480,1,0,0:0:0:0:
448,64,164610,1,8,0:0:0:0:
448,64,164676,1,8,0:0:0:0:
64,352,164741,1,0,0:0:0:0:
64,352,164806,1,0,0:0:0:0:
448,64,164871,1,8,0:0:0:0:
64,352,165132,1,0,0:0:0:0:
64,352,165263,1,0,0:0:0:0:
448,64,165393,1,8,0:0:0:0:
64,352,165523,1,0,0:0:0:0:
64,352,165654,1,0,0:0:0:0:
64,352,165784,1,0,0:0:0:0:
448,64,165915,1,8,0:0:0:0:
448,64,166045,1,8,0:0:0:0:
64,352,166176,1,0,0:0:0:0:
64,352,166306,1,0,0:0:0:0:
448,64,166436,1,8,0:0:0:0:
64,352,166567,1,0,0:0:0:0:
64,352,166697,1,0,0:0:0:0:
64,352,166828,1,0,0:0:0:0:
448,64,166958,1,8,0:0:0:0:
64,352,167219,1,0,0:0:0:0:
64,352,167350,1,0,0:0:0:0:
448,64,167480,1,8,0:0:0:0:
64,352,167610,1,0,0:0:0:0:
64,352,167741,1,0,0:0:0:0:
64,352,167871,1,0,0:0:0:0:
448,64,168002,1,8,0:0:0:0:
448,64,168132,1,8,0:0:0:0:
64,352,168263,1,0,0:0:0:0:
64,352,168393,1,0,0:0:0:0:
448,64,168523,1,8,0:0:0:0:
64,352,168654,1,0,0:0:0:0:
64,352,168784,1,0,0:0:0:0:
64,352,168915,1,0,0:0:0:0:
448,64,169045,1,8,0:0:0:0:
64,352,169306,1,0,0:0:0:0:
64,352,169436,1,0,0:0:0:0:
448,64,169567,1,8,0:0:0:0:
64,352,169697,1,0,0:0:0:0:
448,64,169828,1,8,0:0:0:0:
64,352,169958,1,0,0:0:0:0:
448,64,170089,1,8,0:0:0:0:
448,64,170219,1,8,0:0:0:0:
64,352,170350,1,0,0:0:0:0:
64,352,170480,1,0,0:0:0:0:
448,64,170610,1,8,0:0:0:0:
64,352,170741,1,0,0:0:0:0:
448,64,170871,1,8,0:0:0:0:
448,64,171002,1,8,0:0:0:0:
448,64,171132,1,8,0:0:0:0:
64,352,171393,1,0,0:0:0:0:
64,352,171523,1,0,0:0:0:0:
448,64,171654,1,8,0:0:0:0:
64,352,171784,1,0,0:0:0:0:
64,352,171915,1,0,0:0:0:0:
64,352,172045,1,0,0:0:0:0:
448,64,172176,1,8,0:0:0:0:
64,352,172306,1,0,0:0:0:0:
448,64,172436,1,8,0:0:0:0:
64,352,172567,1,0,0:0:0:0:
448,64,172697,1,8,0:0:0:0:
448,64,172828,1,8,0:0:0:0:
64,352,172958,1,0,0:0:0:0:
64,352,173089,1,0,0:0:0:0:
448,64,173219,1,8,0:0:0:0:
64,352,173480,1,0,0:0:0:0:
64,352,173610,1,0,0:0:0:0:
448,64,173741,1,8,0:0:0:0:
448,64,173871,1,8,0:0:0:0:
64,352,174002,1,0,0:0:0:0:
64,352,174132,1,0,0:0:0:0:
448,64,174263,1,8,0:0:0:0:
448,64,174393,1,8,0:0:0:0:
64,352,174523,1,0,0:0:0:0:
64,352,174654,1,0,0:0:0:0:
448,64,174784,1,8,0:0:0:0:
64,352,174915,1,0,0:0:0:0:
64,352,175045,1,0,0:0:0:0:
64,352,175176,1,0,0:0:0:0:
448,64,175306,1,8,0:0:0:0:
64,352,175567,1,0,0:0:0:0:
448,64,175697,1,8,0:0:0:0:
448,64,175828,1,8,0:0:0:0:
64,352,175958,1,0,0:0:0:0:
448,64,176089,1,8,0:0:0:0:
64,352,176219,1,0,0:0:0:0:
448,64,176350,1,8,0:0:0:0:
64,352,176480,1,0,0:0:0:0:
64,352,176610,1,0,0:0:0:0:
64,352,176741,1,0,0:0:0:0:
448,64,176871,1,8,0:0:0:0:
64,352,177002,1,0,0:0:0:0:
448,64,177132,1,8,0:0:0:0:
64,352,177263,1,0,0:0:0:0:
448,64,177393,1,8,0:0:0:0:
64,352,177654,1,0,0:0:0:0:
64,352,177784,1,0,0:0:0:0:
448,64,177915,1,8,0:0:0:0:
64,352,178045,1,0,0:0:0:0:
64,352,178176,1,0,0:0:0:0:
64,352,178306,1,0,0:0:0:0:
448,64,178436,1,8,0:0:0:0:
64,352,178567,1,0,0:0:0:0:
448,64,178697,1,8,0:0:0:0:
64,352,178828,1,0,0:0:0:0:
448,64,178958,1,8,0:0:0:0:
64,352,179089,1,0,0:0:0:0:
448,64,179219,1,8,0:0:0:0:
448,64,179350,1,8,0:0:0:0:
64,352,179480,1,0,0:0:0:0:
64,352,179741,1,0,0:0:0:0:
64,352,179871,1,0,0:0:0:0:
448,64,180002,1,8,0:0:0:0:
64,352,180132,1,0,0:0:0:0:
64,352,180263,1,0,0:0:0:0:
64,352,180393,1,0,0:0:0:0:
448,64,180523,1,8,0:0:0:0:
448,64,180654,1,8,0:0:0:0:
64,352,180784,1,0,0:0:0:0:
64,352,180915,1,0,0:0:0:0:
448,64,181045,1,8,0:0:0:0:
64,352,181176,1,0,0:0:0:0:
448,64,181306,1,8,0:0:0:0:
64,352,181436,1,0,0:0:0:0:
448,64,181567,1,8,0:0:0:0:
448,64,181632,1,8,0:0:0:0:
448,64,181697,1,8,0:0:0:0:
448,64,181763,1,8,0:0:0:0:
64,320,181828,1,4,0:0:0:0:
