osu file format v14

[General]
AudioFilename: audio.mp3
AudioLeadIn: 0
PreviewTime: 44060
Countdown: 0
SampleSet: Normal
StackLeniency: 0.7
Mode: 3
LetterboxInBreaks: 0
SpecialStyle: 0
WidescreenStoryboard: 0

[Editor]
Bookmarks: 8239,15459,27940,74955,89731,96895,109432
DistanceSpacing: 0.8
BeatDivisor: 8
GridSize: 4
TimelineZoom: 1.3

[Metadata]
Title:Awakening the Profound Evil
TitleUnicode:Awakening the Profound Evil
Artist:Wingless Seraph
ArtistUnicode:Wingless Seraph
Creator:[Kazuto]
Version:Evil
Source:
Tags:
BeatmapID:1357220
BeatmapSetID:639990

[Difficulty]
HPDrainRate:7
CircleSize:7
OverallDifficulty:7
ApproachRate:5
SliderMultiplier:1.4
SliderTickRate:1

[Events]
//Background and Video events
0,0,"BG-RKSF.png",0,0
//Break Periods
//Storyboard Layer 0 (Background)
//Storyboard Layer 1 (Fail)
//Storyboard Layer 2 (Pass)
//Storyboard Layer 3 (Foreground)
//Storyboard Sound Samples

[TimingPoints]
1075,447.761194029851,4,1,0,25,1,0
44060,447.761194029851,4,1,0,25,1,1
61970,447.761194029851,4,1,0,25,1,0
125552,447.761194029851,4,1,0,25,1,1
143462,447.761194029851,4,1,0,25,1,0

[HitObjects]
36,192,1075,5,8,0:0:0:0:
475,192,1075,1,4,0:0:0:0:
329,192,1075,1,0,0:0:0:0:
182,192,1298,1,8,0:0:0:0:
329,192,1522,1,8,0:0:0:0:
475,192,1746,1,8,0:0:0:0:
182,192,1970,1,8,0:0:0:0:
36,192,1970,1,0,0:0:0:0:
402,192,1970,1,4,0:0:0:0:
329,192,2082,1,8,0:0:0:0:
475,192,2194,1,8,0:0:0:0:
182,192,2306,1,8,0:0:0:0:
256,192,2418,1,8,0:0:0:0:
36,192,2530,1,8,0:0:0:0:
109,192,2642,1,8,0:0:0:0:
402,192,2754,1,8,0:0:0:0:
36,192,2866,1,0,0:0:0:0:
329,192,2866,1,4,0:0:0:0:
182,192,2866,1,8,0:0:0:0:
475,192,2977,1,8,0:0:0:0:
402,192,3089,1,8,0:0:0:0:
109,192,3201,1,8,0:0:0:0:
182,192,3313,1,8,0:0:0:0:
329,192,3425,1,8,0:0:0:0:
256,192,3537,1,8,0:0:0:0:
36,192,3649,1,8,0:0:0:0:
109,192,3761,1,0,0:0:0:0:
402,192,3761,1,8,0:0:0:0:
475,192,3761,1,4,0:0:0:0:
329,192,3873,1,8,0:0:0:0:
256,192,3985,1,8,0:0:0:0:
36,192,4097,1,8,0:0:0:0:
109,192,4209,1,8,0:0:0:0:
182,192,4321,1,8,0:0:0:0:
475,192,4433,1,8,0:0:0:0:
402,192,4545,1,8,0:0:0:0:
329,192,4657,1,4,0:0:0:0:
36,192,4657,1,0,0:0:0:0:
182,192,4657,1,8,0:0:0:0:
109,192,4769,1,8,0:0:0:0:
256,192,4880,1,8,0:0:0:0:
402,192,4992,1,8,0:0:0:0:
256,192,5104,1,8,0:0:0:0:
109,192,5216,1,8,0:0:0:0:
256,192,5328,1,8,0:0:0:0:
402,192,5440,1,8,0:0:0:0:
256,192,5552,1,8,0:0:0:0:
475,192,5552,1,4,0:0:0:0:
36,192,5552,1,0,0:0:0:0:
182,192,5664,1,8,0:0:0:0:
109,192,5776,1,8,0:0:0:0:
36,192,5888,1,0,0:0:0:0:
109,192,6000,1,8,0:0:0:0:
182,192,6112,1,8,0:0:0:0:
256,192,6224,1,8,0:0:0:0:
329,192,6336,1,8,0:0:0:0:
475,192,6448,1,4,0:0:0:0:
402,192,6448,1,8,0:0:0:0:
36,192,6448,1,0,0:0:0:0:
182,192,6560,1,8,0:0:0:0:
329,192,6672,1,8,0:0:0:0:
475,192,6783,1,8,0:0:0:0:
329,192,6895,1,8,0:0:0:0:
182,192,7007,1,8,0:0:0:0:
36,192,7119,1,8,0:0:0:0:
182,192,7231,1,8,0:0:0:0:
329,192,7343,1,0,0:0:0:0:
475,192,7343,1,4,0:0:0:0:
402,192,7343,1,8,0:0:0:0:
182,192,7455,1,8,0:0:0:0:
36,192,7567,1,8,0:0:0:0:
182,192,7679,1,8,0:0:0:0:
329,192,7791,1,8,0:0:0:0:
475,192,7903,1,8,0:0:0:0:
329,192,8015,1,8,0:0:0:0:
182,192,8127,1,8,0:0:0:0:
36,192,8239,1,0,0:0:0:0:
475,192,8239,1,4,0:0:0:0:
402,192,8239,1,8,0:0:0:0:
182,192,8295,1,0,0:0:0:0:
256,192,8295,1,8,0:0:0:0:
109,192,8519,1,8,0:0:0:0:
36,192,8519,1,0,0:0:0:0:
256,192,8742,1,0,0:0:0:0:
329,192,8742,1,8,0:0:0:0:
402,192,8966,1,0,0:0:0:0:
475,192,8966,1,8,0:0:0:0:
182,192,9190,1,0,0:0:0:0:
329,192,9190,1,8,0:0:0:0:
36,192,9414,1,0,0:0:0:0:
256,192,9414,1,8,0:0:0:0:
109,192,9638,1,0,0:0:0:0:
475,192,9638,1,8,0:0:0:0:
182,192,9862,128,8,10086:0:0:0:0:
402,192,9862,128,2,10086:0:0:0:0:
36,192,10086,128,8,10310:0:0:0:0:
475,192,10086,128,2,10310:0:0:0:0:
329,192,10310,1,8,0:0:0:0:
256,192,10310,1,0,0:0:0:0:
182,192,10422,1,0,0:0:0:0:
402,192,10422,1,8,0:0:0:0:
109,192,10533,1,0,0:0:0:0:
475,192,10533,1,8,0:0:0:0:
329,192,10645,1,8,0:0:0:0:
256,192,10645,1,0,0:0:0:0:
182,192,10757,1,0,0:0:0:0:
402,192,10757,1,8,0:0:0:0:
36,192,10869,1,0,0:0:0:0:
475,192,10869,1,8,0:0:0:0:
109,192,10981,1,0,0:0:0:0:
329,192,10981,1,8,0:0:0:0:
256,192,11093,1,0,0:0:0:0:
402,192,11093,1,8,0:0:0:0:
475,192,11205,1,8,0:0:0:0:
36,192,11205,1,0,0:0:0:0:
329,192,11317,1,8,0:0:0:0:
182,192,11317,1,0,0:0:0:0:
109,192,11429,1,0,0:0:0:0:
402,192,11429,1,8,0:0:0:0:
36,192,11541,1,0,0:0:0:0:
256,192,11541,1,8,0:0:0:0:
329,192,11653,128,2,11877:0:0:0:0:
182,192,11653,128,8,11877:0:0:0:0:
36,192,11877,128,2,11989:0:0:0:0:
109,192,11877,1,8,0:0:0:0:
475,192,11989,128,2,12101:0:0:0:0:
402,192,11989,1,8,0:0:0:0:
109,192,12101,128,2,12213:0:0:0:0:
182,192,12101,1,8,0:0:0:0:
402,192,12213,128,2,12325:0:0:0:0:
329,192,12213,1,8,0:0:0:0:
36,192,12325,128,2,12436:0:0:0:0:
109,192,12325,1,8,0:0:0:0:
475,192,12436,128,2,12548:0:0:0:0:
402,192,12436,1,8,0:0:0:0:
182,192,12548,128,2,12660:0:0:0:0:
329,192,12548,1,8,0:0:0:0:
402,192,12660,128,2,12772:0:0:0:0:
109,192,12660,1,8,0:0:0:0:
36,192,12772,128,2,12884:0:0:0:0:
475,192,12772,1,8,0:0:0:0:
402,192,12884,128,2,12996:0:0:0:0:
109,192,12884,1,8,0:0:0:0:
182,192,12996,128,2,13108:0:0:0:0:
329,192,12996,1,8,0:0:0:0:
402,192,13108,128,2,13220:0:0:0:0:
36,192,13108,1,8,0:0:0:0:
256,192,13220,1,8,0:0:0:0:
182,192,13220,128,2,13332:0:0:0:0:
475,192,13332,128,2,13444:0:0:0:0:
109,192,13332,1,8,0:0:0:0:
402,192,13444,1,8,0:0:0:0:
329,192,13444,128,2,13556:0:0:0:0:
182,192,13556,128,2,13668:0:0:0:0:
36,192,13556,1,8,0:0:0:0:
109,192,13668,128,2,13780:0:0:0:0:
475,192,13668,1,8,0:0:0:0:
329,192,13780,128,2,13892:0:0:0:0:
256,192,13780,1,8,0:0:0:0:
36,192,13892,128,2,14004:0:0:0:0:
182,192,13892,1,8,0:0:0:0:
475,192,14004,128,2,14116:0:0:0:0:
402,192,14004,1,8,0:0:0:0:
109,192,14116,128,2,14227:0:0:0:0:
256,192,14116,1,8,0:0:0:0:
329,192,14227,128,2,14339:0:0:0:0:
36,192,14227,1,8,0:0:0:0:
182,192,14339,128,2,14451:0:0:0:0:
475,192,14339,1,8,0:0:0:0:
402,192,14451,128,2,14563:0:0:0:0:
36,192,14451,1,8,0:0:0:0:
256,192,14563,128,2,14675:0:0:0:0:
329,192,14563,1,8,0:0:0:0:
182,192,14675,128,2,14787:0:0:0:0:
109,192,14675,1,8,0:0:0:0:
402,192,14787,128,2,14899:0:0:0:0:
475,192,14787,1,8,0:0:0:0:
329,192,14899,128,2,15011:0:0:0:0:
256,192,14899,1,8,0:0:0:0:
36,192,15011,128,2,15123:0:0:0:0:
109,192,15011,1,8,0:0:0:0:
475,192,15123,128,2,15235:0:0:0:0:
402,192,15123,1,8,0:0:0:0:
182,192,15235,128,2,15347:0:0:0:0:
256,192,15235,1,8,0:0:0:0:
402,192,15347,128,2,15459:0:0:0:0:
329,192,15347,1,8,0:0:0:0:
256,192,15459,128,2,17250:0:0:0:0:
475,192,15627,1,4,0:0:0:0:
36,192,15627,1,0,0:0:0:0:
109,192,15627,1,0,0:0:0:0:
182,192,15851,1,8,0:0:0:0:
329,192,15963,1,0,0:0:0:0:
475,192,15963,1,8,0:0:0:0:
36,192,16075,1,0,0:0:0:0:
182,192,16075,1,0,0:0:0:0:
402,192,16075,1,4,0:0:0:0:
109,192,16298,1,0,0:0:0:0:
475,192,16298,1,8,0:0:0:0:
475,192,16522,1,4,0:0:0:0:
182,192,16522,1,0,0:0:0:0:
329,192,16522,1,0,0:0:0:0:
36,192,16634,1,0,0:0:0:0:
109,192,16634,1,8,0:0:0:0:
475,192,16746,1,8,0:0:0:0:
402,192,16858,1,8,0:0:0:0:
36,192,16970,1,0,0:0:0:0:
109,192,16970,1,0,0:0:0:0:
182,192,16970,1,4,0:0:0:0:
402,192,17194,1,8,0:0:0:0:
109,192,17194,1,0,0:0:0:0:
329,192,17250,128,2,18145:0:0:0:0:
182,192,17418,1,0,0:0:0:0:
256,192,17418,1,4,0:0:0:0:
36,192,17418,1,0,0:0:0:0:
109,192,17642,1,8,0:0:0:0:
402,192,17754,1,0,0:0:0:0:
475,192,17754,1,8,0:0:0:0:
36,192,17866,1,0,0:0:0:0:
109,192,17866,1,0,0:0:0:0:
256,192,17866,1,4,0:0:0:0:
182,192,18089,1,8,0:0:0:0:
36,192,18145,128,2,19041:0:0:0:0:
256,192,18313,1,0,0:0:0:0:
402,192,18313,1,0,0:0:0:0:
475,192,18313,1,4,0:0:0:0:
329,192,18425,1,8,0:0:0:0:
182,192,18425,1,0,0:0:0:0:
256,192,18537,1,8,0:0:0:0:
109,192,18649,1,0,0:0:0:0:
182,192,18649,1,8,0:0:0:0:
329,192,18761,1,0,0:0:0:0:
402,192,18761,1,0,0:0:0:0:
475,192,18761,1,4,0:0:0:0:
182,192,18985,1,0,0:0:0:0:
256,192,18985,1,8,0:0:0:0:
402,192,19041,128,2,19936:0:0:0:0:
109,192,19209,1,0,0:0:0:0:
329,192,19209,1,0,0:0:0:0:
475,192,19209,1,4,0:0:0:0:
256,192,19433,1,8,0:0:0:0:
36,192,19545,1,0,0:0:0:0:
182,192,19545,1,8,0:0:0:0:
109,192,19657,1,0,0:0:0:0:
256,192,19657,1,0,0:0:0:0:
329,192,19657,1,4,0:0:0:0:
36,192,19880,1,0,0:0:0:0:
109,192,19880,1,8,0:0:0:0:
182,192,19936,128,2,20832:0:0:0:0:
256,192,20104,1,0,0:0:0:0:
329,192,20104,1,0,0:0:0:0:
475,192,20104,1,4,0:0:0:0:
402,192,20216,1,8,0:0:0:0:
36,192,20216,1,0,0:0:0:0:
475,192,20328,1,8,0:0:0:0:
256,192,20440,1,0,0:0:0:0:
402,192,20440,1,8,0:0:0:0:
36,192,20552,1,0,0:0:0:0:
109,192,20552,1,0,0:0:0:0:
329,192,20552,1,4,0:0:0:0:
475,192,20776,1,8,0:0:0:0:
402,192,20776,1,0,0:0:0:0:
329,192,20832,128,2,21280:0:0:0:0:
36,192,21000,1,0,0:0:0:0:
256,192,21000,1,4,0:0:0:0:
109,192,21000,1,0,0:0:0:0:
475,192,21224,1,8,0:0:0:0:
256,192,21280,128,2,21727:0:0:0:0:
36,192,21336,1,0,0:0:0:0:
109,192,21336,1,8,0:0:0:0:
329,192,21448,1,0,0:0:0:0:
402,192,21448,1,0,0:0:0:0:
475,192,21448,1,4,0:0:0:0:
182,192,21672,1,8,0:0:0:0:
109,192,21672,1,0,0:0:0:0:
36,192,21727,128,2,22623:0:0:0:0:
182,192,21895,1,0,0:0:0:0:
402,192,21895,1,0,0:0:0:0:
475,192,21895,1,4,0:0:0:0:
329,192,22007,1,8,0:0:0:0:
256,192,22007,1,0,0:0:0:0:
109,192,22119,1,8,0:0:0:0:
402,192,22231,1,0,0:0:0:0:
475,192,22231,1,8,0:0:0:0:
182,192,22343,1,0,0:0:0:0:
256,192,22343,1,0,0:0:0:0:
329,192,22343,1,4,0:0:0:0:
109,192,22567,1,0,0:0:0:0:
402,192,22567,1,8,0:0:0:0:
475,192,22623,128,2,23295:0:0:0:0:
182,192,22791,1,0,0:0:0:0:
256,192,22791,1,0,0:0:0:0:
329,192,22791,1,4,0:0:0:0:
402,192,23015,1,8,0:0:0:0:
256,192,23127,1,0,0:0:0:0:
329,192,23127,1,8,0:0:0:0:
109,192,23239,1,0,0:0:0:0:
402,192,23239,1,4,0:0:0:0:
36,192,23239,1,0,0:0:0:0:
182,192,23295,1,8,0:0:0:0:
256,192,23407,1,8,0:0:0:0:
36,192,23463,1,0,0:0:0:0:
109,192,23463,1,8,0:0:0:0:
329,192,23519,128,2,24414:0:0:0:0:
256,192,23686,1,0,0:0:0:0:
402,192,23686,1,0,0:0:0:0:
475,192,23686,1,4,0:0:0:0:
182,192,23798,1,8,0:0:0:0:
109,192,23798,1,0,0:0:0:0:
36,192,23910,1,8,0:0:0:0:
109,192,24022,1,0,0:0:0:0:
182,192,24022,1,8,0:0:0:0:
256,192,24134,1,0,0:0:0:0:
402,192,24134,1,0,0:0:0:0:
475,192,24134,1,4,0:0:0:0:
36,192,24358,1,0,0:0:0:0:
182,192,24358,1,8,0:0:0:0:
109,192,24414,128,2,25086:0:0:0:0:
256,192,24582,1,0,0:0:0:0:
402,192,24582,1,0,0:0:0:0:
475,192,24582,1,4,0:0:0:0:
329,192,24806,1,8,0:0:0:0:
182,192,24918,1,0,0:0:0:0:
475,192,24918,1,8,0:0:0:0:
36,192,25030,1,0,0:0:0:0:
256,192,25030,1,0,0:0:0:0:
329,192,25030,1,4,0:0:0:0:
475,192,25086,1,8,0:0:0:0:
402,192,25198,1,8,0:0:0:0:
36,192,25254,1,0,0:0:0:0:
182,192,25254,1,8,0:0:0:0:
329,192,25310,128,2,26205:0:0:0:0:
109,192,25477,1,0,0:0:0:0:
402,192,25477,1,0,0:0:0:0:
475,192,25477,1,4,0:0:0:0:
182,192,25589,1,0,0:0:0:0:
256,192,25589,1,8,0:0:0:0:
36,192,25701,1,8,0:0:0:0:
109,192,25813,1,0,0:0:0:0:
475,192,25813,1,8,0:0:0:0:
182,192,25925,1,0,0:0:0:0:
256,192,25925,1,4,0:0:0:0:
36,192,25925,1,0,0:0:0:0:
402,192,26149,1,0,0:0:0:0:
475,192,26149,1,8,0:0:0:0:
182,192,26205,128,2,26541:0:0:0:0:
109,192,26373,1,0,0:0:0:0:
256,192,26373,1,0,0:0:0:0:
475,192,26373,1,4,0:0:0:0:
36,192,26541,128,2,26877:0:0:0:0:
402,192,26597,1,8,0:0:0:0:
109,192,26709,1,0,0:0:0:0:
329,192,26709,1,8,0:0:0:0:
182,192,26821,1,0,0:0:0:0:
402,192,26821,1,0,0:0:0:0:
475,192,26821,1,4,0:0:0:0:
256,192,26877,128,2,27101:0:0:0:0:
109,192,27045,1,8,0:0:0:0:
475,192,27101,128,2,27436:0:0:0:0:
36,192,27269,1,0,0:0:0:0:
182,192,27269,1,0,0:0:0:0:
329,192,27269,1,4,0:0:0:0:
109,192,27380,1,0,0:0:0:0:
402,192,27380,1,8,0:0:0:0:
256,192,27436,128,2,27772:0:0:0:0:
182,192,27492,1,8,0:0:0:0:
329,192,27604,1,8,0:0:0:0:
109,192,27604,1,0,0:0:0:0:
402,192,27716,1,0,0:0:0:0:
475,192,27716,1,4,0:0:0:0:
182,192,27716,1,0,0:0:0:0:
36,192,27772,128,2,27996:0:0:0:0:
402,192,27940,1,0,0:0:0:0:
475,192,27940,1,4,0:0:0:0:
256,192,27940,1,8,0:0:0:0:
329,192,28052,1,8,0:0:0:0:
402,192,28164,1,8,0:0:0:0:
109,192,28164,1,0,0:0:0:0:
182,192,28164,1,0,0:0:0:0:
256,192,28164,1,0,0:0:0:0:
475,192,28276,1,8,0:0:0:0:
329,192,28388,1,8,0:0:0:0:
36,192,28388,1,0,0:0:0:0:
182,192,28388,1,4,0:0:0:0:
109,192,28388,1,0,0:0:0:0:
402,192,28500,1,0,0:0:0:0:
256,192,28500,1,8,0:0:0:0:
475,192,28500,1,8,0:0:0:0:
329,192,28612,1,8,0:0:0:0:
36,192,28612,1,0,0:0:0:0:
182,192,28612,1,4,0:0:0:0:
475,192,28724,1,8,0:0:0:0:
402,192,28724,1,0,0:0:0:0:
256,192,28724,1,8,0:0:0:0:
329,192,28836,1,8,0:0:0:0:
182,192,28836,1,4,0:0:0:0:
36,192,28836,1,0,0:0:0:0:
109,192,28836,1,0,0:0:0:0:
475,192,28948,1,8,0:0:0:0:
109,192,28948,1,0,0:0:0:0:
36,192,28948,1,0,0:0:0:0:
182,192,28948,1,4,0:0:0:0:
329,192,29060,1,8,0:0:0:0:
36,192,29060,1,0,0:0:0:0:
182,192,29060,1,8,0:0:0:0:
475,192,29172,1,8,0:0:0:0:
36,192,29172,1,0,0:0:0:0:
109,192,29172,1,0,0:0:0:0:
182,192,29172,1,4,0:0:0:0:
329,192,29283,1,8,0:0:0:0:
475,192,29395,1,8,0:0:0:0:
36,192,29395,1,0,0:0:0:0:
109,192,29395,1,0,0:0:0:0:
182,192,29395,1,4,0:0:0:0:
329,192,29507,1,8,0:0:0:0:
36,192,29507,1,0,0:0:0:0:
182,192,29507,1,8,0:0:0:0:
475,192,29619,1,8,0:0:0:0:
182,192,29731,1,8,0:0:0:0:
36,192,29731,1,0,0:0:0:0:
329,192,29731,1,8,0:0:0:0:
256,192,29731,128,2,31578:0:0:0:0:
402,192,29955,1,0,0:0:0:0:
475,192,29955,1,4,0:0:0:0:
109,192,29955,1,0,0:0:0:0:
182,192,30179,1,8,0:0:0:0:
36,192,30291,1,0,0:0:0:0:
109,192,30291,1,8,0:0:0:0:
329,192,30403,1,0,0:0:0:0:
402,192,30403,1,0,0:0:0:0:
475,192,30403,1,4,0:0:0:0:
182,192,30627,1,8,0:0:0:0:
36,192,30627,1,0,0:0:0:0:
109,192,30851,1,0,0:0:0:0:
475,192,30851,1,4,0:0:0:0:
329,192,30851,1,0,0:0:0:0:
402,192,30963,1,8,0:0:0:0:
182,192,30963,1,0,0:0:0:0:
36,192,31075,1,8,0:0:0:0:
109,192,31186,1,0,0:0:0:0:
329,192,31186,1,8,0:0:0:0:
182,192,31298,1,0,0:0:0:0:
402,192,31298,1,0,0:0:0:0:
475,192,31298,1,4,0:0:0:0:
36,192,31522,1,0,0:0:0:0:
109,192,31522,1,8,0:0:0:0:
402,192,31578,128,2,32474:0:0:0:0:
182,192,31746,1,0,0:0:0:0:
329,192,31746,1,4,0:0:0:0:
36,192,31746,1,0,0:0:0:0:
109,192,31970,1,8,0:0:0:0:
256,192,32082,1,8,0:0:0:0:
36,192,32082,1,0,0:0:0:0:
109,192,32194,1,0,0:0:0:0:
182,192,32194,1,0,0:0:0:0:
329,192,32194,1,4,0:0:0:0:
36,192,32418,1,0,0:0:0:0:
109,192,32418,1,8,0:0:0:0:
182,192,32474,128,2,33369:0:0:0:0:
256,192,32642,1,0,0:0:0:0:
329,192,32642,1,0,0:0:0:0:
475,192,32642,1,4,0:0:0:0:
402,192,32754,1,8,0:0:0:0:
36,192,32754,1,0,0:0:0:0:
329,192,32866,1,8,0:0:0:0:
402,192,32977,1,8,0:0:0:0:
36,192,32977,1,0,0:0:0:0:
475,192,33089,1,4,0:0:0:0:
329,192,33089,1,0,0:0:0:0:
256,192,33089,1,0,0:0:0:0:
402,192,33313,1,8,0:0:0:0:
256,192,33313,1,0,0:0:0:0:
329,192,33369,128,2,34265:0:0:0:0:
36,192,33537,1,0,0:0:0:0:
109,192,33537,1,0,0:0:0:0:
475,192,33537,1,4,0:0:0:0:
256,192,33761,1,8,0:0:0:0:
109,192,33873,1,8,0:0:0:0:
36,192,33873,1,0,0:0:0:0:
182,192,33985,1,0,0:0:0:0:
402,192,33985,1,0,0:0:0:0:
475,192,33985,1,4,0:0:0:0:
256,192,34209,1,8,0:0:0:0:
109,192,34209,1,0,0:0:0:0:
182,192,34265,128,2,35160:0:0:0:0:
36,192,34433,1,0,0:0:0:0:
109,192,34433,1,0,0:0:0:0:
475,192,34433,1,8,0:0:0:0:
256,192,34545,1,0,0:0:0:0:
402,192,34545,1,8,0:0:0:0:
36,192,34657,1,8,0:0:0:0:
475,192,34769,1,8,0:0:0:0:
329,192,34769,1,0,0:0:0:0:
109,192,34880,1,0,0:0:0:0:
402,192,34880,1,4,0:0:0:0:
256,192,34880,1,0,0:0:0:0:
329,192,35104,1,0,0:0:0:0:
475,192,35104,1,8,0:0:0:0:
402,192,35160,128,2,35608:0:0:0:0:
36,192,35328,1,0,0:0:0:0:
109,192,35328,1,0,0:0:0:0:
256,192,35328,1,4,0:0:0:0:
182,192,35552,1,8,0:0:0:0:
109,192,35608,128,2,36056:0:0:0:0:
256,192,35664,1,0,0:0:0:0:
329,192,35664,1,8,0:0:0:0:
475,192,35776,1,4,0:0:0:0:
36,192,35776,1,0,0:0:0:0:
182,192,35776,1,0,0:0:0:0:
329,192,36000,1,8,0:0:0:0:
182,192,36000,1,0,0:0:0:0:
256,192,36056,128,2,36951:0:0:0:0:
475,192,36224,1,4,0:0:0:0:
402,192,36224,1,0,0:0:0:0:
36,192,36224,1,0,0:0:0:0:
109,192,36336,1,0,0:0:0:0:
182,192,36336,1,8,0:0:0:0:
329,192,36448,1,0,0:0:0:0:
402,192,36448,1,8,0:0:0:0:
36,192,36560,1,0,0:0:0:0:
109,192,36560,1,0,0:0:0:0:
475,192,36560,1,4,0:0:0:0:
182,192,36672,1,8,0:0:0:0:
109,192,36783,1,8,0:0:0:0:
36,192,36783,1,0,0:0:0:0:
329,192,36895,1,0,0:0:0:0:
402,192,36895,1,0,0:0:0:0:
475,192,36895,1,4,0:0:0:0:
182,192,36951,128,2,37623:0:0:0:0:
36,192,37119,1,0,0:0:0:0:
329,192,37119,1,8,0:0:0:0:
109,192,37343,1,0,0:0:0:0:
402,192,37343,1,0,0:0:0:0:
475,192,37343,1,4,0:0:0:0:
256,192,37623,1,8,0:0:0:0:
36,192,37679,1,0,0:0:0:0:
109,192,37679,1,8,0:0:0:0:
329,192,37735,1,8,0:0:0:0:
182,192,37791,1,8,0:0:0:0:
402,192,37847,128,2,38742:0:0:0:0:
109,192,37903,1,0,0:0:0:0:
256,192,37903,1,8,0:0:0:0:
182,192,38015,1,8,0:0:0:0:
36,192,38127,1,0,0:0:0:0:
329,192,38127,1,8,0:0:0:0:
109,192,38239,1,0,0:0:0:0:
182,192,38239,1,0,0:0:0:0:
256,192,38239,1,4,0:0:0:0:
36,192,38463,1,8,0:0:0:0:
182,192,38686,1,0,0:0:0:0:
256,192,38686,1,8,0:0:0:0:
109,192,38742,128,2,39414:0:0:0:0:
329,192,38910,1,0,0:0:0:0:
475,192,38910,1,8,0:0:0:0:
36,192,39134,1,0,0:0:0:0:
256,192,39134,1,0,0:0:0:0:
402,192,39134,1,4,0:0:0:0:
182,192,39358,1,8,0:0:0:0:
475,192,39414,1,8,0:0:0:0:
36,192,39470,1,0,0:0:0:0:
256,192,39470,1,0,0:0:0:0:
402,192,39470,1,4,0:0:0:0:
329,192,39526,1,8,0:0:0:0:
109,192,39582,1,8,0:0:0:0:
182,192,39638,128,2,40533:0:0:0:0:
475,192,39694,1,8,0:0:0:0:
329,192,39694,1,0,0:0:0:0:
402,192,39806,1,8,0:0:0:0:
36,192,39918,1,0,0:0:0:0:
256,192,39918,1,8,0:0:0:0:
109,192,40030,1,0,0:0:0:0:
329,192,40030,1,0,0:0:0:0:
475,192,40030,1,4,0:0:0:0:
402,192,40254,1,8,0:0:0:0:
36,192,40477,1,0,0:0:0:0:
475,192,40477,1,4,0:0:0:0:
329,192,40477,1,0,0:0:0:0:
109,192,40533,128,2,40869:0:0:0:0:
402,192,40701,1,8,0:0:0:0:
256,192,40869,128,2,41205:0:0:0:0:
475,192,40925,1,4,0:0:0:0:
329,192,40925,1,0,0:0:0:0:
182,192,40925,1,0,0:0:0:0:
36,192,41149,1,8,0:0:0:0:
402,192,41205,128,2,41429:0:0:0:0:
109,192,41261,1,0,0:0:0:0:
182,192,41261,1,8,0:0:0:0:
329,192,41373,1,8,0:0:0:0:
36,192,41429,128,2,41765:0:0:0:0:
475,192,41765,128,2,42101:0:0:0:0:
109,192,41765,1,0,0:0:0:0:
182,192,41765,1,8,0:0:0:0:
256,192,41821,1,0,0:0:0:0:
329,192,41821,1,0,0:0:0:0:
402,192,41821,1,4,0:0:0:0:
182,192,42045,1,8,0:0:0:0:
256,192,42101,128,2,42269:0:0:0:0:
36,192,42269,1,0,0:0:0:0:
402,192,42269,1,8,0:0:0:0:
182,192,42380,1,0,0:0:0:0:
329,192,42380,1,0,0:0:0:0:
475,192,42380,1,8,0:0:0:0:
36,192,42492,1,0,0:0:0:0:
402,192,42492,1,8,0:0:0:0:
256,192,42492,1,0,0:0:0:0:
182,192,42604,1,8,0:0:0:0:
36,192,42716,1,0,0:0:0:0:
329,192,42716,1,0,0:0:0:0:
475,192,42716,1,4,0:0:0:0:
109,192,42716,1,0,0:0:0:0:
182,192,42828,1,8,0:0:0:0:
36,192,42940,1,0,0:0:0:0:
402,192,42940,1,8,0:0:0:0:
182,192,43052,1,0,0:0:0:0:
475,192,43052,1,4,0:0:0:0:
109,192,43052,1,0,0:0:0:0:
329,192,43164,1,0,0:0:0:0:
36,192,43164,1,0,0:0:0:0:
402,192,43164,1,4,0:0:0:0:
475,192,43276,1,4,0:0:0:0:
256,192,43276,1,0,0:0:0:0:
182,192,43276,1,0,0:0:0:0:
329,192,43388,1,8,0:0:0:0:
475,192,43500,1,4,0:0:0:0:
36,192,43500,1,0,0:0:0:0:
182,192,43500,1,0,0:0:0:0:
329,192,43612,1,4,0:0:0:0:
109,192,43612,1,0,0:0:0:0:
256,192,43612,1,0,0:0:0:0:
475,192,43724,1,4,0:0:0:0:
182,192,43724,1,0,0:0:0:0:
36,192,43724,1,0,0:0:0:0:
329,192,43836,1,4,0:0:0:0:
109,192,43836,1,0,0:0:0:0:
256,192,43836,1,0,0:0:0:0:
475,192,43948,1,4,0:0:0:0:
182,192,43948,1,0,0:0:0:0:
36,192,43948,1,0,0:0:0:0:
329,192,44060,1,4,0:0:0:0:
109,192,44060,1,0,0:0:0:0:
256,192,44060,1,8,0:0:0:0:
402,192,44171,1,8,0:0:0:0:
36,192,44171,1,0,0:0:0:0:
475,192,44283,1,8,0:0:0:0:
109,192,44283,1,0,0:0:0:0:
402,192,44395,1,8,0:0:0:0:
182,192,44395,1,0,0:0:0:0:
329,192,44507,1,8,0:0:0:0:
109,192,44507,1,0,0:0:0:0:
256,192,44619,1,8,0:0:0:0:
36,192,44619,1,0,0:0:0:0:
475,192,44731,1,8,0:0:0:0:
182,192,44731,1,0,0:0:0:0:
402,192,44843,1,8,0:0:0:0:
109,192,44843,1,0,0:0:0:0:
182,192,44955,1,0,0:0:0:0:
475,192,44955,1,8,0:0:0:0:
402,192,45067,1,8,0:0:0:0:
36,192,45067,1,0,0:0:0:0:
256,192,45179,1,0,0:0:0:0:
475,192,45179,1,8,0:0:0:0:
109,192,45291,1,0,0:0:0:0:
329,192,45291,1,8,0:0:0:0:
182,192,45403,1,0,0:0:0:0:
402,192,45403,1,8,0:0:0:0:
109,192,45515,1,0,0:0:0:0:
329,192,45515,1,8,0:0:0:0:
36,192,45627,1,0,0:0:0:0:
402,192,45627,1,8,0:0:0:0:
109,192,45739,1,0,0:0:0:0:
475,192,45739,1,8,0:0:0:0:
182,192,45851,1,0,0:0:0:0:
402,192,45851,1,8,0:0:0:0:
36,192,45962,1,0,0:0:0:0:
329,192,45962,1,8,0:0:0:0:
109,192,46074,1,0,0:0:0:0:
402,192,46074,1,8,0:0:0:0:
182,192,46186,1,0,0:0:0:0:
475,192,46186,1,8,0:0:0:0:
36,192,46298,1,0,0:0:0:0:
329,192,46298,1,8,0:0:0:0:
109,192,46410,1,0,0:0:0:0:
402,192,46410,1,8,0:0:0:0:
182,192,46522,1,0,0:0:0:0:
475,192,46522,1,8,0:0:0:0:
36,192,46634,1,0,0:0:0:0:
329,192,46634,1,8,0:0:0:0:
109,192,46746,1,0,0:0:0:0:
402,192,46746,1,8,0:0:0:0:
475,192,46858,1,8,0:0:0:0:
182,192,46858,1,0,0:0:0:0:
402,192,46970,1,8,0:0:0:0:
109,192,46970,1,0,0:0:0:0:
329,192,47082,1,8,0:0:0:0:
36,192,47082,1,0,0:0:0:0:
475,192,47194,1,8,0:0:0:0:
182,192,47194,1,0,0:0:0:0:
402,192,47306,1,8,0:0:0:0:
109,192,47306,1,0,0:0:0:0:
329,192,47418,1,8,0:0:0:0:
36,192,47418,1,0,0:0:0:0:
109,192,47530,1,0,0:0:0:0:
402,192,47530,1,8,0:0:0:0:
182,192,47642,1,0,0:0:0:0:
475,192,47642,1,8,0:0:0:0:
36,192,47754,1,0,0:0:0:0:
329,192,47754,1,8,0:0:0:0:
475,192,47865,1,8,0:0:0:0:
182,192,47865,1,0,0:0:0:0:
36,192,47977,1,0,0:0:0:0:
329,192,47977,1,8,0:0:0:0:
182,192,48089,1,0,0:0:0:0:
475,192,48089,1,8,0:0:0:0:
36,192,48201,1,0,0:0:0:0:
329,192,48201,1,8,0:0:0:0:
182,192,48313,1,0,0:0:0:0:
475,192,48313,1,8,0:0:0:0:
36,192,48425,1,0,0:0:0:0:
329,192,48425,1,8,0:0:0:0:
109,192,48537,1,0,0:0:0:0:
402,192,48537,1,8,0:0:0:0:
182,192,48649,1,0,0:0:0:0:
475,192,48649,1,8,0:0:0:0:
256,192,48761,1,8,0:0:0:0:
36,192,48761,1,0,0:0:0:0:
109,192,48873,1,0,0:0:0:0:
329,192,48873,1,8,0:0:0:0:
402,192,48985,1,8,0:0:0:0:
182,192,48985,1,0,0:0:0:0:
475,192,49097,1,8,0:0:0:0:
256,192,49097,1,0,0:0:0:0:
36,192,49097,1,0,0:0:0:0:
329,192,49209,1,8,0:0:0:0:
109,192,49209,1,0,0:0:0:0:
402,192,49321,1,8,0:0:0:0:
182,192,49321,1,0,0:0:0:0:
256,192,49433,128,0,49880:0:0:0:0:
475,192,49433,128,2,49880:0:0:0:0:
36,192,49433,1,0,0:0:0:0:
109,192,49433,1,8,0:0:0:0:
182,192,49657,1,0,0:0:0:0:
329,192,49657,1,4,0:0:0:0:
36,192,49657,1,0,0:0:0:0:
109,192,49880,128,0,50328:0:0:0:0:
402,192,49880,128,2,50328:0:0:0:0:
36,192,49880,1,8,0:0:0:0:
182,192,49992,1,0,0:0:0:0:
329,192,49992,1,8,0:0:0:0:
256,192,50104,1,0,0:0:0:0:
36,192,50104,1,0,0:0:0:0:
475,192,50104,1,4,0:0:0:0:
256,192,50328,128,2,51224:0:0:0:0:
36,192,50328,128,0,51224:0:0:0:0:
182,192,50328,1,0,0:0:0:0:
329,192,50328,1,8,0:0:0:0:
329,192,50552,1,0,0:0:0:0:
402,192,50552,1,4,0:0:0:0:
109,192,50552,1,0,0:0:0:0:
475,192,50664,1,8,0:0:0:0:
182,192,50664,1,0,0:0:0:0:
329,192,50776,1,8,0:0:0:0:
475,192,50888,1,8,0:0:0:0:
109,192,50888,1,0,0:0:0:0:
182,192,51000,1,0,0:0:0:0:
402,192,51000,1,4,0:0:0:0:
329,192,51000,1,0,0:0:0:0:
475,192,51224,128,2,52119:0:0:0:0:
182,192,51224,128,0,52119:0:0:0:0:
109,192,51224,1,0,0:0:0:0:
402,192,51224,1,8,0:0:0:0:
329,192,51448,1,4,0:0:0:0:
36,192,51448,1,0,0:0:0:0:
109,192,51448,1,0,0:0:0:0:
402,192,51783,1,8,0:0:0:0:
256,192,51783,1,0,0:0:0:0:
109,192,51895,1,0,0:0:0:0:
329,192,51895,1,4,0:0:0:0:
36,192,51895,1,0,0:0:0:0:
36,192,52119,128,0,53015:0:0:0:0:
256,192,52119,128,2,53015:0:0:0:0:
109,192,52119,1,0,0:0:0:0:
402,192,52119,1,8,0:0:0:0:
329,192,52343,1,0,0:0:0:0:
402,192,52343,1,0,0:0:0:0:
475,192,52343,1,4,0:0:0:0:
109,192,52455,1,0,0:0:0:0:
182,192,52455,1,8,0:0:0:0:
475,192,52567,1,8,0:0:0:0:
109,192,52679,1,0,0:0:0:0:
182,192,52679,1,8,0:0:0:0:
329,192,52791,1,0,0:0:0:0:
402,192,52791,1,0,0:0:0:0:
475,192,52791,1,4,0:0:0:0:
109,192,53015,128,0,53351:0:0:0:0:
329,192,53015,128,2,53351:0:0:0:0:
402,192,53015,1,0,0:0:0:0:
475,192,53015,1,8,0:0:0:0:
36,192,53239,1,0,0:0:0:0:
256,192,53239,1,0,0:0:0:0:
475,192,53239,1,4,0:0:0:0:
182,192,53351,128,0,53686:0:0:0:0:
402,192,53351,128,2,53686:0:0:0:0:
36,192,53462,1,8,0:0:0:0:
329,192,53574,1,8,0:0:0:0:
109,192,53574,1,0,0:0:0:0:
256,192,53686,128,0,54806:0:0:0:0:
475,192,53686,128,2,54806:0:0:0:0:
329,192,53686,1,4,0:0:0:0:
109,192,53686,1,0,0:0:0:0:
36,192,53686,1,0,0:0:0:0:
182,192,53910,1,8,0:0:0:0:
36,192,53910,1,0,0:0:0:0:
402,192,54134,1,4,0:0:0:0:
109,192,54134,1,0,0:0:0:0:
36,192,54134,1,0,0:0:0:0:
182,192,54246,1,0,0:0:0:0:
329,192,54246,1,8,0:0:0:0:
36,192,54358,1,8,0:0:0:0:
182,192,54470,1,0,0:0:0:0:
329,192,54470,1,8,0:0:0:0:
109,192,54582,1,0,0:0:0:0:
36,192,54582,1,0,0:0:0:0:
402,192,54582,1,4,0:0:0:0:
329,192,54806,1,8,0:0:0:0:
36,192,54806,128,0,55701:0:0:0:0:
402,192,54806,128,2,55701:0:0:0:0:
182,192,54806,1,0,0:0:0:0:
109,192,55030,1,0,0:0:0:0:
475,192,55030,1,4,0:0:0:0:
256,192,55030,1,0,0:0:0:0:
182,192,55254,1,8,0:0:0:0:
256,192,55365,1,0,0:0:0:0:
329,192,55365,1,8,0:0:0:0:
109,192,55477,1,0,0:0:0:0:
182,192,55477,1,0,0:0:0:0:
475,192,55477,1,4,0:0:0:0:
182,192,55701,128,0,56597:0:0:0:0:
329,192,55701,128,2,56597:0:0:0:0:
256,192,55701,1,8,0:0:0:0:
109,192,55701,1,0,0:0:0:0:
475,192,55925,1,4,0:0:0:0:
109,192,55925,1,0,0:0:0:0:
36,192,55925,1,0,0:0:0:0:
256,192,56037,1,0,0:0:0:0:
402,192,56037,1,8,0:0:0:0:
109,192,56149,1,8,0:0:0:0:
402,192,56261,1,0,0:0:0:0:
475,192,56261,1,8,0:0:0:0:
36,192,56373,1,0,0:0:0:0:
109,192,56373,1,0,0:0:0:0:
256,192,56373,1,4,0:0:0:0:
475,192,56597,128,2,56933:0:0:0:0:
256,192,56597,128,0,56933:0:0:0:0:
36,192,56597,1,0,0:0:0:0:
402,192,56597,1,8,0:0:0:0:
329,192,56821,1,4,0:0:0:0:
36,192,56821,1,0,0:0:0:0:
109,192,56821,1,0,0:0:0:0:
182,192,56933,128,0,57268:0:0:0:0:
402,192,56933,128,2,57268:0:0:0:0:
109,192,56933,1,8,0:0:0:0:
36,192,56933,1,0,0:0:0:0:
329,192,57045,1,8,0:0:0:0:
36,192,57157,1,0,0:0:0:0:
475,192,57157,1,8,0:0:0:0:
109,192,57268,128,0,58388:0:0:0:0:
329,192,57268,128,2,58388:0:0:0:0:
256,192,57268,1,0,0:0:0:0:
36,192,57268,1,0,0:0:0:0:
475,192,57268,1,4,0:0:0:0:
182,192,57492,1,0,0:0:0:0:
256,192,57492,1,8,0:0:0:0:
36,192,57716,1,0,0:0:0:0:
402,192,57716,1,0,0:0:0:0:
475,192,57716,1,4,0:0:0:0:
256,192,57828,1,8,0:0:0:0:
182,192,57828,1,0,0:0:0:0:
36,192,57940,1,8,0:0:0:0:
182,192,58052,1,0,0:0:0:0:
402,192,58052,1,0,0:0:0:0:
475,192,58052,1,4,0:0:0:0:
256,192,58164,1,0,0:0:0:0:
402,192,58164,1,0,0:0:0:0:
475,192,58164,1,4,0:0:0:0:
182,192,58276,1,0,0:0:0:0:
402,192,58276,1,0,0:0:0:0:
475,192,58276,1,4,0:0:0:0:
475,192,58388,1,4,0:0:0:0:
256,192,58388,1,0,0:0:0:0:
402,192,58388,1,0,0:0:0:0:
36,192,58500,1,0,0:0:0:0:
182,192,58500,1,8,0:0:0:0:
329,192,58612,1,0,0:0:0:0:
475,192,58612,1,8,0:0:0:0:
36,192,58724,1,0,0:0:0:0:
182,192,58724,1,8,0:0:0:0:
329,192,58836,1,0,0:0:0:0:
475,192,58836,1,8,0:0:0:0:
109,192,58948,1,0,0:0:0:0:
402,192,58948,1,8,0:0:0:0:
182,192,59060,1,0,0:0:0:0:
475,192,59060,1,8,0:0:0:0:
109,192,59171,1,0,0:0:0:0:
402,192,59171,1,8,0:0:0:0:
36,192,59283,1,0,0:0:0:0:
329,192,59283,1,8,0:0:0:0:
109,192,59395,1,0,0:0:0:0:
402,192,59395,1,8,0:0:0:0:
182,192,59507,1,0,0:0:0:0:
475,192,59507,1,8,0:0:0:0:
36,192,59507,1,0,0:0:0:0:
256,192,59619,1,8,0:0:0:0:
109,192,59619,1,0,0:0:0:0:
329,192,59731,1,8,0:0:0:0:
182,192,59731,1,0,0:0:0:0:
402,192,59843,1,8,0:0:0:0:
256,192,59843,1,0,0:0:0:0:
475,192,59955,1,8,0:0:0:0:
329,192,59955,1,0,0:0:0:0:
402,192,60067,1,8,0:0:0:0:
36,192,60067,1,0,0:0:0:0:
329,192,60179,1,8,0:0:0:0:
109,192,60179,1,0,0:0:0:0:
36,192,60291,1,0,0:0:0:0:
402,192,60291,1,8,0:0:0:0:
475,192,60403,1,8,0:0:0:0:
109,192,60403,1,0,0:0:0:0:
402,192,60515,1,8,0:0:0:0:
36,192,60515,1,0,0:0:0:0:
182,192,60627,1,0,0:0:0:0:
329,192,60627,1,8,0:0:0:0:
109,192,60739,1,0,0:0:0:0:
402,192,60739,1,8,0:0:0:0:
36,192,60851,1,0,0:0:0:0:
475,192,60851,1,8,0:0:0:0:
402,192,60962,1,8,0:0:0:0:
109,192,60962,1,0,0:0:0:0:
182,192,61074,1,0,0:0:0:0:
329,192,61074,1,8,0:0:0:0:
109,192,61186,1,0,0:0:0:0:
402,192,61186,1,8,0:0:0:0:
475,192,61298,1,8,0:0:0:0:
36,192,61298,1,0,0:0:0:0:
109,192,61410,1,0,0:0:0:0:
402,192,61410,1,8,0:0:0:0:
182,192,61522,1,0,0:0:0:0:
329,192,61522,1,8,0:0:0:0:
109,192,61634,1,0,0:0:0:0:
402,192,61634,1,8,0:0:0:0:
36,192,61746,1,0,0:0:0:0:
475,192,61746,1,8,0:0:0:0:
109,192,61858,1,0,0:0:0:0:
402,192,61858,1,8,0:0:0:0:
182,192,61970,1,0,0:0:0:0:
329,192,61970,1,8,0:0:0:0:
36,192,61970,128,2,62193:0:0:0:0:
475,192,62081,1,8,0:0:0:0:
402,192,62193,1,8,0:0:0:0:
329,192,62305,1,8,0:0:0:0:
256,192,62417,128,2,62641:0:0:0:0:
402,192,62417,1,8,0:0:0:0:
475,192,62529,1,8,0:0:0:0:
36,192,62641,1,8,0:0:0:0:
109,192,62753,1,8,0:0:0:0:
475,192,62865,128,2,63089:0:0:0:0:
182,192,62865,1,8,0:0:0:0:
109,192,62977,1,8,0:0:0:0:
36,192,63089,1,8,0:0:0:0:
109,192,63201,1,8,0:0:0:0:
256,192,63313,128,2,63537:0:0:0:0:
402,192,63313,1,8,0:0:0:0:
109,192,63425,1,8,0:0:0:0:
402,192,63537,1,8,0:0:0:0:
109,192,63649,1,8,0:0:0:0:
36,192,63761,128,2,63984:0:0:0:0:
182,192,63761,1,8,0:0:0:0:
256,192,63872,1,8,0:0:0:0:
329,192,63984,1,8,0:0:0:0:
402,192,64096,1,8,0:0:0:0:
182,192,64208,128,2,64432:0:0:0:0:
475,192,64208,1,8,0:0:0:0:
402,192,64320,1,8,0:0:0:0:
329,192,64432,1,8,0:0:0:0:
256,192,64544,1,8,0:0:0:0:
329,192,64656,128,2,64880:0:0:0:0:
36,192,64656,1,8,0:0:0:0:
109,192,64768,1,8,0:0:0:0:
182,192,64880,1,8,0:0:0:0:
256,192,64992,1,8,0:0:0:0:
475,192,65104,128,2,65328:0:0:0:0:
182,192,65104,1,8,0:0:0:0:
109,192,65216,128,2,65328:0:0:0:0:
36,192,65328,128,2,65552:0:0:0:0:
329,192,65552,128,2,65775:0:0:0:0:
109,192,65664,1,8,0:0:0:0:
182,192,65775,1,8,0:0:0:0:
475,192,65887,1,8,0:0:0:0:
182,192,65999,128,2,66223:0:0:0:0:
402,192,65999,1,8,0:0:0:0:
329,192,66111,1,8,0:0:0:0:
402,192,66223,1,8,0:0:0:0:
475,192,66335,1,8,0:0:0:0:
36,192,66447,128,2,66671:0:0:0:0:
402,192,66447,1,8,0:0:0:0:
329,192,66559,1,8,0:0:0:0:
256,192,66671,128,2,66839:0:0:0:0:
475,192,66895,128,2,67119:0:0:0:0:
109,192,66895,128,2,67063:0:0:0:0:
182,192,67119,1,8,0:0:0:0:
256,192,67231,1,8,0:0:0:0:
36,192,67343,128,2,67567:0:0:0:0:
329,192,67343,1,8,0:0:0:0:
402,192,67455,1,8,0:0:0:0:
329,192,67567,1,8,0:0:0:0:
402,192,67678,1,8,0:0:0:0:
475,192,67790,128,2,68014:0:0:0:0:
329,192,67790,1,8,0:0:0:0:
36,192,67902,1,8,0:0:0:0:
109,192,68014,1,8,0:0:0:0:
36,192,68126,1,8,0:0:0:0:
182,192,68238,128,2,68462:0:0:0:0:
475,192,68238,1,8,0:0:0:0:
402,192,68350,1,8,0:0:0:0:
475,192,68462,1,8,0:0:0:0:
36,192,68574,1,8,0:0:0:0:
329,192,68686,128,2,68910:0:0:0:0:
109,192,68686,1,8,0:0:0:0:
182,192,68798,1,8,0:0:0:0:
36,192,68910,1,8,0:0:0:0:
109,192,69022,1,8,0:0:0:0:
182,192,69134,128,2,69358:0:0:0:0:
475,192,69134,1,8,0:0:0:0:
402,192,69246,1,8,0:0:0:0:
329,192,69358,1,8,0:0:0:0:
36,192,69470,1,8,0:0:0:0:
329,192,69581,128,2,69805:0:0:0:0:
109,192,69581,1,8,0:0:0:0:
182,192,69693,1,8,0:0:0:0:
109,192,69805,1,8,0:0:0:0:
36,192,69917,1,8,0:0:0:0:
475,192,70029,128,2,70253:0:0:0:0:
182,192,70029,1,8,0:0:0:0:
329,192,70141,1,8,0:0:0:0:
109,192,70253,1,8,0:0:0:0:
256,192,70365,1,8,0:0:0:0:
36,192,70477,128,2,70701:0:0:0:0:
182,192,70477,1,8,0:0:0:0:
329,192,70589,1,8,0:0:0:0:
256,192,70701,1,8,0:0:0:0:
109,192,70813,1,8,0:0:0:0:
402,192,70925,128,2,71149:0:0:0:0:
182,192,70925,1,8,0:0:0:0:
36,192,71037,1,8,0:0:0:0:
256,192,71149,1,8,0:0:0:0:
182,192,71261,1,8,0:0:0:0:
109,192,71372,128,2,71596:0:0:0:0:
329,192,71372,1,8,0:0:0:0:
475,192,71484,1,8,0:0:0:0:
329,192,71596,1,8,0:0:0:0:
182,192,71708,1,8,0:0:0:0:
329,192,71820,128,2,72044:0:0:0:0:
402,192,71820,1,8,0:0:0:0:
36,192,71932,128,2,72044:0:0:0:0:
475,192,72044,128,2,72268:0:0:0:0:
182,192,72268,128,2,72492:0:0:0:0:
256,192,72268,1,8,0:0:0:0:
36,192,72380,1,8,0:0:0:0:
402,192,72492,1,8,0:0:0:0:
109,192,72604,1,8,0:0:0:0:
256,192,72716,128,2,72940:0:0:0:0:
329,192,72716,1,8,0:0:0:0:
36,192,72828,1,8,0:0:0:0:
109,192,72940,1,8,0:0:0:0:
402,192,73052,1,8,0:0:0:0:
256,192,73164,128,2,73387:0:0:0:0:
475,192,73164,1,8,0:0:0:0:
109,192,73275,1,8,0:0:0:0:
36,192,73387,128,2,73611:0:0:0:0:
182,192,73611,128,2,73835:0:0:0:0:
402,192,73611,128,2,73779:0:0:0:0:
109,192,73835,1,8,0:0:0:0:
256,192,73947,1,8,0:0:0:0:
329,192,74059,128,8,74283:0:0:0:0:
36,192,74059,1,8,0:0:0:0:
475,192,74171,1,8,0:0:0:0:
109,192,74283,1,8,0:0:0:0:
402,192,74395,1,8,0:0:0:0:
109,192,74507,128,2,74731:0:0:0:0:
182,192,74507,1,8,0:0:0:0:
329,192,74619,1,8,0:0:0:0:
256,192,74731,1,8,0:0:0:0:
182,192,74843,1,8,0:0:0:0:
402,192,74955,128,2,75178:0:0:0:0:
109,192,74955,1,8,0:0:0:0:
36,192,75067,1,8,0:0:0:0:
109,192,75178,1,8,0:0:0:0:
182,192,75290,1,8,0:0:0:0:
36,192,75402,128,2,75850:0:0:0:0:
109,192,75402,1,0,0:0:0:0:
256,192,75402,1,8,0:0:0:0:
475,192,75850,128,2,76298:0:0:0:0:
182,192,75850,1,0,0:0:0:0:
329,192,75850,1,8,0:0:0:0:
256,192,76298,128,2,76746:0:0:0:0:
36,192,76298,1,0,0:0:0:0:
182,192,76298,1,8,0:0:0:0:
109,192,76746,128,2,77193:0:0:0:0:
329,192,76746,1,0,0:0:0:0:
475,192,76746,1,8,0:0:0:0:
402,192,77193,128,2,77641:0:0:0:0:
182,192,77193,1,0,0:0:0:0:
329,192,77193,1,8,0:0:0:0:
256,192,77641,128,2,78089:0:0:0:0:
36,192,77641,1,0,0:0:0:0:
182,192,77641,1,8,0:0:0:0:
36,192,78089,128,2,78537:0:0:0:0:
329,192,78089,1,0,0:0:0:0:
475,192,78089,1,8,0:0:0:0:
475,192,78537,128,2,78984:0:0:0:0:
182,192,78537,1,0,0:0:0:0:
329,192,78537,1,8,0:0:0:0:
256,192,78984,128,2,79880:0:0:0:0:
36,192,78984,1,0,0:0:0:0:
182,192,78984,1,8,0:0:0:0:
329,192,79712,1,8,0:0:0:0:
475,192,79768,1,8,0:0:0:0:
329,192,79824,1,8,0:0:0:0:
36,192,79880,128,2,80775:0:0:0:0:
475,192,79880,1,8,0:0:0:0:
109,192,79880,1,0,0:0:0:0:
182,192,79880,1,4,0:0:0:0:
182,192,80216,1,0,0:0:0:0:
256,192,80216,1,4,0:0:0:0:
329,192,80552,1,4,0:0:0:0:
256,192,80552,1,0,0:0:0:0:
475,192,80775,128,2,81671:0:0:0:0:
329,192,80775,1,0,0:0:0:0:
402,192,80775,1,4,0:0:0:0:
109,192,80775,1,0,0:0:0:0:
256,192,81671,128,2,82567:0:0:0:0:
36,192,81671,1,0,0:0:0:0:
182,192,81671,1,8,0:0:0:0:
475,192,82343,1,4,0:0:0:0:
402,192,82343,1,0,0:0:0:0:
329,192,82343,1,0,0:0:0:0:
182,192,82455,1,4,0:0:0:0:
109,192,82455,1,0,0:0:0:0:
36,192,82455,1,0,0:0:0:0:
475,192,82567,1,4,0:0:0:0:
329,192,82567,1,0,0:0:0:0:
402,192,82567,128,2,82790:0:0:0:0:
329,192,82790,128,2,83014:0:0:0:0:
256,192,83014,128,2,83238:0:0:0:0:
182,192,83238,128,2,83462:0:0:0:0:
109,192,83462,1,0,0:0:0:0:
36,192,83462,1,0,0:0:0:0:
475,192,83462,1,4,0:0:0:0:
256,192,83574,1,8,0:0:0:0:
329,192,83686,1,8,0:0:0:0:
402,192,83798,1,8,0:0:0:0:
475,192,83910,1,8,0:0:0:0:
402,192,84022,1,8,0:0:0:0:
329,192,84134,1,8,0:0:0:0:
36,192,84134,1,0,0:0:0:0:
109,192,84134,1,8,0:0:0:0:
256,192,84246,1,8,0:0:0:0:
402,192,84246,1,0,0:0:0:0:
475,192,84246,1,8,0:0:0:0:
182,192,84358,1,4,0:0:0:0:
36,192,84358,1,0,0:0:0:0:
109,192,84358,1,0,0:0:0:0:
329,192,84358,1,8,0:0:0:0:
256,192,84470,1,8,0:0:0:0:
329,192,84581,1,8,0:0:0:0:
402,192,84693,1,8,0:0:0:0:
475,192,84805,1,8,0:0:0:0:
402,192,84917,1,8,0:0:0:0:
329,192,85029,1,8,0:0:0:0:
256,192,85141,1,8,0:0:0:0:
182,192,85253,1,8,0:0:0:0:
109,192,85253,1,8,0:0:0:0:
36,192,85253,1,0,0:0:0:0:
256,192,85365,1,8,0:0:0:0:
329,192,85477,1,8,0:0:0:0:
402,192,85589,1,8,0:0:0:0:
475,192,85701,1,8,0:0:0:0:
402,192,85813,1,8,0:0:0:0:
329,192,85925,1,8,0:0:0:0:
256,192,86037,1,8,0:0:0:0:
182,192,86149,1,8,0:0:0:0:
109,192,86149,1,0,0:0:0:0:
36,192,86149,1,0,0:0:0:0:
475,192,86149,1,4,0:0:0:0:
256,192,86261,1,8,0:0:0:0:
329,192,86372,1,8,0:0:0:0:
402,192,86484,1,8,0:0:0:0:
475,192,86596,1,8,0:0:0:0:
402,192,86708,1,8,0:0:0:0:
329,192,86820,1,8,0:0:0:0:
256,192,86932,1,8,0:0:0:0:
182,192,87044,1,8,0:0:0:0:
475,192,87044,1,4,0:0:0:0:
402,192,87044,1,0,0:0:0:0:
36,192,87044,1,0,0:0:0:0:
109,192,87156,1,8,0:0:0:0:
182,192,87268,1,8,0:0:0:0:
109,192,87380,1,8,0:0:0:0:
182,192,87492,1,8,0:0:0:0:
109,192,87604,1,8,0:0:0:0:
182,192,87716,1,8,0:0:0:0:
109,192,87828,1,8,0:0:0:0:
182,192,87940,1,8,0:0:0:0:
475,192,87940,1,4,0:0:0:0:
402,192,87940,1,0,0:0:0:0:
36,192,87940,1,0,0:0:0:0:
256,192,88052,1,8,0:0:0:0:
329,192,88164,1,8,0:0:0:0:
256,192,88275,1,8,0:0:0:0:
182,192,88387,1,8,0:0:0:0:
109,192,88499,1,8,0:0:0:0:
36,192,88611,1,8,0:0:0:0:
109,192,88723,1,8,0:0:0:0:
182,192,88835,1,8,0:0:0:0:
329,192,88835,1,0,0:0:0:0:
402,192,88835,1,0,0:0:0:0:
475,192,88835,1,4,0:0:0:0:
109,192,88947,1,8,0:0:0:0:
36,192,89059,1,8,0:0:0:0:
109,192,89171,1,8,0:0:0:0:
182,192,89283,1,8,0:0:0:0:
402,192,89283,1,0,0:0:0:0:
475,192,89283,1,8,0:0:0:0:
256,192,89395,1,8,0:0:0:0:
36,192,89395,1,0,0:0:0:0:
109,192,89395,1,8,0:0:0:0:
329,192,89507,1,0,0:0:0:0:
402,192,89507,1,0,0:0:0:0:
475,192,89507,1,4,0:0:0:0:
256,192,89619,1,8,0:0:0:0:
36,192,89619,1,0,0:0:0:0:
109,192,89619,1,8,0:0:0:0:
182,192,89731,1,8,0:0:0:0:
329,192,89787,1,8,0:0:0:0:
402,192,89787,1,0,0:0:0:0:
475,192,90011,1,0,0:0:0:0:
402,192,90011,1,8,0:0:0:0:
182,192,90234,1,8,0:0:0:0:
256,192,90234,1,0,0:0:0:0:
36,192,90458,1,8,0:0:0:0:
109,192,90458,1,0,0:0:0:0:
182,192,90682,1,8,0:0:0:0:
329,192,90682,1,0,0:0:0:0:
256,192,90906,1,8,0:0:0:0:
475,192,90906,1,0,0:0:0:0:
36,192,91130,1,8,0:0:0:0:
402,192,91130,1,0,0:0:0:0:
109,192,91354,128,2,91578:0:0:0:0:
329,192,91354,128,8,91578:0:0:0:0:
36,192,91578,128,2,91802:0:0:0:0:
475,192,91578,128,8,91802:0:0:0:0:
256,192,91802,1,0,0:0:0:0:
182,192,91802,1,8,0:0:0:0:
109,192,91914,1,8,0:0:0:0:
329,192,91914,1,0,0:0:0:0:
36,192,92025,1,8,0:0:0:0:
402,192,92025,1,0,0:0:0:0:
256,192,92137,1,0,0:0:0:0:
182,192,92137,1,8,0:0:0:0:
109,192,92249,1,8,0:0:0:0:
329,192,92249,1,0,0:0:0:0:
36,192,92361,1,8,0:0:0:0:
475,192,92361,1,0,0:0:0:0:
182,192,92473,1,8,0:0:0:0:
402,192,92473,1,0,0:0:0:0:
109,192,92585,1,8,0:0:0:0:
256,192,92585,1,0,0:0:0:0:
475,192,92697,1,0,0:0:0:0:
36,192,92697,1,8,0:0:0:0:
329,192,92809,1,0,0:0:0:0:
182,192,92809,1,8,0:0:0:0:
109,192,92921,1,8,0:0:0:0:
402,192,92921,1,0,0:0:0:0:
256,192,93033,1,8,0:0:0:0:
475,192,93033,1,0,0:0:0:0:
329,192,93145,128,8,93369:0:0:0:0:
182,192,93145,128,2,93369:0:0:0:0:
402,192,93369,1,8,0:0:0:0:
475,192,93369,128,2,93481:0:0:0:0:
109,192,93481,1,8,0:0:0:0:
36,192,93481,128,2,93593:0:0:0:0:
329,192,93593,1,8,0:0:0:0:
402,192,93593,128,2,93705:0:0:0:0:
182,192,93705,1,8,0:0:0:0:
109,192,93705,128,2,93817:0:0:0:0:
402,192,93817,1,8,0:0:0:0:
475,192,93817,128,2,93928:0:0:0:0:
109,192,93928,1,8,0:0:0:0:
36,192,93928,128,2,94040:0:0:0:0:
182,192,94040,1,8,0:0:0:0:
329,192,94040,128,2,94152:0:0:0:0:
402,192,94152,1,8,0:0:0:0:
109,192,94152,128,2,94264:0:0:0:0:
36,192,94264,1,8,0:0:0:0:
475,192,94264,128,2,94376:0:0:0:0:
402,192,94376,1,8,0:0:0:0:
109,192,94376,128,2,94488:0:0:0:0:
182,192,94488,1,8,0:0:0:0:
329,192,94488,128,2,94600:0:0:0:0:
475,192,94600,1,8,0:0:0:0:
109,192,94600,128,2,94712:0:0:0:0:
329,192,94712,128,2,94824:0:0:0:0:
256,192,94712,1,8,0:0:0:0:
402,192,94824,1,8,0:0:0:0:
36,192,94824,128,2,94936:0:0:0:0:
182,192,94936,128,2,95048:0:0:0:0:
109,192,94936,1,8,0:0:0:0:
475,192,95048,1,8,0:0:0:0:
329,192,95048,128,2,95160:0:0:0:0:
36,192,95160,1,8,0:0:0:0:
402,192,95160,128,2,95272:0:0:0:0:
256,192,95272,1,8,0:0:0:0:
182,192,95272,128,2,95384:0:0:0:0:
329,192,95384,1,8,0:0:0:0:
475,192,95384,128,2,95496:0:0:0:0:
109,192,95496,1,8,0:0:0:0:
36,192,95496,128,2,95608:0:0:0:0:
256,192,95608,1,8,0:0:0:0:
402,192,95608,128,2,95720:0:0:0:0:
475,192,95720,1,8,0:0:0:0:
182,192,95720,128,2,95831:0:0:0:0:
36,192,95831,1,8,0:0:0:0:
329,192,95831,128,2,95943:0:0:0:0:
475,192,95943,1,8,0:0:0:0:
109,192,95943,128,2,96055:0:0:0:0:
182,192,96055,1,8,0:0:0:0:
256,192,96055,128,2,96167:0:0:0:0:
402,192,96167,1,8,0:0:0:0:
329,192,96167,128,2,96279:0:0:0:0:
36,192,96279,1,8,0:0:0:0:
109,192,96279,128,2,96391:0:0:0:0:
256,192,96391,1,8,0:0:0:0:
182,192,96391,128,2,96503:0:0:0:0:
402,192,96503,1,8,0:0:0:0:
475,192,96503,128,2,96615:0:0:0:0:
109,192,96615,1,8,0:0:0:0:
36,192,96615,128,2,96727:0:0:0:0:
256,192,96727,1,8,0:0:0:0:
329,192,96727,128,0,96839:0:0:0:0:
182,192,96839,1,8,0:0:0:0:
109,192,96839,128,0,96951:0:0:0:0:
256,192,96951,128,2,98742:0:0:0:0:
36,192,97119,1,4,0:0:0:0:
475,192,97119,1,0,0:0:0:0:
402,192,97119,1,0,0:0:0:0:
329,192,97343,1,8,0:0:0:0:
182,192,97455,1,0,0:0:0:0:
36,192,97455,1,8,0:0:0:0:
475,192,97567,1,0,0:0:0:0:
329,192,97567,1,0,0:0:0:0:
109,192,97567,1,4,0:0:0:0:
402,192,97790,1,0,0:0:0:0:
36,192,97790,1,8,0:0:0:0:
36,192,98014,1,4,0:0:0:0:
329,192,98014,1,0,0:0:0:0:
182,192,98014,1,0,0:0:0:0:
475,192,98126,1,0,0:0:0:0:
402,192,98126,1,8,0:0:0:0:
36,192,98238,1,8,0:0:0:0:
109,192,98350,1,8,0:0:0:0:
475,192,98462,1,0,0:0:0:0:
402,192,98462,1,0,0:0:0:0:
329,192,98462,1,4,0:0:0:0:
109,192,98686,1,8,0:0:0:0:
402,192,98686,1,0,0:0:0:0:
182,192,98742,128,2,99637:0:0:0:0:
329,192,98910,1,0,0:0:0:0:
256,192,98910,1,4,0:0:0:0:
475,192,98910,1,0,0:0:0:0:
402,192,99134,1,8,0:0:0:0:
109,192,99246,1,0,0:0:0:0:
36,192,99246,1,8,0:0:0:0:
475,192,99358,1,0,0:0:0:0:
402,192,99358,1,0,0:0:0:0:
256,192,99358,1,4,0:0:0:0:
329,192,99581,1,8,0:0:0:0:
475,192,99637,128,2,100533:0:0:0:0:
256,192,99805,1,0,0:0:0:0:
109,192,99805,1,0,0:0:0:0:
36,192,99805,1,4,0:0:0:0:
182,192,99917,1,8,0:0:0:0:
329,192,99917,1,0,0:0:0:0:
256,192,100029,1,8,0:0:0:0:
402,192,100141,1,0,0:0:0:0:
329,192,100141,1,8,0:0:0:0:
182,192,100253,1,0,0:0:0:0:
109,192,100253,1,0,0:0:0:0:
36,192,100253,1,4,0:0:0:0:
329,192,100477,1,0,0:0:0:0:
256,192,100477,1,8,0:0:0:0:
109,192,100533,128,2,101428:0:0:0:0:
402,192,100701,1,0,0:0:0:0:
182,192,100701,1,0,0:0:0:0:
36,192,100701,1,4,0:0:0:0:
256,192,100925,1,8,0:0:0:0:
475,192,101037,1,0,0:0:0:0:
329,192,101037,1,8,0:0:0:0:
402,192,101149,1,0,0:0:0:0:
256,192,101149,1,0,0:0:0:0:
182,192,101149,1,4,0:0:0:0:
475,192,101372,1,0,0:0:0:0:
402,192,101372,1,8,0:0:0:0:
329,192,101428,128,2,102324:0:0:0:0:
256,192,101596,1,0,0:0:0:0:
182,192,101596,1,0,0:0:0:0:
36,192,101596,1,4,0:0:0:0:
109,192,101708,1,8,0:0:0:0:
475,192,101708,1,0,0:0:0:0:
36,192,101820,1,8,0:0:0:0:
256,192,101932,1,0,0:0:0:0:
109,192,101932,1,8,0:0:0:0:
475,192,102044,1,0,0:0:0:0:
402,192,102044,1,0,0:0:0:0:
182,192,102044,1,4,0:0:0:0:
36,192,102268,1,8,0:0:0:0:
109,192,102268,1,0,0:0:0:0:
182,192,102324,128,2,102772:0:0:0:0:
475,192,102492,1,0,0:0:0:0:
256,192,102492,1,4,0:0:0:0:
402,192,102492,1,0,0:0:0:0:
36,192,102716,1,8,0:0:0:0:
256,192,102772,128,2,103220:0:0:0:0:
475,192,102828,1,0,0:0:0:0:
402,192,102828,1,8,0:0:0:0:
182,192,102940,1,0,0:0:0:0:
109,192,102940,1,0,0:0:0:0:
36,192,102940,1,4,0:0:0:0:
329,192,103164,1,8,0:0:0:0:
402,192,103164,1,0,0:0:0:0:
475,192,103220,128,2,104115:0:0:0:0:
329,192,103387,1,0,0:0:0:0:
109,192,103387,1,0,0:0:0:0:
36,192,103387,1,4,0:0:0:0:
182,192,103499,1,8,0:0:0:0:
256,192,103499,1,0,0:0:0:0:
402,192,103611,1,8,0:0:0:0:
109,192,103723,1,0,0:0:0:0:
36,192,103723,1,8,0:0:0:0:
329,192,103835,1,0,0:0:0:0:
256,192,103835,1,0,0:0:0:0:
182,192,103835,1,4,0:0:0:0:
402,192,104059,1,0,0:0:0:0:
109,192,104059,1,8,0:0:0:0:
36,192,104115,128,2,104787:0:0:0:0:
329,192,104283,1,0,0:0:0:0:
256,192,104283,1,0,0:0:0:0:
182,192,104283,1,4,0:0:0:0:
109,192,104507,1,8,0:0:0:0:
256,192,104619,1,0,0:0:0:0:
182,192,104619,1,8,0:0:0:0:
402,192,104731,1,0,0:0:0:0:
109,192,104731,1,4,0:0:0:0:
475,192,104731,1,0,0:0:0:0:
329,192,104787,1,8,0:0:0:0:
256,192,104899,1,8,0:0:0:0:
475,192,104955,1,0,0:0:0:0:
402,192,104955,1,8,0:0:0:0:
182,192,105011,128,2,105906:0:0:0:0:
256,192,105178,1,0,0:0:0:0:
109,192,105178,1,0,0:0:0:0:
36,192,105178,1,4,0:0:0:0:
329,192,105290,1,8,0:0:0:0:
402,192,105290,1,0,0:0:0:0:
475,192,105402,1,8,0:0:0:0:
402,192,105514,1,0,0:0:0:0:
329,192,105514,1,8,0:0:0:0:
256,192,105626,1,0,0:0:0:0:
109,192,105626,1,0,0:0:0:0:
36,192,105626,1,4,0:0:0:0:
475,192,105850,1,0,0:0:0:0:
329,192,105850,1,8,0:0:0:0:
402,192,105906,128,2,106578:0:0:0:0:
256,192,106074,1,0,0:0:0:0:
109,192,106074,1,0,0:0:0:0:
36,192,106074,1,4,0:0:0:0:
182,192,106298,1,8,0:0:0:0:
329,192,106410,1,0,0:0:0:0:
36,192,106410,1,8,0:0:0:0:
475,192,106522,1,0,0:0:0:0:
256,192,106522,1,0,0:0:0:0:
182,192,106522,1,4,0:0:0:0:
36,192,106578,1,8,0:0:0:0:
109,192,106690,1,8,0:0:0:0:
475,192,106746,1,0,0:0:0:0:
329,192,106746,1,8,0:0:0:0:
182,192,106802,128,2,107697:0:0:0:0:
402,192,106970,1,0,0:0:0:0:
109,192,106970,1,0,0:0:0:0:
36,192,106970,1,4,0:0:0:0:
329,192,107081,1,0,0:0:0:0:
256,192,107081,1,8,0:0:0:0:
475,192,107193,1,8,0:0:0:0:
402,192,107305,1,0,0:0:0:0:
36,192,107305,1,8,0:0:0:0:
329,192,107417,1,0,0:0:0:0:
256,192,107417,1,4,0:0:0:0:
475,192,107417,1,0,0:0:0:0:
109,192,107641,1,0,0:0:0:0:
36,192,107641,1,8,0:0:0:0:
329,192,107697,128,2,108033:0:0:0:0:
402,192,107865,1,0,0:0:0:0:
256,192,107865,1,0,0:0:0:0:
36,192,107865,1,4,0:0:0:0:
475,192,108033,128,2,108369:0:0:0:0:
109,192,108089,1,8,0:0:0:0:
402,192,108201,1,0,0:0:0:0:
182,192,108201,1,8,0:0:0:0:
329,192,108313,1,0,0:0:0:0:
109,192,108313,1,0,0:0:0:0:
36,192,108313,1,4,0:0:0:0:
256,192,108369,128,2,108593:0:0:0:0:
402,192,108537,1,8,0:0:0:0:
36,192,108593,128,2,108928:0:0:0:0:
475,192,108761,1,0,0:0:0:0:
329,192,108761,1,0,0:0:0:0:
182,192,108761,1,4,0:0:0:0:
402,192,108872,1,0,0:0:0:0:
109,192,108872,1,8,0:0:0:0:
256,192,108928,128,2,109264:0:0:0:0:
329,192,108984,1,8,0:0:0:0:
182,192,109096,1,8,0:0:0:0:
402,192,109096,1,0,0:0:0:0:
109,192,109208,1,0,0:0:0:0:
36,192,109208,1,4,0:0:0:0:
329,192,109208,1,0,0:0:0:0:
475,192,109264,128,0,109488:0:0:0:0:
256,192,109432,1,8,0:0:0:0:
36,192,109432,1,4,0:0:0:0:
109,192,109432,1,0,0:0:0:0:
182,192,109544,1,8,0:0:0:0:
329,192,109656,1,0,0:0:0:0:
256,192,109656,1,0,0:0:0:0:
109,192,109656,1,8,0:0:0:0:
402,192,109656,1,0,0:0:0:0:
36,192,109768,1,8,0:0:0:0:
329,192,109880,1,4,0:0:0:0:
402,192,109880,1,0,0:0:0:0:
182,192,109880,1,8,0:0:0:0:
475,192,109880,1,0,0:0:0:0:
36,192,109992,1,8,0:0:0:0:
256,192,109992,1,8,0:0:0:0:
109,192,109992,1,0,0:0:0:0:
329,192,110104,1,4,0:0:0:0:
475,192,110104,1,0,0:0:0:0:
182,192,110104,1,8,0:0:0:0:
256,192,110216,1,8,0:0:0:0:
109,192,110216,1,0,0:0:0:0:
36,192,110216,1,8,0:0:0:0:
475,192,110328,1,0,0:0:0:0:
402,192,110328,1,0,0:0:0:0:
182,192,110328,1,8,0:0:0:0:
329,192,110328,1,4,0:0:0:0:
475,192,110440,1,0,0:0:0:0:
329,192,110440,1,4,0:0:0:0:
36,192,110440,1,8,0:0:0:0:
402,192,110440,1,0,0:0:0:0:
329,192,110552,1,8,0:0:0:0:
475,192,110552,1,0,0:0:0:0:
182,192,110552,1,8,0:0:0:0:
402,192,110664,1,0,0:0:0:0:
329,192,110664,1,4,0:0:0:0:
36,192,110664,1,8,0:0:0:0:
475,192,110664,1,0,0:0:0:0:
182,192,110775,1,8,0:0:0:0:
402,192,110887,1,0,0:0:0:0:
329,192,110887,1,4,0:0:0:0:
36,192,110887,1,8,0:0:0:0:
475,192,110887,1,0,0:0:0:0:
329,192,110999,1,8,0:0:0:0:
475,192,110999,1,0,0:0:0:0:
182,192,110999,1,8,0:0:0:0:
36,192,111111,1,8,0:0:0:0:
182,192,111223,1,8,0:0:0:0:
256,192,111223,128,2,113070:0:0:0:0:
329,192,111223,1,8,0:0:0:0:
475,192,111223,1,0,0:0:0:0:
402,192,111447,1,0,0:0:0:0:
36,192,111447,1,4,0:0:0:0:
109,192,111447,1,0,0:0:0:0:
329,192,111671,1,8,0:0:0:0:
402,192,111783,1,8,0:0:0:0:
475,192,111783,1,0,0:0:0:0:
36,192,111895,1,4,0:0:0:0:
109,192,111895,1,0,0:0:0:0:
182,192,111895,1,0,0:0:0:0:
475,192,112119,1,0,0:0:0:0:
329,192,112119,1,8,0:0:0:0:
182,192,112343,1,0,0:0:0:0:
36,192,112343,1,4,0:0:0:0:
402,192,112343,1,0,0:0:0:0:
329,192,112455,1,0,0:0:0:0:
109,192,112455,1,8,0:0:0:0:
475,192,112567,1,8,0:0:0:0:
182,192,112678,1,8,0:0:0:0:
402,192,112678,1,0,0:0:0:0:
36,192,112790,1,4,0:0:0:0:
109,192,112790,1,0,0:0:0:0:
329,192,112790,1,0,0:0:0:0:
402,192,113014,1,8,0:0:0:0:
475,192,113014,1,0,0:0:0:0:
109,192,113070,128,2,113966:0:0:0:0:
475,192,113238,1,0,0:0:0:0:
182,192,113238,1,4,0:0:0:0:
329,192,113238,1,0,0:0:0:0:
402,192,113462,1,8,0:0:0:0:
475,192,113574,1,0,0:0:0:0:
256,192,113574,1,8,0:0:0:0:
182,192,113686,1,4,0:0:0:0:
329,192,113686,1,0,0:0:0:0:
402,192,113686,1,0,0:0:0:0:
402,192,113910,1,8,0:0:0:0:
475,192,113910,1,0,0:0:0:0:
329,192,113966,128,2,114861:0:0:0:0:
36,192,114134,1,4,0:0:0:0:
182,192,114134,1,0,0:0:0:0:
256,192,114134,1,0,0:0:0:0:
475,192,114246,1,0,0:0:0:0:
109,192,114246,1,8,0:0:0:0:
182,192,114358,1,8,0:0:0:0:
475,192,114470,1,0,0:0:0:0:
109,192,114470,1,8,0:0:0:0:
256,192,114581,1,0,0:0:0:0:
182,192,114581,1,0,0:0:0:0:
36,192,114581,1,4,0:0:0:0:
256,192,114805,1,0,0:0:0:0:
109,192,114805,1,8,0:0:0:0:
182,192,114861,128,2,115757:0:0:0:0:
36,192,115029,1,4,0:0:0:0:
402,192,115029,1,0,0:0:0:0:
475,192,115029,1,0,0:0:0:0:
256,192,115253,1,8,0:0:0:0:
475,192,115365,1,0,0:0:0:0:
402,192,115365,1,8,0:0:0:0:
36,192,115477,1,4,0:0:0:0:
109,192,115477,1,0,0:0:0:0:
329,192,115477,1,0,0:0:0:0:
402,192,115701,1,0,0:0:0:0:
256,192,115701,1,8,0:0:0:0:
329,192,115757,128,2,116652:0:0:0:0:
36,192,115925,1,8,0:0:0:0:
402,192,115925,1,0,0:0:0:0:
475,192,115925,1,0,0:0:0:0:
109,192,116037,1,8,0:0:0:0:
256,192,116037,1,0,0:0:0:0:
475,192,116149,1,8,0:0:0:0:
182,192,116261,1,0,0:0:0:0:
36,192,116261,1,8,0:0:0:0:
256,192,116372,1,0,0:0:0:0:
109,192,116372,1,4,0:0:0:0:
402,192,116372,1,0,0:0:0:0:
36,192,116596,1,8,0:0:0:0:
182,192,116596,1,0,0:0:0:0:
109,192,116652,128,2,117100:0:0:0:0:
256,192,116820,1,4,0:0:0:0:
402,192,116820,1,0,0:0:0:0:
475,192,116820,1,0,0:0:0:0:
329,192,117044,1,8,0:0:0:0:
402,192,117100,128,2,117548:0:0:0:0:
182,192,117156,1,8,0:0:0:0:
256,192,117156,1,0,0:0:0:0:
329,192,117268,1,0,0:0:0:0:
475,192,117268,1,0,0:0:0:0:
36,192,117268,1,4,0:0:0:0:
329,192,117492,1,0,0:0:0:0:
182,192,117492,1,8,0:0:0:0:
256,192,117548,128,2,118443:0:0:0:0:
475,192,117716,1,0,0:0:0:0:
109,192,117716,1,0,0:0:0:0:
36,192,117716,1,4,0:0:0:0:
329,192,117828,1,8,0:0:0:0:
402,192,117828,1,0,0:0:0:0:
109,192,117940,1,8,0:0:0:0:
182,192,117940,1,0,0:0:0:0:
36,192,118052,1,4,0:0:0:0:
402,192,118052,1,0,0:0:0:0:
475,192,118052,1,0,0:0:0:0:
329,192,118164,1,8,0:0:0:0:
475,192,118275,1,0,0:0:0:0:
402,192,118275,1,8,0:0:0:0:
36,192,118387,1,4,0:0:0:0:
109,192,118387,1,0,0:0:0:0:
182,192,118387,1,0,0:0:0:0:
329,192,118443,128,2,119115:0:0:0:0:
182,192,118611,1,8,0:0:0:0:
475,192,118611,1,0,0:0:0:0:
36,192,118835,1,4,0:0:0:0:
109,192,118835,1,0,0:0:0:0:
402,192,118835,1,0,0:0:0:0:
256,192,119115,1,8,0:0:0:0:
402,192,119171,1,8,0:0:0:0:
475,192,119171,1,0,0:0:0:0:
182,192,119227,1,8,0:0:0:0:
329,192,119283,1,8,0:0:0:0:
109,192,119339,128,2,120234:0:0:0:0:
256,192,119395,1,8,0:0:0:0:
402,192,119395,1,0,0:0:0:0:
329,192,119507,1,8,0:0:0:0:
182,192,119619,1,8,0:0:0:0:
475,192,119619,1,0,0:0:0:0:
256,192,119731,1,4,0:0:0:0:
329,192,119731,1,0,0:0:0:0:
402,192,119731,1,0,0:0:0:0:
475,192,119955,1,8,0:0:0:0:
256,192,120178,1,8,0:0:0:0:
329,192,120178,1,0,0:0:0:0:
402,192,120234,128,2,120906:0:0:0:0:
36,192,120402,1,8,0:0:0:0:
182,192,120402,1,0,0:0:0:0:
109,192,120626,1,4,0:0:0:0:
256,192,120626,1,0,0:0:0:0:
475,192,120626,1,0,0:0:0:0:
329,192,120850,1,8,0:0:0:0:
36,192,120906,1,8,0:0:0:0:
109,192,120962,1,4,0:0:0:0:
256,192,120962,1,0,0:0:0:0:
475,192,120962,1,0,0:0:0:0:
182,192,121018,1,8,0:0:0:0:
402,192,121074,1,8,0:0:0:0:
329,192,121130,128,2,122025:0:0:0:0:
182,192,121186,1,0,0:0:0:0:
36,192,121186,1,8,0:0:0:0:
109,192,121298,1,8,0:0:0:0:
256,192,121410,1,8,0:0:0:0:
475,192,121410,1,0,0:0:0:0:
36,192,121522,1,4,0:0:0:0:
182,192,121522,1,0,0:0:0:0:
402,192,121522,1,0,0:0:0:0:
109,192,121746,1,8,0:0:0:0:
182,192,121970,1,0,0:0:0:0:
36,192,121970,1,4,0:0:0:0:
475,192,121970,1,0,0:0:0:0:
402,192,122025,128,2,122361:0:0:0:0:
109,192,122193,1,8,0:0:0:0:
256,192,122361,128,2,122697:0:0:0:0:
329,192,122417,1,0,0:0:0:0:
182,192,122417,1,0,0:0:0:0:
36,192,122417,1,4,0:0:0:0:
475,192,122641,1,8,0:0:0:0:
109,192,122697,128,2,122921:0:0:0:0:
329,192,122753,1,8,0:0:0:0:
402,192,122753,1,0,0:0:0:0:
182,192,122865,1,8,0:0:0:0:
475,192,122921,128,2,123257:0:0:0:0:
329,192,123257,1,8,0:0:0:0:
402,192,123257,1,0,0:0:0:0:
36,192,123257,128,2,123593:0:0:0:0:
109,192,123313,1,4,0:0:0:0:
182,192,123313,1,0,0:0:0:0:
256,192,123313,1,0,0:0:0:0:
329,192,123537,1,8,0:0:0:0:
256,192,123593,128,2,123761:0:0:0:0:
109,192,123761,1,8,0:0:0:0:
475,192,123761,1,0,0:0:0:0:
36,192,123872,1,8,0:0:0:0:
182,192,123872,1,0,0:0:0:0:
329,192,123872,1,0,0:0:0:0:
256,192,123984,1,0,0:0:0:0:
109,192,123984,1,8,0:0:0:0:
475,192,123984,1,0,0:0:0:0:
329,192,124096,1,8,0:0:0:0:
36,192,124208,1,4,0:0:0:0:
402,192,124208,1,0,0:0:0:0:
475,192,124208,1,0,0:0:0:0:
182,192,124208,1,0,0:0:0:0:
329,192,124320,1,8,0:0:0:0:
109,192,124432,1,8,0:0:0:0:
475,192,124432,1,0,0:0:0:0:
402,192,124544,1,0,0:0:0:0:
36,192,124544,1,4,0:0:0:0:
329,192,124544,1,0,0:0:0:0:
109,192,124656,1,4,0:0:0:0:
475,192,124656,1,0,0:0:0:0:
182,192,124656,1,0,0:0:0:0:
329,192,124768,1,0,0:0:0:0:
256,192,124768,1,0,0:0:0:0:
36,192,124768,1,4,0:0:0:0:
182,192,124880,1,8,0:0:0:0:
329,192,124992,1,0,0:0:0:0:
475,192,124992,1,0,0:0:0:0:
36,192,124992,1,4,0:0:0:0:
256,192,125104,1,0,0:0:0:0:
402,192,125104,1,0,0:0:0:0:
182,192,125104,1,4,0:0:0:0:
475,192,125216,1,0,0:0:0:0:
329,192,125216,1,0,0:0:0:0:
36,192,125216,1,4,0:0:0:0:
256,192,125328,1,0,0:0:0:0:
402,192,125328,1,0,0:0:0:0:
182,192,125328,1,4,0:0:0:0:
475,192,125440,1,0,0:0:0:0:
329,192,125440,1,0,0:0:0:0:
36,192,125440,1,4,0:0:0:0:
182,192,125552,1,4,0:0:0:0:
402,192,125552,1,0,0:0:0:0:
256,192,125552,1,8,0:0:0:0:
109,192,125663,1,8,0:0:0:0:
475,192,125663,1,0,0:0:0:0:
36,192,125775,1,8,0:0:0:0:
402,192,125775,1,0,0:0:0:0:
109,192,125887,1,8,0:0:0:0:
329,192,125887,1,0,0:0:0:0:
182,192,125999,1,8,0:0:0:0:
402,192,125999,1,0,0:0:0:0:
256,192,126111,1,8,0:0:0:0:
475,192,126111,1,0,0:0:0:0:
36,192,126223,1,8,0:0:0:0:
329,192,126223,1,0,0:0:0:0:
109,192,126335,1,8,0:0:0:0:
402,192,126335,1,0,0:0:0:0:
329,192,126447,1,0,0:0:0:0:
36,192,126447,1,8,0:0:0:0:
109,192,126559,1,8,0:0:0:0:
475,192,126559,1,0,0:0:0:0:
256,192,126671,1,0,0:0:0:0:
36,192,126671,1,8,0:0:0:0:
402,192,126783,1,0,0:0:0:0:
182,192,126783,1,8,0:0:0:0:
329,192,126895,1,0,0:0:0:0:
109,192,126895,1,8,0:0:0:0:
402,192,127007,1,0,0:0:0:0:
182,192,127007,1,8,0:0:0:0:
475,192,127119,1,0,0:0:0:0:
109,192,127119,1,8,0:0:0:0:
402,192,127231,1,0,0:0:0:0:
36,192,127231,1,8,0:0:0:0:
329,192,127343,1,0,0:0:0:0:
109,192,127343,1,8,0:0:0:0:
475,192,127454,1,0,0:0:0:0:
182,192,127454,1,8,0:0:0:0:
402,192,127566,1,0,0:0:0:0:
109,192,127566,1,8,0:0:0:0:
329,192,127678,1,0,0:0:0:0:
36,192,127678,1,8,0:0:0:0:
475,192,127790,1,0,0:0:0:0:
182,192,127790,1,8,0:0:0:0:
402,192,127902,1,0,0:0:0:0:
109,192,127902,1,8,0:0:0:0:
329,192,128014,1,0,0:0:0:0:
36,192,128014,1,8,0:0:0:0:
475,192,128126,1,0,0:0:0:0:
182,192,128126,1,8,0:0:0:0:
402,192,128238,1,0,0:0:0:0:
109,192,128238,1,8,0:0:0:0:
36,192,128350,1,8,0:0:0:0:
329,192,128350,1,0,0:0:0:0:
109,192,128462,1,8,0:0:0:0:
402,192,128462,1,0,0:0:0:0:
182,192,128574,1,8,0:0:0:0:
475,192,128574,1,0,0:0:0:0:
36,192,128686,1,8,0:0:0:0:
329,192,128686,1,0,0:0:0:0:
109,192,128798,1,8,0:0:0:0:
402,192,128798,1,0,0:0:0:0:
182,192,128910,1,8,0:0:0:0:
475,192,128910,1,0,0:0:0:0:
402,192,129022,1,0,0:0:0:0:
109,192,129022,1,8,0:0:0:0:
329,192,129134,1,0,0:0:0:0:
36,192,129134,1,8,0:0:0:0:
475,192,129246,1,0,0:0:0:0:
182,192,129246,1,8,0:0:0:0:
36,192,129357,1,8,0:0:0:0:
329,192,129357,1,0,0:0:0:0:
475,192,129469,1,0,0:0:0:0:
182,192,129469,1,8,0:0:0:0:
329,192,129581,1,0,0:0:0:0:
36,192,129581,1,8,0:0:0:0:
475,192,129693,1,0,0:0:0:0:
182,192,129693,1,8,0:0:0:0:
329,192,129805,1,0,0:0:0:0:
36,192,129805,1,8,0:0:0:0:
475,192,129917,1,0,0:0:0:0:
182,192,129917,1,8,0:0:0:0:
402,192,130029,1,0,0:0:0:0:
109,192,130029,1,8,0:0:0:0:
329,192,130141,1,0,0:0:0:0:
36,192,130141,1,8,0:0:0:0:
256,192,130253,1,8,0:0:0:0:
475,192,130253,1,0,0:0:0:0:
402,192,130365,1,0,0:0:0:0:
182,192,130365,1,8,0:0:0:0:
109,192,130477,1,8,0:0:0:0:
329,192,130477,1,0,0:0:0:0:
36,192,130589,1,8,0:0:0:0:
256,192,130589,1,0,0:0:0:0:
475,192,130589,1,0,0:0:0:0:
182,192,130701,1,8,0:0:0:0:
402,192,130701,1,0,0:0:0:0:
109,192,130813,1,8,0:0:0:0:
329,192,130813,1,0,0:0:0:0:
256,192,130925,128,0,131372:0:0:0:0:
36,192,130925,128,2,131372:0:0:0:0:
475,192,130925,1,0,0:0:0:0:
402,192,130925,1,8,0:0:0:0:
329,192,131149,1,0,0:0:0:0:
182,192,131149,1,4,0:0:0:0:
475,192,131149,1,0,0:0:0:0:
402,192,131372,128,0,131820:0:0:0:0:
109,192,131372,128,2,131820:0:0:0:0:
475,192,131372,1,8,0:0:0:0:
329,192,131484,1,0,0:0:0:0:
182,192,131484,1,8,0:0:0:0:
256,192,131596,1,0,0:0:0:0:
475,192,131596,1,0,0:0:0:0:
36,192,131596,1,4,0:0:0:0:
256,192,131820,128,2,132716:0:0:0:0:
475,192,131820,128,0,132716:0:0:0:0:
329,192,131820,1,0,0:0:0:0:
182,192,131820,1,8,0:0:0:0:
182,192,132044,1,0,0:0:0:0:
109,192,132044,1,4,0:0:0:0:
402,192,132044,1,0,0:0:0:0:
36,192,132156,1,8,0:0:0:0:
329,192,132156,1,0,0:0:0:0:
182,192,132268,1,8,0:0:0:0:
36,192,132380,1,8,0:0:0:0:
402,192,132380,1,0,0:0:0:0:
329,192,132492,1,0,0:0:0:0:
109,192,132492,1,4,0:0:0:0:
182,192,132492,1,0,0:0:0:0:
36,192,132716,128,2,133611:0:0:0:0:
329,192,132716,128,0,133611:0:0:0:0:
402,192,132716,1,0,0:0:0:0:
109,192,132716,1,8,0:0:0:0:
182,192,132940,1,4,0:0:0:0:
475,192,132940,1,0,0:0:0:0:
402,192,132940,1,0,0:0:0:0:
109,192,133275,1,8,0:0:0:0:
256,192,133275,1,0,0:0:0:0:
402,192,133387,1,0,0:0:0:0:
182,192,133387,1,4,0:0:0:0:
475,192,133387,1,0,0:0:0:0:
475,192,133611,128,0,134507:0:0:0:0:
256,192,133611,128,2,134507:0:0:0:0:
402,192,133611,1,0,0:0:0:0:
109,192,133611,1,8,0:0:0:0:
182,192,133835,1,0,0:0:0:0:
109,192,133835,1,0,0:0:0:0:
36,192,133835,1,4,0:0:0:0:
402,192,133947,1,0,0:0:0:0:
329,192,133947,1,8,0:0:0:0:
36,192,134059,1,8,0:0:0:0:
402,192,134171,1,0,0:0:0:0:
329,192,134171,1,8,0:0:0:0:
182,192,134283,1,0,0:0:0:0:
109,192,134283,1,0,0:0:0:0:
36,192,134283,1,4,0:0:0:0:
402,192,134507,128,0,134843:0:0:0:0:
182,192,134507,128,2,134843:0:0:0:0:
109,192,134507,1,0,0:0:0:0:
36,192,134507,1,8,0:0:0:0:
475,192,134731,1,0,0:0:0:0:
256,192,134731,1,0,0:0:0:0:
36,192,134731,1,4,0:0:0:0:
329,192,134843,128,0,135178:0:0:0:0:
109,192,134843,128,2,135178:0:0:0:0:
475,192,134954,1,8,0:0:0:0:
182,192,135066,1,8,0:0:0:0:
402,192,135066,1,0,0:0:0:0:
256,192,135178,128,0,136298:0:0:0:0:
36,192,135178,128,2,136298:0:0:0:0:
182,192,135178,1,4,0:0:0:0:
402,192,135178,1,0,0:0:0:0:
475,192,135178,1,0,0:0:0:0:
329,192,135402,1,8,0:0:0:0:
475,192,135402,1,0,0:0:0:0:
109,192,135626,1,4,0:0:0:0:
402,192,135626,1,0,0:0:0:0:
475,192,135626,1,0,0:0:0:0:
329,192,135738,1,0,0:0:0:0:
182,192,135738,1,8,0:0:0:0:
475,192,135850,1,8,0:0:0:0:
329,192,135962,1,0,0:0:0:0:
182,192,135962,1,8,0:0:0:0:
402,192,136074,1,0,0:0:0:0:
475,192,136074,1,0,0:0:0:0:
109,192,136074,1,4,0:0:0:0:
182,192,136298,1,8,0:0:0:0:
475,192,136298,128,0,137193:0:0:0:0:
109,192,136298,128,2,137193:0:0:0:0:
329,192,136298,1,0,0:0:0:0:
402,192,136522,1,0,0:0:0:0:
36,192,136522,1,4,0:0:0:0:
256,192,136522,1,0,0:0:0:0:
329,192,136746,1,8,0:0:0:0:
256,192,136857,1,0,0:0:0:0:
182,192,136857,1,8,0:0:0:0:
402,192,136969,1,0,0:0:0:0:
329,192,136969,1,0,0:0:0:0:
36,192,136969,1,4,0:0:0:0:
329,192,137193,128,0,138089:0:0:0:0:
182,192,137193,128,2,138089:0:0:0:0:
256,192,137193,1,8,0:0:0:0:
402,192,137193,1,0,0:0:0:0:
36,192,137417,1,4,0:0:0:0:
402,192,137417,1,0,0:0:0:0:
475,192,137417,1,0,0:0:0:0:
256,192,137529,1,0,0:0:0:0:
109,192,137529,1,8,0:0:0:0:
402,192,137641,1,8,0:0:0:0:
109,192,137753,1,0,0:0:0:0:
36,192,137753,1,8,0:0:0:0:
475,192,137865,1,0,0:0:0:0:
402,192,137865,1,0,0:0:0:0:
256,192,137865,1,4,0:0:0:0:
36,192,138089,128,2,138425:0:0:0:0:
256,192,138089,128,0,138425:0:0:0:0:
475,192,138089,1,0,0:0:0:0:
109,192,138089,1,8,0:0:0:0:
182,192,138313,1,4,0:0:0:0:
475,192,138313,1,0,0:0:0:0:
402,192,138313,1,0,0:0:0:0:
329,192,138425,128,0,138760:0:0:0:0:
109,192,138425,128,2,138760:0:0:0:0:
402,192,138425,1,8,0:0:0:0:
475,192,138425,1,0,0:0:0:0:
182,192,138537,1,8,0:0:0:0:
475,192,138649,1,0,0:0:0:0:
36,192,138649,1,8,0:0:0:0:
402,192,138760,128,0,139880:0:0:0:0:
182,192,138760,128,2,139880:0:0:0:0:
256,192,138760,1,0,0:0:0:0:
475,192,138760,1,0,0:0:0:0:
36,192,138760,1,4,0:0:0:0:
329,192,138984,1,0,0:0:0:0:
256,192,138984,1,8,0:0:0:0:
475,192,139208,1,0,0:0:0:0:
109,192,139208,1,0,0:0:0:0:
36,192,139208,1,4,0:0:0:0:
256,192,139320,1,8,0:0:0:0:
329,192,139320,1,0,0:0:0:0:
475,192,139432,1,8,0:0:0:0:
329,192,139544,1,0,0:0:0:0:
109,192,139544,1,0,0:0:0:0:
36,192,139544,1,4,0:0:0:0:
256,192,139656,1,0,0:0:0:0:
109,192,139656,1,0,0:0:0:0:
36,192,139656,1,4,0:0:0:0:
329,192,139768,1,0,0:0:0:0:
109,192,139768,1,0,0:0:0:0:
36,192,139768,1,4,0:0:0:0:
36,192,139880,1,4,0:0:0:0:
256,192,139880,1,0,0:0:0:0:
109,192,139880,1,0,0:0:0:0:
475,192,139992,1,0,0:0:0:0:
329,192,139992,1,8,0:0:0:0:
182,192,140104,1,0,0:0:0:0:
36,192,140104,1,8,0:0:0:0:
475,192,140216,1,0,0:0:0:0:
329,192,140216,1,8,0:0:0:0:
182,192,140328,1,0,0:0:0:0:
36,192,140328,1,8,0:0:0:0:
402,192,140440,1,0,0:0:0:0:
109,192,140440,1,8,0:0:0:0:
329,192,140552,1,0,0:0:0:0:
36,192,140552,1,8,0:0:0:0:
402,192,140663,1,0,0:0:0:0:
109,192,140663,1,8,0:0:0:0:
475,192,140775,1,0,0:0:0:0:
182,192,140775,1,8,0:0:0:0:
402,192,140887,1,0,0:0:0:0:
109,192,140887,1,8,0:0:0:0:
329,192,140999,1,0,0:0:0:0:
36,192,140999,1,8,0:0:0:0:
475,192,140999,1,0,0:0:0:0:
256,192,141111,1,8,0:0:0:0:
402,192,141111,1,0,0:0:0:0:
182,192,141223,1,8,0:0:0:0:
329,192,141223,1,0,0:0:0:0:
109,192,141335,1,8,0:0:0:0:
256,192,141335,1,0,0:0:0:0:
36,192,141447,1,8,0:0:0:0:
182,192,141447,1,0,0:0:0:0:
109,192,141559,1,8,0:0:0:0:
475,192,141559,1,0,0:0:0:0:
182,192,141671,1,8,0:0:0:0:
402,192,141671,1,0,0:0:0:0:
475,192,141783,1,0,0:0:0:0:
109,192,141783,1,8,0:0:0:0:
36,192,141895,1,8,0:0:0:0:
402,192,141895,1,0,0:0:0:0:
109,192,142007,1,8,0:0:0:0:
475,192,142007,1,0,0:0:0:0:
329,192,142119,1,0,0:0:0:0:
182,192,142119,1,8,0:0:0:0:
402,192,142231,1,0,0:0:0:0:
109,192,142231,1,8,0:0:0:0:
475,192,142343,1,0,0:0:0:0:
36,192,142343,1,8,0:0:0:0:
109,192,142454,1,8,0:0:0:0:
402,192,142454,1,0,0:0:0:0:
329,192,142566,1,0,0:0:0:0:
182,192,142566,1,8,0:0:0:0:
402,192,142678,1,0,0:0:0:0:
109,192,142678,1,8,0:0:0:0:
36,192,142790,1,8,0:0:0:0:
475,192,142790,1,0,0:0:0:0:
402,192,142902,1,0,0:0:0:0:
109,192,142902,1,8,0:0:0:0:
329,192,143014,1,0,0:0:0:0:
182,192,143014,1,8,0:0:0:0:
402,192,143126,1,0,0:0:0:0:
109,192,143126,1,8,0:0:0:0:
475,192,143238,1,0,0:0:0:0:
36,192,143238,1,8,0:0:0:0:
402,192,143350,1,0,0:0:0:0:
109,192,143350,1,8,0:0:0:0:
329,192,143462,1,0,0:0:0:0:
182,192,143462,1,8,0:0:0:0:
475,192,143462,128,2,143685:0:0:0:0:
36,192,143573,1,8,0:0:0:0:
109,192,143685,1,8,0:0:0:0:
182,192,143797,1,8,0:0:0:0:
256,192,143909,128,2,144133:0:0:0:0:
109,192,143909,1,8,0:0:0:0:
36,192,144021,1,8,0:0:0:0:
475,192,144133,1,8,0:0:0:0:
402,192,144245,1,8,0:0:0:0:
36,192,144357,128,2,144581:0:0:0:0:
329,192,144357,1,8,0:0:0:0:
402,192,144469,1,8,0:0:0:0:
475,192,144581,1,8,0:0:0:0:
402,192,144693,1,8,0:0:0:0:
256,192,144805,128,2,145029:0:0:0:0:
109,192,144805,1,8,0:0:0:0:
402,192,144917,1,8,0:0:0:0:
109,192,145029,1,8,0:0:0:0:
402,192,145141,1,8,0:0:0:0:
475,192,145253,128,2,145476:0:0:0:0:
329,192,145253,1,8,0:0:0:0:
256,192,145364,1,8,0:0:0:0:
182,192,145476,1,8,0:0:0:0:
109,192,145588,1,8,0:0:0:0:
329,192,145700,128,2,145924:0:0:0:0:
36,192,145700,1,8,0:0:0:0:
109,192,145812,1,8,0:0:0:0:
182,192,145924,1,8,0:0:0:0:
256,192,146036,1,8,0:0:0:0:
182,192,146148,128,2,146372:0:0:0:0:
475,192,146148,1,8,0:0:0:0:
402,192,146260,1,8,0:0:0:0:
329,192,146372,1,8,0:0:0:0:
256,192,146484,1,8,0:0:0:0:
36,192,146596,128,2,146820:0:0:0:0:
329,192,146596,1,8,0:0:0:0:
402,192,146708,128,2,146820:0:0:0:0:
475,192,146820,128,2,147044:0:0:0:0:
182,192,147044,128,2,147267:0:0:0:0:
402,192,147156,1,8,0:0:0:0:
329,192,147267,1,8,0:0:0:0:
36,192,147379,1,8,0:0:0:0:
329,192,147491,128,2,147715:0:0:0:0:
109,192,147491,1,8,0:0:0:0:
182,192,147603,1,8,0:0:0:0:
109,192,147715,1,8,0:0:0:0:
36,192,147827,1,8,0:0:0:0:
475,192,147939,128,2,148163:0:0:0:0:
109,192,147939,1,8,0:0:0:0:
182,192,148051,1,8,0:0:0:0:
256,192,148163,128,2,148331:0:0:0:0:
36,192,148387,128,2,148611:0:0:0:0:
402,192,148387,128,2,148555:0:0:0:0:
329,192,148611,1,8,0:0:0:0:
256,192,148723,1,8,0:0:0:0:
475,192,148835,128,2,149059:0:0:0:0:
182,192,148835,1,8,0:0:0:0:
109,192,148947,1,8,0:0:0:0:
182,192,149059,1,8,0:0:0:0:
109,192,149170,1,8,0:0:0:0:
36,192,149282,128,2,149506:0:0:0:0:
182,192,149282,1,8,0:0:0:0:
475,192,149394,1,8,0:0:0:0:
402,192,149506,1,8,0:0:0:0:
475,192,149618,1,8,0:0:0:0:
329,192,149730,128,2,149954:0:0:0:0:
36,192,149730,1,8,0:0:0:0:
109,192,149842,1,8,0:0:0:0:
36,192,149954,1,8,0:0:0:0:
475,192,150066,1,8,0:0:0:0:
182,192,150178,128,2,150402:0:0:0:0:
402,192,150178,1,8,0:0:0:0:
329,192,150290,1,8,0:0:0:0:
475,192,150402,1,8,0:0:0:0:
402,192,150514,1,8,0:0:0:0:
329,192,150626,128,2,150850:0:0:0:0:
36,192,150626,1,8,0:0:0:0:
109,192,150738,1,8,0:0:0:0:
182,192,150850,1,8,0:0:0:0:
475,192,150962,1,8,0:0:0:0:
182,192,151073,128,2,151297:0:0:0:0:
402,192,151073,1,8,0:0:0:0:
329,192,151185,1,8,0:0:0:0:
402,192,151297,1,8,0:0:0:0:
475,192,151409,1,8,0:0:0:0:
36,192,151521,128,2,151745:0:0:0:0:
329,192,151521,1,8,0:0:0:0:
182,192,151633,1,8,0:0:0:0:
402,192,151745,1,8,0:0:0:0:
256,192,151857,1,8,0:0:0:0:
475,192,151969,128,2,152193:0:0:0:0:
329,192,151969,1,8,0:0:0:0:
182,192,152081,1,8,0:0:0:0:
256,192,152193,1,8,0:0:0:0:
402,192,152305,1,8,0:0:0:0:
109,192,152417,128,2,152641:0:0:0:0:
329,192,152417,1,8,0:0:0:0:
475,192,152529,1,8,0:0:0:0:
256,192,152641,1,8,0:0:0:0:
329,192,152753,1,8,0:0:0:0:
402,192,152864,128,2,153088:0:0:0:0:
182,192,152864,1,8,0:0:0:0:
36,192,152976,1,8,0:0:0:0:
182,192,153088,1,8,0:0:0:0:
329,192,153200,1,8,0:0:0:0:
182,192,153312,128,2,153536:0:0:0:0:
109,192,153312,1,8,0:0:0:0:
475,192,153424,128,2,153536:0:0:0:0:
36,192,153536,128,2,153760:0:0:0:0:
329,192,153760,128,2,153984:0:0:0:0:
256,192,153760,1,8,0:0:0:0:
475,192,153872,1,8,0:0:0:0:
109,192,153984,1,8,0:0:0:0:
402,192,154096,1,8,0:0:0:0:
256,192,154208,128,2,154432:0:0:0:0:
182,192,154208,1,8,0:0:0:0:
475,192,154320,1,8,0:0:0:0:
402,192,154432,1,8,0:0:0:0:
109,192,154544,1,8,0:0:0:0:
256,192,154656,128,2,154879:0:0:0:0:
36,192,154656,1,8,0:0:0:0:
402,192,154767,1,8,0:0:0:0:
475,192,154879,128,2,155103:0:0:0:0:
329,192,155103,128,2,155327:0:0:0:0:
109,192,155103,128,2,155271:0:0:0:0:
402,192,155327,1,8,0:0:0:0:
256,192,155439,1,8,0:0:0:0:
182,192,155551,128,8,155775:0:0:0:0:
475,192,155551,1,8,0:0:0:0:
36,192,155663,1,8,0:0:0:0:
402,192,155775,1,8,0:0:0:0:
109,192,155887,1,8,0:0:0:0:
402,192,155999,128,2,156223:0:0:0:0:
329,192,155999,1,8,0:0:0:0:
182,192,156111,1,8,0:0:0:0:
256,192,156223,1,8,0:0:0:0:
329,192,156335,1,8,0:0:0:0:
109,192,156447,128,2,156670:0:0:0:0:
402,192,156447,1,8,0:0:0:0:
475,192,156559,1,8,0:0:0:0:
402,192,156670,1,8,0:0:0:0:
329,192,156782,1,8,0:0:0:0:
475,192,156894,128,2,157342:0:0:0:0:
402,192,156894,1,0,0:0:0:0:
256,192,156894,1,8,0:0:0:0:
36,192,157342,128,2,157790:0:0:0:0:
329,192,157342,1,0,0:0:0:0:
182,192,157342,1,8,0:0:0:0:
256,192,157790,128,2,158238:0:0:0:0:
475,192,157790,1,0,0:0:0:0:
329,192,157790,1,8,0:0:0:0:
402,192,158238,128,2,158685:0:0:0:0:
182,192,158238,1,0,0:0:0:0:
36,192,158238,1,8,0:0:0:0:
109,192,158685,128,2,159133:0:0:0:0:
329,192,158685,1,0,0:0:0:0:
182,192,158685,1,8,0:0:0:0:
256,192,159133,128,2,159581:0:0:0:0:
475,192,159133,1,0,0:0:0:0:
329,192,159133,1,8,0:0:0:0:
475,192,159581,128,2,160029:0:0:0:0:
182,192,159581,1,0,0:0:0:0:
36,192,159581,1,8,0:0:0:0:
36,192,160029,128,2,160476:0:0:0:0:
329,192,160029,1,0,0:0:0:0:
182,192,160029,1,8,0:0:0:0:
256,192,160476,128,2,161372:0:0:0:0:
475,192,160476,1,0,0:0:0:0:
329,192,160476,1,8,0:0:0:0:
182,192,161204,1,8,0:0:0:0:
36,192,161260,1,8,0:0:0:0:
182,192,161316,1,8,0:0:0:0:
475,192,161372,128,2,162267:0:0:0:0:
36,192,161372,1,8,0:0:0:0:
402,192,161372,1,0,0:0:0:0:
329,192,161372,1,4,0:0:0:0:
329,192,161708,1,0,0:0:0:0:
256,192,161708,1,4,0:0:0:0:
182,192,162044,1,4,0:0:0:0:
256,192,162044,1,0,0:0:0:0:
36,192,162267,128,2,163163:0:0:0:0:
182,192,162267,1,0,0:0:0:0:
109,192,162267,1,4,0:0:0:0:
402,192,162267,1,0,0:0:0:0:
329,192,162267,1,4,0:0:0:0:
