osu file format v14

[General]
AudioFilename: audio.mp3
AudioLeadIn: 0
PreviewTime: 73022
Countdown: 0
SampleSet: Soft
StackLeniency: 0.7
Mode: 0
LetterboxInBreaks: 0
EpilepsyWarning: 1
WidescreenStoryboard: 1

[Editor]
DistanceSpacing: 1.2
BeatDivisor: 4
GridSize: 4
TimelineZoom: 1.100001

[Metadata]
Title:Flow of Life (TSAR / Tu Zi ST Remix)
TitleUnicode:Flow of Life (TSAR / 兔子ST Remix)
Artist:Windbell
ArtistUnicode:Windbell
Creator:vivicat
Version:Normal
Source:明日方舟
Tags:Arknights Amiya video game fanzhen0019 Hanazawa Kana Lobelia English vocaloid 崔瀚普 塞壬唱片 MSR Monster Siren Records bao.uner windbell_project HyperGryph 生命流 electronic
BeatmapID:2608243
BeatmapSetID:1179243

[Difficulty]
HPDrainRate:4
CircleSize:3.2
OverallDifficulty:5
ApproachRate:6
SliderMultiplier:1
SliderTickRate:1

[Events]
//Background and Video events
0,0,"wallhaven-96geyx.jpg",0,0
Video,-330,"1.mp4"
//Break Periods
//Storyboard Layer 0 (Background)
//Storyboard Layer 1 (Fail)
//Storyboard Layer 2 (Pass)
//Storyboard Layer 3 (Foreground)
//Storyboard Layer 4 (Overlay)
//Storyboard Sound Samples

[TimingPoints]
1718,434.782608695652,4,2,1,30,1,0
5196,-100,4,2,1,40,0,0
15631,-100,4,2,1,50,0,0
29109,-100,4,3,1,60,0,0
43457,-100,4,2,1,60,0,0
46500,-100,4,2,1,70,0,0
74761,-83.3333333333333,4,1,1,80,0,1
102370,-83.3333333333333,4,1,1,5,0,1
102587,-100,4,3,1,70,0,0
144326,-100,4,3,1,60,0,0
151283,447.761194029851,4,2,1,50,1,0
151730,458.015267175573,4,2,1,50,1,0
152188,472.44094488189,4,2,1,50,1,0
152660,487.80487804878,4,2,1,50,1,0
153147,512.820512820512,4,2,1,50,1,0
153655,535.714285714286,4,2,1,50,1,0
154190,571.428571428572,4,2,1,50,1,0
154761,612.244897959184,4,2,1,50,1,0
155373,631.578947368421,4,2,1,50,1,0
156004,645.161290322581,4,2,1,50,1,0
156649,666.666666666666,4,2,1,50,1,0
157315,731.70731707317,4,2,1,50,1,0
158046,789.473684210525,4,2,1,50,1,0
158835,833.333333333332,4,2,1,50,1,0
159668,882.352941176469,4,2,1,50,1,0
160550,937.499999999998,4,2,1,50,1,0

[Colours]
Combo1 : 169,205,241
Combo2 : 187,186,243

[HitObjects]
145,77,1718,6,0,P|219:77|292:96,1,150,2|2,0:0|0:0,0:0:0:0:
172,183,3022,1,0,0:0:0:0:
172,183,3457,2,0,P|94:181|23:195,1,150,2|2,0:0|0:0,0:0:0:0:
117,311,4761,2,0,L|173:324,1,50,0|0,0:0|0:0,0:0:0:0:
203,293,5196,2,0,P|265:282|371:302,2,150,2|2|2,0:0|0:0|0:0,0:0:0:0:
103,303,6935,2,0,P|78:214|170:145,1,200
342,94,8674,6,0,P|354:152|289:222,1,150,2|2,0:0|0:0,0:0:0:0:
173,298,9978,1,0,0:0:0:0:
252,238,10413,2,0,P|333:222|399:268,1,150,2|2,0:0|0:0,0:0:0:0:
460,122,11717,2,0,L|394:118,1,50
359,118,12152,2,0,P|304:168|216:146,2,150,2|2|2,0:0|0:0|0:0,0:0:0:0:
271,74,13891,2,0,B|208:31|174:72|141:110|66:76,1,200,0|2,0:0|0:0,0:0:0:0:
121,279,15631,5,4,1:0:0:0:
314,230,16500,1,2,0:0:0:0:
412,246,16935,1,0,0:0:0:0:
429,344,17370,2,0,P|355:335|261:343,1,150,2|2,0:0|0:0,0:0:0:0:
148,268,18674,1,0,0:0:0:0:
130,170,19109,2,0,P|218:146|283:181,2,150,2|2|2,0:0|0:0|0:0,0:0:0:0:
44,117,20848,2,0,B|6:180|41:218|74:249|44:322,1,200,0|2,0:0|0:0,0:0:0:0:
249,260,22587,5,0,3:0:0:0:
429,171,23457,1,2,0:0:0:0:
258,66,24326,2,0,P|190:108|198:171,1,150,2|2,0:0|0:0,0:0:0:0:
340,214,25631,2,0,L|274:244,1,50
248,251,26065,2,0,B|167:258|167:258|96:232,2,150,2|2|2,0:0|0:0|0:0,0:0:0:0:
321,183,27804,2,0,P|346:88|203:111,1,300,0|10,1:0|0:2,0:0:0:0:
94,125,29544,6,0,L|99:244,1,100,4|0,1:3|0:0,0:0:0:0:
105,274,30196,1,4,1:3:0:0:
107,323,30413,1,8,0:2:0:0:
202,292,30848,2,0,B|301:300,1,100,0|0,0:0|0:0,0:0:0:0:
351,306,31500,1,4,1:3:0:0:
400,310,31717,1,4,1:3:0:0:
394,210,32152,2,0,B|295:202,1,100,8|4,0:2|0:3,0:0:0:0:
190,197,33022,6,0,L|157:102,1,100,4|0,1:3|0:0,0:0:0:0:
139,55,33674,1,4,1:3:0:0:
118,9,33891,1,8,0:2:0:0:
54,93,34326,2,0,L|43:210,1,100,0|0,0:0|0:0,0:0:0:0:
42,242,34978,1,4,1:3:0:0:
39,292,35196,1,4,1:3:0:0:
134,261,35631,2,0,P|177:253|225:301,1,100,8|0,0:2|0:0,0:0:0:0:
299,346,36500,6,0,L|308:241,1,100,4|0,1:3|0:0,0:0:0:0:
311,196,37152,1,4,1:3:0:0:
315,146,37370,1,8,0:2:0:0:
414,135,37804,2,0,L|401:234,1,100,0|0,0:0|0:0,0:0:0:0:
393,284,38457,1,4,1:3:0:0:
386,333,38674,1,4,1:3:0:0:
305,273,39109,1,8,0:2:0:0:
208,298,39544,1,4,0:3:0:0:
146,218,39978,6,0,L|126:116,1,100,4|0,1:3|0:0,0:0:0:0:
115,71,40631,1,4,1:3:0:0:
104,22,40848,1,8,0:2:0:0:
34,94,41283,2,0,L|62:206,1,100,0|4,0:0|1:0,0:0:0:0:
177,66,43457,6,0,B|266:-24|414:-20|481:184|378:227|378:227|455:306|350:408|268:353|263:291,1,700,4|8,1:1|0:0,0:0:0:0:
161,251,46935,6,0,L|61:226,1,100,4|0,1:0|0:0,0:0:0:0:
75,163,47587,2,0,P|159:306|133:159,1,450
210,51,49978,1,0,0:0:0:0:
295,148,50413,6,0,L|393:129,1,100,4|0,1:0|0:0,0:0:0:0:
457,117,51065,2,0,P|479:232|379:294,1,250,0|4,0:0|1:0,0:0:0:0:
199,104,53022,1,10,3:0:0:0:
314,336,53891,6,0,L|349:231,1,100,4|0,1:0|0:0,0:0:0:0:
402,209,54544,2,0,B|387:133|293:164|233:185|301:237|279:266|203:310|110:284,1,350
79,42,56935,1,0,0:0:0:0:
112,169,57370,6,0,L|232:182,1,100,4|0,1:3|0:0,0:0:0:0:
262,223,58022,2,0,P|287:131|253:116,1,150
386,131,59109,2,0,P|484:199|382:193,1,300,4|0,1:3|0:0,0:0:0:0:
239,170,60848,5,4,1:2:0:0:
91,197,61283,1,8,3:2:0:0:
126,50,61717,2,0,L|56:39,2,50,8|0|8,3:2|3:2|3:2,0:0:0:0:
207,176,62587,2,0,L|321:168,1,100,8|8,3:2|3:2,0:0:0:0:
274,21,63457,2,0,L|376:31,1,100,8|8,3:2|3:2,0:0:0:0:
481,134,64326,5,8,1:2:0:0:
364,229,64761,1,8,3:2:0:0:
496,299,65196,2,0,L|491:361,2,50,8|0|8,3:2|3:0|3:2,0:0:0:0:
347,275,66065,2,0,L|333:149,1,100,8|8,3:2|3:2,0:0:0:0:
192,220,66935,2,0,L|181:325,1,100,8|8,3:2|3:2,0:0:0:0:
31,318,67804,5,8,1:2:0:0:
19,168,68239,1,8,3:2:0:0:
168,183,68674,2,0,L|266:166,1,100,8|8,3:2|3:2,0:0:0:0:
177,44,69544,1,8,3:2:0:0:
112,51,69761,1,0,3:2:0:0:
47,59,69978,1,8,3:2:0:0:
64,189,70413,2,0,L|80:287,1,100,8|8,3:2|3:2,0:0:0:0:
256,192,71283,12,0,73022,1:0:0:0:
223,157,74761,6,0,L|252:35,2,119.999996337891,4|0|8,0:0|0:0|0:0,0:0:0:0:
93,220,76065,2,0,P|182:304|291:289,1,239.999992675781,4|0,0:3|0:0,0:0:0:0:
390,184,77370,2,0,L|408:91,2,89.9999972534181,8|8|4,0:0|0:3|0:3,0:0:0:0:
328,221,78239,6,0,P|292:315|350:370,1,179.999994506836,4|0,0:3|0:0,0:0:0:0:
402,332,79109,2,0,L|482:316,1,59.9999981689454,8|0,0:0|0:0,0:0:0:0:
482,251,79544,1,0,0:0:0:0:
435,195,79762,1,0,0:0:0:0:
365,176,79978,6,0,P|298:233|227:180,1,179.999994506836,4|0,0:3|0:0,0:0:0:0:
267,128,80848,2,0,L|257:62,2,59.9999981689454,8|0|0,0:0|0:0|0:0,0:0:0:0:
278,271,81717,6,0,L|134:257,1,119.999996337891,4|0,0:3|0:0,0:0:0:0:
86,253,82370,1,4,0:3:0:0:
14,243,82587,1,8,0:0:0:0:
90,120,83022,6,0,P|215:147|228:248,1,239.999992675781,4|0,0:3|0:0,0:0:0:0:
86,262,84326,2,0,P|55:300|53:359,2,89.9999972534181,8|8|4,0:0|0:3|0:3,0:0:0:0:
146,217,85196,6,0,L|271:204,1,119.999996337891,4|0,0:3|0:0,0:0:0:0:
299,140,85848,1,0,0:0:0:0:
288,68,86065,2,0,L|168:55,1,119.999996337891,8|0,0:0|0:0,0:0:0:0:
116,188,86935,2,0,L|128:312,1,119.999996337891
195,330,87587,1,0,0:0:0:0:
261,303,87804,2,0,L|272:183,1,119.999996337891,8|0,0:0|0:0,0:0:0:0:
356,64,88674,5,4,0:3:0:0:
151,104,89326,1,4,0:3:0:0:
151,104,89544,1,8,0:0:0:0:
228,230,89978,6,0,P|143:271|231:290,1,239.999992675781,4|4,0:3|0:3,0:0:0:0:
362,234,91283,1,8,0:0:0:0:
152,35,92152,6,0,L|166:166,1,119.999996337891,4|0,0:3|0:0,0:0:0:0:
190,221,92804,1,4,0:3:0:0:
258,244,93022,2,0,P|305:277|314:357,1,119.999996337891,8|4,0:0|0:3,0:0:0:0:
436,253,93891,1,0,0:0:0:0:
418,182,94109,1,4,0:3:0:0:
358,142,94326,1,4,0:3:0:0:
212,144,94761,2,0,L|86:157,1,119.999996337891,8|0,0:0|0:0,0:0:0:0:
219,230,95631,6,0,P|252:280|232:352,1,119.999996337891,4|0,0:3|0:0,0:0:0:0:
175,361,96283,1,4,0:3:0:0:
105,341,96500,1,8,0:0:0:0:
153,205,96935,2,0,P|130:96|19:95,1,239.999992675781,4|0,0:3|0:0,0:0:0:0:
38,238,98239,2,0,L|44:327,2,89.9999972534181,8|8|4,0:0|0:3|0:3,0:0:0:0:
90,187,99109,6,0,P|148:173|207:180,1,119.999996337891,4|0,0:3|0:0,0:0:0:0:
274,208,99761,1,4,0:3:0:0:
339,236,99978,2,0,P|398:243|456:229,1,119.999996337891,8|0,0:0|0:0,0:0:0:0:
302,86,101065,1,4,0:3:0:0:
302,86,101283,1,4,0:3:0:0:
191,178,101717,2,0,P|109:207|65:130,1,179.999994506836,8|0,0:0|0:0,0:0:0:0:
138,123,102587,6,0,L|143:46,2,75,4|4|4,1:3|1:3|1:3,0:0:0:0:
176,169,103457,2,0,P|175:215|186:276,1,100,10|4,0:2|1:3,0:0:0:0:
363,258,104544,1,0,0:0:0:0:
381,169,104870,2,0,B|379:116|384:78,1,75,2|10,0:0|0:2,0:0:0:0:
196,248,106065,6,0,L|119:253,2,75,4|4|4,1:3|1:3|1:3,0:0:0:0:
250,221,106935,2,0,P|304:223|361:235,1,100,10|4,0:2|1:3,0:0:0:0:
187,154,108022,1,4,0:3:0:0:
97,142,108348,2,0,L|7:135,1,75,4|10,1:3|0:2,0:0:0:0:
331,101,109544,6,0,L|326:24,2,75,4|4|4,1:3|1:3|1:3,0:0:0:0:
299,151,110413,2,0,P|296:200|284:253,1,100,10|4,0:2|1:3,0:0:0:0:
143,361,111500,1,4,0:3:0:0:
100,281,111827,2,0,L|94:207,1,75,6|10,1:3|0:2,0:0:0:0:
324,278,113022,6,0,L|401:283,2,75,4|4|4,1:3|1:3|1:3,0:0:0:0:
269,302,113891,2,0,P|217:304|163:315,1,100,10|4,0:2|1:3,0:0:0:0:
64,166,114978,1,4,0:3:0:0:
153,152,115305,2,0,L|249:142,1,75,6|10,1:3|0:2,0:0:0:0:
464,186,116500,6,0,L|469:109,2,75,4|4|4,1:0|1:3|1:3,0:0:0:0:
420,227,117370,2,0,P|420:283|433:334,1,100,10|4,0:2|1:3,0:0:0:0:
208,232,118674,2,0,P|219:184|219:124,1,100,2|10,0:0|0:2,0:0:0:0:
242,78,119326,2,0,L|251:166,1,75,4|4,1:3|1:3,0:0:0:0:
299,227,119978,6,0,L|376:232,2,75,4|4|4,1:3|1:3|1:3,0:0:0:0:
257,270,120848,2,0,P|207:269|153:285,1,100,10|4,0:2|1:3,0:0:0:0:
29,157,121935,1,0,0:0:0:0:
114,128,122261,2,0,P|154:122|187:141,1,75,2|10,0:0|0:2,0:0:0:0:
235,166,122804,2,0,L|313:161,1,75,4|4,1:3|1:3,0:0:0:0:
361,87,123457,6,0,L|356:12,2,75,4|4|4,1:3|1:3|1:3,0:0:0:0:
388,140,124326,2,0,P|387:188|375:243,1,100,10|4,0:2|1:3,0:0:0:0:
155,337,125631,2,0,P|176:288|174:232,1,100,2|10,0:0|0:2,0:0:0:0:
162,183,126283,2,0,L|175:107,1,75,4|4,1:3|1:3,0:0:0:0:
90,137,126935,6,0,L|15:132,2,75,4|4|4,1:3|1:3|1:3,0:0:0:0:
132,178,127804,2,0,P|182:181|237:169,1,100,10|4,0:2|1:3,0:0:0:0:
115,308,128891,1,4,0:3:0:0:
204,295,129218,2,0,L|300:285,1,75,6|10,1:3|0:2,0:0:0:0:
393,69,130413,6,0,L|384:145,2,75,4|4|4,1:1|1:3|1:3,0:0:0:0:
340,38,131283,1,10,0:2:0:0:
219,45,131717,2,0,P|97:39|141:171,1,300,4|10,1:3|0:2,0:0:0:0:
192,170,133239,2,0,L|271:165,1,75,4|4,1:3|1:3,0:0:0:0:
321,236,133891,6,0,L|333:309,2,75,4|4|4,1:3|1:3|1:3,0:0:0:0:
345,181,134761,1,10,0:2:0:0:
368,63,135196,2,0,P|283:20|209:79,1,200,4|2,1:3|0:0,0:0:0:0:
209,138,136283,2,0,L|201:202,1,50,2|10,0:0|0:2,0:0:0:0:
176,241,136717,2,0,L|185:320,1,75,6|6,1:3|1:3,0:0:0:0:
273,335,137370,6,0,L|349:344,2,75,4|4|4,1:3|1:3|1:3,0:0:0:0:
261,276,138240,1,10,0:2:0:0:
183,185,138674,2,0,P|104:188|115:301,1,200,4|2,1:3|0:0,0:0:0:0:
189,290,139870,2,0,L|210:379,2,75,6|4|4,1:3|1:3|1:3,0:0:0:0:
277,303,140848,6,0,L|353:290,2,75,4|4|4,1:3|1:3|1:3,0:0:0:0:
286,243,141718,1,10,0:2:0:0:
238,135,142152,2,0,L|188:125,1,50,4|4,1:3|1:3,0:0:0:0:
136,154,142587,5,0,3:0:0:0:
93,195,142804,2,0,L|18:188,1,75,4|6,1:3|1:3,0:0:0:0:
17,98,143457,2,0,L|100:90,2,75,10|2|2,0:2|0:0|0:0,0:0:0:0:
33,155,144326,6,0,L|25:230,2,75,4|4|4,1:3|1:3|1:3,0:0:0:0:
88,178,145196,2,0,P|137:167|207:169,1,100,8|4,0:1|0:3,0:0:0:0:
427,139,146935,2,0,P|441:213|397:277,1,150,8|0,0:1|0:0,0:0:0:0:
343,277,147804,6,0,L|269:289,2,75,4|4|4,0:0|0:0|0:0,0:0:0:0:
319,221,148674,2,0,P|269:227|219:200,1,100,8|4,0:1|0:0,0:0:0:0:
397,35,149978,2,0,L|391:89,1,50,2|2,0:0|0:0,0:0:0:0:
354,132,150413,2,0,P|339:205|384:263,1,150,8|0,0:1|0:0,0:0:0:0:
256,192,151283,12,0,161018,0:0:0:0:
