osu file format v14

[General]
AudioFilename: audio.mp3
AudioLeadIn: 0
PreviewTime: 73022
Countdown: 0
SampleSet: Soft
StackLeniency: 0.3
Mode: 0
LetterboxInBreaks: 0
EpilepsyWarning: 1
WidescreenStoryboard: 1

[Editor]
DistanceSpacing: 1.5
BeatDivisor: 4
GridSize: 4
TimelineZoom: 4.1

[Metadata]
Title:Flow of Life (TSAR / Tu Zi ST Remix)
TitleUnicode:Flow of Life (TSAR / 兔子ST Remix)
Artist:Windbell
ArtistUnicode:Windbell
Creator:vivicat
Version:Lobelia's Insane
Source:明日方舟
Tags:Arknights Amiya video game fanzhen0019 Hanazawa Kana Lobelia English vocaloid 崔瀚普 塞壬唱片 MSR Monster Siren Records bao.uner windbell_project HyperGryph 生命流 electronic
BeatmapID:2472736
BeatmapSetID:1179243

[Difficulty]
HPDrainRate:5
CircleSize:4
OverallDifficulty:7
ApproachRate:8.5
SliderMultiplier:1.8
SliderTickRate:1

[Events]
//Background and Video events
0,0,"IMG_6285(20200605-233241).JPG",0,0
Video,-330,"1.mp4"
//Break Periods
//Storyboard Layer 0 (Background)
//Storyboard Layer 1 (Fail)
//Storyboard Layer 2 (Pass)
//Storyboard Layer 3 (Foreground)
//Storyboard Layer 4 (Overlay)
//Storyboard Sound Samples

[TimingPoints]
1718,434.782608695652,4,2,1,50,1,0
19109,-83.3333333333333,4,2,1,50,0,0
22587,-100,4,2,1,50,0,0
26065,-83.3333333333333,4,2,1,50,0,0
27804,-166.666666666667,4,2,1,50,0,0
29109,-66.6666666666667,4,2,1,50,0,0
29544,-76.9230769230769,4,3,1,60,0,0
30413,-55.5555555555556,4,3,1,60,0,0
31500,-76.9230769230769,4,3,1,60,0,0
32152,-55.5555555555556,4,3,1,60,0,0
33022,-76.9230769230769,4,3,1,60,0,0
33891,-55.5555555555556,4,3,1,60,0,0
34978,-76.9230769230769,4,3,1,60,0,0
35631,-55.5555555555556,4,3,1,60,0,0
36500,-76.9230769230769,4,3,1,60,0,0
37370,-55.5555555555556,4,3,1,60,0,0
38457,-76.9230769230769,4,3,1,60,0,0
39109,-55.5555555555556,4,3,1,60,0,0
39978,-76.9230769230769,4,3,1,60,0,0
40848,-55.5555555555556,4,3,1,60,0,0
41717,-111.111111111111,4,3,1,60,0,0
42587,-166.666666666667,4,3,1,60,0,0
43457,-100,4,2,1,60,0,0
46935,-76.9230769230769,4,2,1,70,0,0
47804,-125,4,2,1,70,0,0
50413,-76.9230769230769,4,2,1,70,0,0
51283,-100,4,2,1,70,0,0
52152,-76.9230769230769,4,2,1,70,0,0
55196,-100,4,2,1,70,0,0
57370,-76.9230769230769,4,2,1,70,0,0
59109,-153.846153846154,4,2,1,70,0,0
60848,-100,4,2,1,70,0,0
74761,-66.6666666666667,4,1,1,80,0,0
75522,-66.6666666666667,4,1,1,5,0,0
75631,-50,4,1,1,80,0,0
75957,-50,4,1,1,5,0,0
76065,-50,4,1,1,80,0,0
76174,-100,4,1,1,80,0,0
77370,-66.6666666666667,4,1,1,80,0,0
78131,-66.6666666666667,4,1,1,5,0,0
78239,-66.6666666666667,4,1,1,80,0,0
79109,-50,4,1,1,80,0,0
79978,-66.6666666666667,4,1,1,80,0,0
80848,-50,4,1,1,80,0,0
81500,-100,4,1,1,80,0,0
81717,-66.6666666666667,4,1,1,80,0,0
82044,-66.6666666666667,4,1,1,5,0,0
82152,-66.6666666666667,4,1,1,80,0,0
82587,-50,4,1,1,80,0,0
82913,-50,4,1,1,5,0,0
83022,-50,4,1,1,80,0,0
83131,-100,4,1,1,80,0,0
84326,-66.6666666666667,4,1,1,80,0,0
89217,-66.6666666666667,4,1,1,5,0,0
89326,-66.6666666666667,4,1,1,80,0,0
89544,-50,4,1,1,80,0,0
89978,-100,4,1,1,80,0,0
90848,-66.6666666666667,4,1,1,80,0,0
91283,-50,4,1,1,80,0,0
91935,-66.6666666666667,4,1,1,80,0,0
92044,-66.6666666666667,4,1,1,5,0,0
92152,-66.6666666666667,4,1,1,80,0,0
93022,-50,4,1,1,80,0,0
93457,-66.6666666666667,4,1,1,80,0,0
94761,-50,4,1,1,80,0,0
95413,-100,4,1,1,80,0,0
95631,-66.6666666666667,4,1,1,80,0,0
96500,-50,4,1,1,80,0,0
96826,-50,4,1,1,5,0,0
96935,-100,4,1,1,80,0,0
98131,-100,4,1,1,5,0,0
98239,-50,4,1,1,80,0,0
99109,-66.6666666666667,4,1,1,80,0,0
101717,-50,4,2,1,80,0,0
102587,-100,4,2,1,70,0,0
130413,-76.9230769230769,4,2,1,70,0,0
144326,-153.846153846154,4,2,1,70,0,0
151283,447.761194029851,4,2,1,50,1,0
151730,458.015267175573,4,2,1,50,1,0
152188,472.44094488189,4,2,1,50,1,0
152660,487.80487804878,4,2,1,50,1,0
153147,512.820512820512,4,2,1,50,1,0
153655,535.714285714286,4,2,1,50,1,0
154190,571.428571428572,4,2,1,50,1,0
154761,612.244897959184,4,2,1,50,1,0
155373,631.578947368421,4,2,1,50,1,0
156004,645.161290322581,4,2,1,50,1,0
156649,666.666666666666,4,2,1,50,1,0
157315,731.70731707317,4,2,1,50,1,0
158046,789.473684210525,4,2,1,50,1,0
158835,833.333333333332,4,2,1,50,1,0
159668,882.352941176469,4,2,1,50,1,0
160550,937.499999999998,4,2,1,50,1,0

[Colours]
Combo1 : 169,205,241
Combo2 : 187,186,243

[HitObjects]
108,169,15631,6,0,P|108:74|120:175,1,315,4|0,1:0|0:0,0:0:0:0:
140,122,16500,1,2,0:0:0:0:
140,122,16935,2,0,L|109:253,1,135,0|0,0:0|0:0,0:0:0:0:
140,206,17370,6,0,P|140:301|128:200,1,315,2|0,0:0|0:0,0:0:0:0:
108,253,18239,1,2,0:0:0:0:
109,253,18674,2,0,L|130:163,1,90,0|0,0:0|0:0,0:0:0:0:
156,32,19109,6,0,B|244:50|195:120|299:140|326:87|326:87|337:80|337:80|326:73|326:73|317:19|264:17,1,323.999990112305,2|2,0:0|0:0,0:0:0:0:
140,121,19978,1,0,0:0:0:0:
388,158,20413,1,2,0:0:0:0:
398,238,20576,2,0,L|402:270,1,26.9999991760254,0|0,0:0|0:0,0:0:0:0:
490,329,20848,6,0,B|529:338|479:430|366:306|555:266|478:143,1,269.999991760254,0|0,0:0|0:0,0:0:0:0:
431,85,21500,1,0,0:0:0:0:
432,69,21609,1,0,0:0:0:0:
467,28,21717,2,0,B|502:19|523:60|523:60|427:105|344:44|344:44|373:13|403:24,1,323.999990112305,2|0,0:0|0:0,0:0:0:0:
260,111,22587,6,0,P|254:52|221:145,1,315,0|0,3:0|0:0,0:0:0:0:
205,87,23457,1,2,0:0:0:0:
205,87,23891,2,0,L|287:195,1,135,0|0,0:0|0:0,0:0:0:0:
231,170,24326,6,0,P|237:229|270:136,1,315,2|0,0:0|0:0,0:0:0:0:
286,194,25196,1,2,0:0:0:0:
286,194,25630,2,0,L|225:107,1,90,0|0,0:0|0:0,0:0:0:0:
151,13,26065,6,0,B|99:65|127:129|127:129|97:77|42:91,1,215.999993408203,2|0,0:0|0:0,0:0:0:0:
204,86,26717,1,2,0:0:0:0:
314,2,26935,1,0,0:0:0:0:
394,62,27152,2,0,P|398:90|401:124,1,53.9999983520508,0|0,0:0|0:0,0:0:0:0:
351,186,27370,1,2,0:0:0:0:
351,186,27804,6,0,L|443:191,1,80.9999975280763,0|0,1:0|0:0,0:0:0:0:
477,309,28239,5,0,0:0:0:0:
458,288,28348,1,0,0:0:0:0:
436,305,28457,1,0,0:0:0:0:
418,284,28566,1,0,0:0:0:0:
397,301,28674,2,0,L|359:309,2,35.9999989013672
298,234,29109,6,0,L|267:268,1,33.7500012874604,10|0,0:2|0:0,0:0:0:0:
122,372,29326,1,0,0:0:0:0:
52,266,29544,6,0,L|39:135,2,116.999994644165,4|0|0,1:3|0:0|0:0,0:0:0:0:
149,100,30196,5,4,1:3:0:0:
84,284,30413,2,0,L|67:116,2,161.999995056153,8|0|0,0:2|0:0|0:0,0:0:0:0:
229,116,31065,1,0,0:0:0:0:
279,182,31283,1,0,0:0:0:0:
446,349,31500,6,0,P|419:343|388:325,1,58.4999973220826,4|0,1:3|2:0,0:0:0:0:
419,247,31717,2,0,P|446:253|477:271,1,58.4999973220826,4|0,1:3|2:0,0:0:0:0:
436,295,31935,1,0,0:0:0:0:
389,72,32152,6,0,P|431:32|407:90,2,161.999995056153,8|0|4,0:2|0:0|0:0,0:0:0:0:
351,154,32804,1,0,0:0:0:0:
67,122,33022,6,0,L|56:238,2,116.999994644165,4|0|0,1:3|0:0|0:0,0:0:0:0:
145,325,33674,1,4,1:3:0:0:
104,97,33891,6,0,L|87:272,2,161.999995056153,8|0|0,0:2|0:0|0:0,0:0:0:0:
234,328,34544,1,0,0:0:0:0:
293,265,34761,1,0,0:0:0:0:
446,35,34978,6,0,P|419:41|388:59,1,58.4999973220826,4|0,1:3|2:0,0:0:0:0:
419,137,35195,2,0,P|446:131|477:113,1,58.4999973220826,4|0,1:3|2:0,0:0:0:0:
436,89,35413,1,0,0:0:0:0:
207,84,35631,6,0,B|166:75|157:27|157:27|148:74|107:85,2,161.999995056153,8|0|0,0:2|0:0|0:0,0:0:0:0:
157,160,36283,1,0,0:0:0:0:
448,270,36500,6,0,B|392:289|392:289|336:270,2,116.999994644165,4|0|0,1:3|0:0|0:0,0:0:0:0:
271,153,37152,1,4,1:3:0:0:
469,228,37370,6,0,B|393:259|393:259|294:225,2,161.999995056153,8|0|0,0:2|0:0|0:0,0:0:0:0:
287,67,38022,1,0,0:0:0:0:
365,28,38239,1,0,0:0:0:0:
84,109,38457,6,0,L|74:44,1,58.4999973220826,4|0,1:3|2:0,0:0:0:0:
154,38,38674,2,0,L|164:103,1,58.4999973220826,4|0,1:3|2:0,0:0:0:0:
120,76,38891,1,0,0:0:0:0:
80,289,39109,6,0,B|80:331|80:331|160:331|160:331|160:291,2,161.999995056153,8|0|0,0:2|0:0|0:0,0:0:0:0:
123,213,39761,1,0,0:0:0:0:
448,114,39978,6,0,B|392:95|392:95|336:114,2,116.999994644165,4|0|0,1:3|0:0|0:0,0:0:0:0:
271,231,40630,1,4,1:3:0:0:
469,156,40848,6,0,B|393:125|393:125|294:159,2,161.999995056153,8|0|4,0:2|0:0|0:0,0:0:0:0:
298,318,41500,1,0,0:0:0:0:
388,332,41717,6,0,L|393:242,2,80.9999975280763,4|0|0,1:0|0:0|0:0,0:0:0:0:
298,318,42370,1,4,0:0:0:0:
226,359,42587,6,0,L|212:303,3,53.9999983520508,0|0|0|0,0:0|0:0|0:0|0:0,0:0:0:0:
88,333,43457,6,0,B|109:187|109:187|119:170|119:170|109:151|109:151|97:16|97:16|73:0|73:0|51:17|51:17|28:146|28:146|15:168|15:168|26:186|26:186|32:333|32:333|55:372|55:372|83:344,1,787.5,4|0,1:1|0:0,0:0:0:0:
256,192,45522,12,0,46717,0:0:0:0:
440,351,46935,6,0,B|451:321|486:306|486:306|391:317|391:317|382:311|382:311|375:319|375:319|269:333|269:333|298:314|308:277,1,350.999983932496,4|0,1:0|0:0,0:0:0:0:
48,266,47804,2,0,B|117:340|254:117|121:17|121:17|-1:159|186:336|228:253,1,720,0|0,0:0|0:0,0:0:0:0:
466,38,50413,6,0,B|409:79|432:163|432:163|411:100|354:93,1,233.999989288331,4|0,1:0|0:0,0:0:0:0:
204,99,51065,1,0,0:0:0:0:
163,177,51283,2,0,B|255:224|295:97|428:159|346:271|287:152,1,270,0|0,0:0|0:0,0:0:0:0:
78,196,52152,6,0,B|39:74|131:-8|211:27|211:27|234:57|196:110,1,350.999983932496,4|0,1:1|0:0,0:0:0:0:
138,257,53022,1,10,3:0:0:0:
78,196,53239,1,0,0:0:0:0:
131,281,53457,1,0,0:0:0:0:
71,220,53674,1,0,0:0:0:0:
332,324,53891,6,0,B|274:336|274:336|281:236|281:236|274:216|274:216|285:200|285:200|291:102|291:102|298:138|329:163,1,350.999983932496,4|0,1:0|0:0,0:0:0:0:
196,24,54761,1,0,0:0:0:0:
433,236,55196,2,0,B|445:170|507:144|511:96|511:96|519:89|519:89|510:84|510:84|501:49|456:40|456:40|450:32|450:32|443:41|443:41|400:45|384:86|384:86|376:92|376:92|384:98|384:98|389:147|460:171|466:239,1,540,0|0,0:0|0:0,0:0:0:0:
454,323,56717,1,0,2:0:0:0:
304,343,56935,1,0,0:0:0:0:
457,346,57152,1,0,0:0:0:0:
216,322,57370,6,0,B|231:273|277:257|277:257|230:208|208:120|307:92|358:154|262:219|182:195|182:195|177:240|141:263,1,467.999978576661,4|0,1:3|0:0,0:0:0:0:
95,192,58457,1,0,0:0:0:0:
132,353,58674,1,0,0:0:0:0:
47,288,58891,1,0,0:0:0:0:
174,116,59109,6,0,P|349:66|345:240,1,409.499981254578,4|0,1:3|0:0,0:0:0:0:
447,346,60848,6,0,L|447:252,1,90,4|0,1:2|0:0,0:0:0:0:
464,353,61283,6,0,L|464:259,1,90,8|0,3:2|0:0,0:0:0:0:
477,360,61717,6,0,L|477:266,1,90,8|0,3:2|0:0,0:0:0:0:
478,233,62044,1,0,0:0:0:0:
479,197,62152,2,0,L|389:197,1,90,8|0,3:2|0:0,0:0:0:0:
224,341,62587,6,0,L|314:341,1,90,8|0,3:2|0:0,0:0:0:0:
215,351,63022,6,0,L|305:351,1,90,8|0,3:2|0:0,0:0:0:0:
206,360,63457,6,0,L|296:360,1,90,8|0,3:2|0:0,0:0:0:0:
332,361,63783,1,0,0:0:0:0:
367,361,63891,2,0,L|367:260,1,90,8|8,3:2|3:2,0:0:0:0:
254,205,64326,6,0,B|241:161|241:161|201:143,1,90,8|0,1:2|0:0,0:0:0:0:
130,295,64761,2,0,B|167:269|167:269|172:225,1,90,8|0,3:2|0:0,0:0:0:0:
4,201,65196,2,0,B|40:228|40:228|83:220,1,90,8|0,3:2|0:0,0:0:0:0:
58,54,65631,2,0,B|42:97|42:97|64:135,1,90,8|0,3:2|0:0,0:0:0:0:
211,58,66065,2,0,B|165:56|165:56|135:89,1,90,8|0,3:2|0:0,0:0:0:0:
392,69,66500,6,0,L|441:53,3,45,8|0|0|0,3:2|0:0|0:0|0:0,0:0:0:0:
369,103,66935,2,0,L|358:153,3,45,8|0|0|0,3:2|0:0|0:0|0:0,0:0:0:0:
353,66,67370,2,0,L|314:31,3,45,8|0|0|0,3:2|0:0|3:0|0:0,0:0:0:0:
398,230,67804,6,0,L|454:230,1,45,8|0,1:2|0:0,0:0:0:0:
324,317,68022,1,8,0:0:0:0:
324,317,68131,1,0,0:0:0:0:
295,338,68239,2,0,L|295:239,1,90,8|0,0:0|0:0,0:0:0:0:
184,301,68674,6,0,L|128:301,1,45,8|0,0:0|0:0,0:0:0:0:
266,269,68892,1,0,0:0:0:0:
266,269,69001,1,0,0:0:0:0:
295,248,69109,2,0,L|295:347,1,90,8|0,0:0|0:0,0:0:0:0:
406,195,69544,6,0,L|462:195,1,45,8|0,0:0|0:0,0:0:0:0:
324,227,69762,1,8,0:0:0:0:
324,227,69871,1,0,0:0:0:0:
295,248,69979,2,0,L|295:149,1,90,8|0,0:0|0:0,0:0:0:0:
184,211,70413,6,0,L|128:211,1,45,8|0,0:0|0:0,0:0:0:0:
266,179,70631,1,0,0:0:0:0:
266,179,70740,1,0,0:0:0:0:
295,158,70848,2,0,L|295:257,1,90,8|0,0:0|0:0,0:0:0:0:
406,105,71283,5,8,3:2:0:0:
371,93,71391,1,0,3:0:0:0:
371,57,71500,1,0,3:0:0:0:
406,46,71609,1,0,3:0:0:0:
427,75,71717,5,8,3:2:0:0:
382,75,71825,1,0,3:0:0:0:
337,75,71934,1,0,3:0:0:0:
292,75,72043,1,0,3:0:0:0:
258,104,72152,5,8,3:2:0:0:
204,104,72260,1,0,3:0:0:0:
150,103,72369,1,0,3:0:0:0:
95,104,72478,1,0,3:0:0:0:
100,157,72587,5,8,3:2:0:0:
40,138,72696,1,0,3:0:0:0:
40,75,72804,1,0,3:0:0:0:
100,55,72913,1,0,3:0:0:0:
137,106,73022,1,8,1:0:0:0:
426,169,74109,6,0,P|417:191|409:233,2,45,0|0|0,0:0|0:0|0:0,0:0:0:0:
239,320,74761,6,0,B|339:200|389:319|334:389|233:272|46:167|-10:313|115:372|159:215,1,472.500018024445,4|0,0:0|0:0,0:0:0:0:
140,149,75631,2,0,B|88:155|35:75|35:75|84:156|69:205,1,270,8|0,0:0|0:0,0:0:0:0:
204,91,76065,1,4,0:3:0:0:
220,84,76174,2,0,P|244:79|273:79,2,45,0|0|0,0:0|0:0|0:0,0:0:0:0:
205,61,76500,5,0,0:0:0:0:
230,69,76609,1,0,0:0:0:0:
251,85,76717,1,0,0:0:0:0:
266,107,76826,1,0,0:0:0:0:
277,131,76935,1,0,0:0:0:0:
282,157,77044,1,0,0:0:0:0:
283,183,77152,1,0,0:0:0:0:
278,209,77261,1,0,0:0:0:0:
206,290,77370,6,0,B|198:249|198:249|240:310|310:291|310:291|275:309,1,202.500007724762,8|8,0:0|0:3,0:0:0:0:
124,126,77913,1,4,0:3:0:0:
79,201,78022,2,0,L|156:210,1,67.5000025749208,4|0,0:3|0:0,0:0:0:0:
278,209,78239,5,4,0:3:0:0:
291,209,78348,2,0,L|276:138,1,67.5000025749208
398,272,78674,2,0,P|400:305|377:345,2,67.5000025749208,0|0|0,0:0|0:0|0:0,0:0:0:0:
405,58,79109,1,8,0:0:0:0:
389,50,79217,2,0,L|377:142,1,90,0|0,0:0|0:0,0:0:0:0:
190,171,79544,1,0,0:0:0:0:
136,179,79652,1,0,0:0:0:0:
90,150,79761,1,0,0:0:0:0:
159,15,79978,5,4,0:3:0:0:
165,28,80087,2,0,P|164:47|151:104,1,67.5000025749208,0|0,0:0|0:0,0:0:0:0:
59,257,80413,2,0,P|66:301|85:332,2,67.5000025749208,0|0|0,0:0|0:0|0:0,0:0:0:0:
300,335,80848,1,8,0:0:0:0:
316,343,80957,2,0,P|358:351|399:332,2,90,0|0|0,0:0|0:0|0:0,0:0:0:0:
220,295,81283,1,0,0:0:0:0:
220,295,81500,2,0,L|224:236,1,45,4|4,0:3|0:3,0:0:0:0:
213,91,81717,6,0,P|230:146|223:82,1,202.500007724762,4|0,0:3|0:0,0:0:0:0:
131,66,82152,2,0,P|121:128|166:205,1,135.000005149842,0|4,0:0|0:3,0:0:0:0:
479,73,82587,2,0,B|470:93|413:115|413:115|369:80|307:78|307:78|283:106|217:115,1,270,8|0,0:0|0:0,0:0:0:0:
38,133,83022,1,4,0:3:0:0:
31,150,83131,2,0,P|26:173|23:202,2,45,0|0|0,0:0|0:0|0:0,0:0:0:0:
14,128,83457,5,0,0:0:0:0:
19,154,83565,1,0,0:0:0:0:
28,179,83674,1,0,0:0:0:0:
40,202,83783,1,0,0:0:0:0:
54,224,83891,1,0,0:0:0:0:
72,243,84000,1,0,0:0:0:0:
92,260,84109,1,0,0:0:0:0:
115,273,84217,1,0,0:0:0:0:
224,233,84326,6,0,B|199:202|186:232|186:232|213:283|181:332|181:332|210:309|242:307,2,202.500007724762,8|8|4,0:0|0:3|0:3,0:0:0:0:
333,63,85196,5,4,0:3:0:0:
344,55,85304,2,0,P|351:89|353:208,1,135.000005149842,0|0,0:0|0:0,0:0:0:0:
385,109,85631,1,0,0:0:0:0:
398,104,85739,2,0,P|396:138|367:254,1,135.000005149842,0|0,0:0|0:0,0:0:0:0:
428,174,86065,1,8,0:0:0:0:
442,173,86173,2,0,P|431:206|373:310,1,135.000005149842
445,241,86500,1,0,0:0:0:0:
458,243,86608,2,0,P|439:272|357:358,1,135.000005149842,0|0,0:0|0:0,0:0:0:0:
280,312,86935,5,0,0:0:0:0:
269,320,87043,2,0,P|262:286|260:167,1,135.000005149842,0|0,0:0|0:0,0:0:0:0:
227,256,87370,1,0,0:0:0:0:
214,261,87478,2,0,P|216:226|244:110,1,135.000005149842,0|0,0:0|0:0,0:0:0:0:
191,192,87804,1,8,0:0:0:0:
177,193,87913,2,0,P|187:160|245:55,1,135.000005149842
177,109,88239,1,0,0:0:0:0:
164,107,88348,2,0,P|180:78|200:46,1,67.5000025749208,0|4,0:0|0:3,0:0:0:0:
386,238,88674,6,0,B|508:182|484:419|339:328|365:209|207:284,1,337.500012874604,4|0,0:3|0:0,0:0:0:0:
157,288,89326,1,4,0:3:0:0:
415,89,89544,1,8,0:0:0:0:
397,92,89652,2,0,P|386:61|351:88,2,90,0|0|0,0:0|0:0|0:0,0:0:0:0:
412,114,89978,5,4,0:3:0:0:
437,104,90086,1,0,0:0:0:0:
463,106,90195,1,0,0:0:0:0:
487,118,90304,1,0,0:0:0:0:
504,139,90412,1,0,0:0:0:0:
512,164,90521,1,0,0:0:0:0:
508,191,90630,1,0,0:0:0:0:
495,214,90738,1,0,0:0:0:0:
399,231,90848,6,0,P|436:197|412:265,1,202.500007724762,4|0,0:3|0:0,0:0:0:0:
167,201,91283,2,0,B|332:180|332:180|316:204|316:234|316:234|314:208|259:196,1,270,8|8,0:0|0:3,0:0:0:0:
79,344,91826,1,4,0:3:0:0:
163,360,91935,2,0,L|149:266,1,67.5000025749208,4|0,0:3|0:0,0:0:0:0:
123,57,92152,5,4,0:3:0:0:
120,43,92261,2,0,L|105:126,2,67.5000025749208,0|0|0,0:0|0:0|0:0,0:0:0:0:
213,32,92587,1,0,0:0:0:0:
213,32,92804,1,4,0:3:0:0:
464,102,93022,5,8,0:0:0:0:
472,117,93131,2,0,P|387:142|395:71,1,180,0|0,0:0|0:0,0:0:0:0:
345,215,93457,2,0,P|304:174|290:89,1,135.000005149842,4|0,0:3|0:0,0:0:0:0:
492,322,93891,6,0,P|452:314|328:332,1,135.000005149842,0|4,0:0|0:3,0:0:0:0:
93,356,94326,1,4,0:3:0:0:
106,352,94435,2,0,P|104:316|92:280,2,67.5000025749208,0|0|0,0:0|0:0|0:0,0:0:0:0:
204,312,94761,1,8,0:0:0:0:
217,324,94870,2,0,P|226:278|245:231,2,90,0|8|8,0:0|0:3|0:3,0:0:0:0:
416,337,95196,5,0,0:0:0:0:
367,313,95304,1,4,0:3:0:0:
323,344,95413,2,0,P|320:306|311:281,1,45,4|0,0:3|0:0,0:0:0:0:
234,149,95631,6,0,B|352:148|256:237|474:240|394:149|499:156|499:156|483:97|412:83,1,405.000015449525,4|4,0:3|0:3,0:0:0:0:
336,55,96391,1,0,0:0:0:0:
241,50,96500,2,0,B|98:67|176:176|27:196,1,270,8|0,0:0|0:0,0:0:0:0:
39,98,96935,6,0,B|132:156|94:327|94:327|132:156|235:148,1,495,4|0,0:3|0:0,0:0:0:0:
227,239,98239,6,0,B|182:297|224:390|420:380|377:276|295:343,2,270,8|8|4,0:0|0:3|0:3,0:0:0:0:
445,355,99109,5,4,0:3:0:0:
456,349,99217,2,0,P|452:306|416:204,1,135.000005149842,0|0,0:0|0:0,0:0:0:0:
348,172,99544,2,0,P|351:149|365:101,1,67.5000025749208,0|0,0:0|0:0,0:0:0:0:
389,7,99761,1,4,0:3:0:0:
485,155,99978,1,8,0:0:0:0:
489,167,100087,2,0,P|432:190|313:204,1,135.000005149842,0|0,0:0|0:0,0:0:0:0:
326,297,100413,1,4,0:3:0:0:
325,310,100522,2,0,P|263:317|145:300,1,135.000005149842,0|0,0:0|0:0,0:0:0:0:
101,302,100848,5,0,0:0:0:0:
104,315,100957,1,0,0:0:0:0:
24,259,101065,2,0,L|42:180,1,67.5000025749208,4|0,0:3|0:0,0:0:0:0:
147,156,101283,1,4,0:3:0:0:
160,158,101391,2,0,L|142:85,2,67.5000025749208,0|0|0,0:0|0:0|0:0,0:0:0:0:
283,193,101717,1,8,0:0:0:0:
442,338,102587,5,4,1:3:0:0:
440,257,102913,1,4,1:3:0:0:
439,176,103239,1,4,1:3:0:0:
370,218,103457,5,10,0:2:0:0:
370,218,103565,2,0,L|233:218,1,135,4|4,1:3|1:3,0:0:0:0:
235,218,104761,5,2,0:0:0:0:
235,218,104870,2,0,L|159:218,2,45,6|2|2,0:3|0:0|0:0,0:0:0:0:
252,308,105196,2,0,L|215:307,1,22.5,10|0,0:2|0:0,0:0:0:0:
107,109,106065,5,4,1:3:0:0:
187,110,106391,1,4,1:3:0:0:
267,113,106717,1,4,1:3:0:0:
227,183,106935,5,10,0:2:0:0:
227,183,107044,2,0,L|227:328,1,135,4|4,1:3|1:3,0:0:0:0:
227,318,107804,5,2,0:0:0:0:
305,339,108022,5,4,1:3:0:0:
382,314,108239,5,2,0:0:0:0:
382,314,108348,2,0,L|381:261,2,45,4|0|2,1:3|0:0|0:0,0:0:0:0:
465,354,108674,2,0,L|465:314,1,22.5,10|0,0:2|0:0,0:0:0:0:
405,73,109544,5,4,1:3:0:0:
324,73,109870,1,4,1:3:0:0:
243,74,110196,1,4,1:3:0:0:
286,146,110413,5,10,0:2:0:0:
286,146,110522,2,0,L|286:282,1,135,4|4,1:3|1:3,0:0:0:0:
286,281,111283,5,2,0:0:0:0:
215,320,111500,5,6,0:3:0:0:
144,279,111717,5,2,0:0:0:0:
144,279,111826,2,0,L|144:225,2,45,6|2|2,1:3|0:0|0:0,0:0:0:0:
65,324,112152,2,0,L|65:292,1,22.5,10|0,0:2|0:0,0:0:0:0:
225,183,113022,5,4,1:3:0:0:
224,102,113348,1,4,1:3:0:0:
304,105,113674,1,4,1:3:0:0:
304,185,113891,5,10,0:2:0:0:
304,185,114000,2,0,L|305:327,1,135,4|4,1:3|1:3,0:0:0:0:
304,319,114761,5,4,1:3:0:0:
380,292,114978,5,6,0:3:0:0:
454,322,115196,5,2,0:0:0:0:
454,322,115304,2,0,L|500:323,2,45,6|2|2,1:3|0:0|0:0,0:0:0:0:
447,229,115631,2,0,L|486:230,1,22.5,10|0,0:2|0:0,0:0:0:0:
257,41,116065,2,0,L|257:61,8,11.25
95,120,116500,5,4,1:0:0:0:
175,120,116826,1,4,1:3:0:0:
175,200,117152,1,4,1:3:0:0:
94,201,117370,5,10,0:2:0:0:
94,201,117478,2,0,L|93:337,1,135,4|4,1:3|1:3,0:0:0:0:
224,335,118022,6,0,L|315:335,1,90,0|2,0:0|0:0,0:0:0:0:
404,335,118457,2,0,L|314:335,1,90,0|2,0:0|0:0,0:0:0:0:
314,307,118783,2,0,L|314:256,1,45,2|2,0:0|0:0,0:0:0:0:
314,234,119000,1,6,1:3:0:0:
361,217,119109,2,0,L|361:247,1,22.5,10|0,0:2|0:0,0:0:0:0:
459,168,119326,6,0,L|459:72,1,90,4|0,1:3|0:0,0:0:0:0:
459,50,119652,2,0,L|410:50,1,45,4|0,1:3|0:0,0:0:0:0:
282,124,119978,5,4,1:3:0:0:
201,124,120304,1,4,1:3:0:0:
119,127,120631,1,4,1:3:0:0:
163,200,120848,5,10,0:2:0:0:
163,200,120957,2,0,L|163:340,1,135,4|4,1:3|1:3,0:0:0:0:
243,338,121500,1,0,0:0:0:0:
245,222,121717,6,0,L|340:222,1,90,4|0,1:3|0:0,0:0:0:0:
416,221,122152,2,0,L|416:266,2,45,2|2|2,0:0|0:0|0:0,0:0:0:0:
418,194,122478,1,6,1:3:0:0:
466,172,122587,2,0,L|466:144,1,22.5,10|0,0:2|0:0,0:0:0:0:
421,51,122804,2,0,L|329:51,1,90,4|0,1:3|0:0,0:0:0:0:
311,70,123131,2,0,L|263:70,1,45,4|0,1:3|0:0,0:0:0:0:
134,28,123457,6,0,L|134:121,1,90,4|0,1:3|0:0,0:0:0:0:
115,138,123783,2,0,L|115:189,1,45,4|0,1:3|0:0,0:0:0:0:
115,263,124109,1,4,1:3:0:0:
116,343,124326,5,10,0:2:0:0:
116,343,124435,2,0,L|252:343,1,135,4|4,1:3|1:3,0:0:0:0:
331,342,124978,1,0,0:0:0:0:
329,238,125196,6,0,L|224:238,1,90,2|0,0:0|0:0,0:0:0:0:
211,237,125522,1,0,0:0:0:0:
184,239,125631,2,0,L|135:239,2,45,2|2|2,0:0|0:0|0:0,0:0:0:0:
182,211,125957,1,6,1:3:0:0:
207,166,126065,2,0,L|207:130,1,22.5,10|0,0:2|0:0,0:0:0:0:
308,66,126283,6,0,L|402:66,1,90,4|0,1:3|0:0,0:0:0:0:
425,66,126609,6,0,L|425:114,1,45,4|0,1:3|0:0,0:0:0:0:
493,202,126935,2,0,L|493:158,2,45,4|0|0,1:3|0:0|0:0,0:0:0:0:
472,219,127261,6,0,L|472:266,1,45,4|0,1:3|0:0,0:0:0:0:
408,314,127587,2,0,L|359:314,1,45,4|0,1:3|0:0,0:0:0:0:
384,225,127804,2,0,L|346:226,1,22.5,10|0,0:2|0:0,0:0:0:0:
347,225,127913,1,4,1:3:0:0:
251,321,128239,2,0,L|157:321,1,90,4|0,1:3|0:0,0:0:0:0:
78,239,128674,5,2,0:0:0:0:
76,158,128891,5,4,1:3:0:0:
146,197,129109,5,2,0:0:0:0:
146,197,129217,2,0,L|197:197,2,45,6|2|2,1:3|0:0|0:0,0:0:0:0:
153,105,129544,2,0,L|180:105,1,22.5,10|0,0:2|0:0,0:0:0:0:
268,52,129761,6,0,L|268:144,2,90,0|2|0,0:0|0:0|0:0,0:0:0:0:
470,83,130413,6,0,B|437:83|437:83|437:174,1,116.999994644165,4|0,1:1|0:0,0:0:0:0:
404,251,130739,2,0,B|437:251|437:251|437:160,1,116.999994644165,4|0,1:3|0:0,0:0:0:0:
470,83,131065,1,4,1:3:0:0:
404,251,131283,5,10,0:2:0:0:
369,250,131391,2,0,B|236:250|236:250|236:207,1,175.499991966248,4|4,1:3|1:3,0:0:0:0:
237,113,131935,1,0,0:0:0:0:
99,44,132152,5,0,0:0:0:0:
96,137,132370,1,0,0:0:0:0:
236,207,132587,5,2,0:0:0:0:
236,160,132696,1,2,0:0:0:0:
237,113,132804,1,2,0:0:0:0:
239,66,132913,1,6,1:3:0:0:
322,15,133022,6,0,L|322:86,1,58.4999973220826,10|0,0:2|0:0,0:0:0:0:
361,159,133239,2,0,L|361:38,1,116.999994644165,4|0,1:3|0:0,0:0:0:0:
451,9,133565,2,0,L|451:76,1,58.4999973220826,4|0,1:3|0:0,0:0:0:0:
453,272,133891,6,0,B|453:309|453:309|362:309,1,116.999994644165,4|0,1:3|0:0,0:0:0:0:
293,346,134217,2,0,B|293:309|293:309|384:309,1,116.999994644165,4|0,1:3|0:0,0:0:0:0:
453,272,134544,1,4,1:3:0:0:
293,346,134761,5,10,0:2:0:0:
246,347,134870,2,0,B|181:347|181:347|163:352|163:352|62:352,1,175.499991966248,4|4,1:3|1:3,0:0:0:0:
71,258,135413,1,0,0:0:0:0:
181,154,135631,5,4,1:3:0:0:
181,247,135848,1,0,0:0:0:0:
71,352,136065,5,2,0:0:0:0:
71,305,136174,1,2,0:0:0:0:
71,258,136283,1,2,0:0:0:0:
71,211,136391,1,6,0:3:0:0:
149,144,136500,6,0,L|149:202,1,58.4999973220826,10|0,0:2|0:0,0:0:0:0:
181,271,136717,2,0,L|181:154,1,116.999994644165,6|0,1:3|0:0,0:0:0:0:
271,110,137044,2,0,L|271:177,1,58.4999973220826,4|0,1:3|0:0,0:0:0:0:
323,338,137370,6,0,B|323:279|323:279|386:279,1,116.999994644165,4|0,1:3|0:0,0:0:0:0:
439,338,137696,2,0,B|439:279|439:279|376:279,1,116.999994644165,4|0,1:3|0:0,0:0:0:0:
323,338,138022,1,4,1:3:0:0:
440,337,138239,5,10,0:2:0:0:
486,339,138348,2,0,L|486:154,1,175.499991966248,4|4,1:3|1:3,0:0:0:0:
392,163,138891,1,0,0:0:0:0:
276,51,139109,5,0,0:0:0:0:
369,49,139326,1,0,0:0:0:0:
486,163,139544,5,2,0:0:0:0:
439,164,139652,1,2,0:0:0:0:
392,163,139761,1,2,0:0:0:0:
345,163,139870,1,6,1:3:0:0:
310,246,139978,6,0,L|389:246,1,58.4999973220826,10|0,0:2|0:0,0:0:0:0:
446,279,140196,2,0,L|323:279,1,116.999994644165,4|0,1:3|0:0,0:0:0:0:
289,363,140522,2,0,L|358:363,1,58.4999973220826,4|0,1:3|0:0,0:0:0:0:
345,163,140848,6,0,B|345:104|345:104|282:104,1,116.999994644165,4|0,1:3|0:0,0:0:0:0:
229,163,141174,2,0,B|229:104|229:104|292:104,1,116.999994644165,4|0,1:3|0:0,0:0:0:0:
345,163,141500,1,4,1:3:0:0:
229,163,141717,5,10,0:2:0:0:
230,209,141826,2,0,B|230:273|230:273|105:273,1,175.499991966248,4|4,1:3|1:3,0:0:0:0:
118,179,142370,1,4,1:3:0:0:
29,56,142587,5,0,3:0:0:0:
29,149,142804,2,0,L|29:272,1,116.999994644165,6|2,1:3|0:0,0:0:0:0:
118,272,143131,2,0,L|118:331,2,58.4999973220826,6|2|2,1:3|0:0|0:0,0:0:0:0:
230,209,143457,2,0,L|230:267,1,58.4999973220826,10|0,0:2|0:0,0:0:0:0:
370,152,143674,2,0,L|370:269,1,116.999994644165,4|2,1:3|0:0,0:0:0:0:
370,292,144000,1,0,0:0:0:0:
370,315,144109,2,0,L|436:315,1,58.4999973220826,2|0,0:0|0:0,0:0:0:0:
277,350,144326,6,0,B|189:350|189:350|189:262|189:262|130:262|130:262|130:291|130:291|41:291,1,350.999983932496,4|4,1:3|0:3,0:0:0:0:
43,203,145848,1,0,0:0:0:0:
42,115,146065,6,0,L|101:115,1,58.4999973220826,0|0,0:0|0:0,0:0:0:0:
188,115,146500,1,2,0:0:0:0:
232,115,146609,1,2,0:0:0:0:
262,146,146717,1,2,0:0:0:0:
305,147,146826,1,2,0:0:0:0:
338,175,146935,6,0,L|338:91,1,58.4999973220826,8|0,0:1|0:0,0:0:0:0:
426,58,147370,2,0,L|426:117,1,58.4999973220826,0|0,0:0|0:0,0:0:0:0:
486,236,147804,6,0,B|398:236|398:236|398:324|398:324|339:324|339:324|339:295|339:295|250:295,1,350.999983932496,6|6,0:3|0:3,0:0:0:0:
164,292,149326,1,0,0:0:0:0:
76,291,149544,6,0,L|76:365,2,58.4999973220826,4|0|2,0:3|0:0|0:0,0:0:0:0:
76,247,150087,1,2,0:0:0:0:
45,215,150196,1,2,0:0:0:0:
44,171,150304,1,2,0:0:0:0:
22,132,150413,6,0,L|93:132,1,58.4999973220826,8|0,0:1|0:0,0:0:0:0:
157,89,150848,2,0,L|227:89,1,58.4999973220826,2|0,0:0|0:0,0:0:0:0:
346,92,151283,5,4,0:0:0:0:
