osu file format v14

[General]
AudioFilename: audio.mp3
AudioLeadIn: 0
PreviewTime: 73022
Countdown: 0
SampleSet: Soft
StackLeniency: 0.7
Mode: 0
LetterboxInBreaks: 0
EpilepsyWarning: 1
WidescreenStoryboard: 1

[Editor]
DistanceSpacing: 2.9
BeatDivisor: 4
GridSize: 4
TimelineZoom: 1.700001

[Metadata]
Title:Flow of Life (TSAR / Tu Zi ST Remix)
TitleUnicode:Flow of Life (TSAR / 兔子ST Remix)
Artist:Windbell
ArtistUnicode:Windbell
Creator:vivicat
Version:Kana's Another
Source:明日方舟
Tags:Arknights Amiya video game fanzhen0019 Hanazawa Kana Lobelia English vocaloid 崔瀚普 塞壬唱片 MSR Monster Siren Records bao.uner windbell_project HyperGryph 生命流 electronic
BeatmapID:2488596
BeatmapSetID:1179243

[Difficulty]
HPDrainRate:5
CircleSize:4
OverallDifficulty:8
ApproachRate:9
SliderMultiplier:1.2
SliderTickRate:1

[Events]
//Background and Video events
0,0,"wallhaven-r2x571.jpg",0,0
Video,-330,"1.mp4"
//Break Periods
//Storyboard Layer 0 (Background)
//Storyboard Layer 1 (Fail)
//Storyboard Layer 2 (Pass)
//Storyboard Layer 3 (Foreground)
//Storyboard Layer 4 (Overlay)
//Storyboard Sound Samples

[TimingPoints]
1718,434.782608695652,4,2,1,50,1,0
6500,-333.333333333334,4,2,1,50,0,0
8239,-333.333333333334,4,2,1,10,0,0
8457,-333.333333333334,4,2,1,50,0,0
15631,-166.666666666667,4,2,1,50,0,0
19109,-111.111111111111,4,2,1,50,0,0
19761,-76.9230769230769,4,2,1,50,0,0
20413,-90.9090909090909,4,2,1,50,0,0
22587,-125,4,2,1,50,0,0
27804,-111.111111111111,4,2,1,50,0,0
29109,-76.9230769230769,4,2,1,60,0,0
29544,-111.111111111111,4,3,1,60,0,0
43457,-454.545454545455,4,2,1,60,0,0
46935,-200,4,2,1,70,0,0
47804,-100,4,2,1,70,0,0
73022,-250,4,2,1,60,0,0
74326,-166.666666666667,4,2,1,60,0,0
74761,-166.666666666667,4,1,1,80,0,1
75631,-62.5,4,1,1,80,0,1
76065,-100,4,1,1,80,0,1
85196,-83.3333333333333,4,1,1,80,0,1
86065,-71.4285714285714,4,1,1,80,0,1
88674,-125,4,1,1,80,0,1
98239,-90.9090909090909,4,1,1,80,0,1
102587,-100,4,3,1,70,0,0
151283,447.761194029851,4,2,1,50,1,0
151730,458.015267175573,4,2,1,50,1,0
152188,472.44094488189,4,2,1,50,1,0
152660,487.80487804878,4,2,1,50,1,0
153147,512.820512820512,4,2,1,50,1,0
153655,535.714285714286,4,2,1,50,1,0
154190,571.428571428572,4,2,1,50,1,0
154761,612.244897959184,4,2,1,50,1,0
155373,631.578947368421,4,2,1,50,1,0
156004,645.161290322581,4,2,1,50,1,0
156649,666.666666666666,4,2,1,50,1,0
157315,731.70731707317,4,2,1,50,1,0
158046,789.473684210525,4,2,1,50,1,0
158835,833.333333333332,4,2,1,50,1,0
159668,882.352941176469,4,2,1,50,1,0
160550,937.499999999998,4,2,1,50,1,0

[Colours]
Combo1 : 169,205,241
Combo2 : 187,186,243

[HitObjects]
235,310,1718,5,2,0:0:0:0:
192,235,3457,1,2,0:0:0:0:
257,161,5196,5,2,0:0:0:0:
249,234,5848,1,2,0:0:0:0:
235,310,6500,2,0,P|292:296|388:271,1,143.999995605469,2|0,0:0|0:0,0:0:0:0:
442,311,8674,6,0,B|459:293|459:293|431:207|431:207|392:204,1,143.999995605469,2|2,0:0|0:0,0:0:0:0:
295,33,12152,5,2,0:0:0:0:
281,108,12804,1,2,0:0:0:0:
301,183,13457,2,0,P|244:168|149:157,1,143.999995605469,2|0,0:0|0:0,0:0:0:0:
39,104,15631,6,0,P|0:91|57:44,1,143.999995605469,4|2,1:0|0:0,0:0:0:0:
79,292,16935,1,0,0:0:0:0:
153,232,17370,2,0,P|142:272|121:377,1,143.999995605469,2|2,0:0|0:0,0:0:0:0:
247,98,18674,1,0,0:0:0:0:
286,284,19109,6,0,P|315:309|384:260,1,107.999996704102,2|0,0:0|0:0,0:0:0:0:
412,221,19761,6,0,B|375:209|299:211|279:307,1,155.999992858887,2|0,0:0|0:0,0:0:0:0:
324,366,20413,6,0,B|314:293|292:258|246:201|169:198|127:257|123:309|135:362|209:375|239:322,1,396.000012084961,2|2,0:0|0:0,0:0:0:0:
32,155,22587,6,0,B|189:116|189:116|139:149,1,192,0|2,3:0|0:0,0:0:0:0:
226,184,24326,6,0,B|296:195|296:195|328:200,1,96,2|0,0:0|0:0,0:0:0:0:
400,188,24978,1,2,0:0:0:0:
330,213,25196,1,2,0:0:0:0:
485,71,25631,5,0,0:0:0:0:
420,15,26065,2,0,P|429:72|436:122,1,96,2|0,0:0|0:0,0:0:0:0:
491,217,26717,2,0,L|498:152,1,48,2|0,0:0|0:0,0:0:0:0:
360,315,27152,2,0,L|352:368,1,48,2|0,0:0|0:0,0:0:0:0:
282,168,27587,1,2,0:0:0:0:
419,196,27804,6,0,B|387:202|387:202|364:220|364:220|337:224|337:224|316:242|316:242|282:244|282:244|260:262|260:262|234:261|234:261|214:278|214:278|137:298,1,269.999991760254,0|0,1:0|0:0,0:0:0:0:
116,351,29109,6,0,L|167:362,1,38.9999982147218,10|0,0:2|0:0,0:0:0:0:
24,227,29326,1,0,3:0:0:0:
208,142,29544,5,4,1:3:0:0:
161,167,29761,1,0,0:0:0:0:
110,160,29978,1,0,0:0:0:0:
66,81,30196,5,4,1:3:0:0:
336,126,30413,5,8,0:2:0:0:
336,126,30631,1,0,0:0:0:0:
299,197,30848,5,0,0:0:0:0:
350,202,31065,1,0,0:0:0:0:
398,182,31283,1,0,0:0:0:0:
445,81,31500,5,4,1:3:0:0:
433,325,31717,1,4,1:3:0:0:
427,278,31935,1,0,0:0:0:0:
445,81,32152,1,8,0:2:0:0:
454,31,32370,5,0,0:0:0:0:
461,75,32587,1,4,0:3:0:0:
474,124,32804,1,0,0:0:0:0:
296,297,33022,5,4,1:3:0:0:
303,254,33239,1,0,0:0:0:0:
329,214,33457,1,0,0:0:0:0:
211,83,33674,5,4,1:3:0:0:
382,286,33891,5,8,0:2:0:0:
382,286,34109,1,0,0:0:0:0:
429,355,34326,5,0,0:0:0:0:
460,311,34544,1,0,0:0:0:0:
460,257,34761,1,0,0:0:0:0:
351,135,34978,5,4,1:3:0:0:
116,290,35196,5,4,1:3:0:0:
166,303,35413,1,0,0:0:0:0:
351,135,35631,5,8,0:2:0:0:
401,148,35848,5,0,0:0:0:0:
347,162,36065,1,0,0:0:0:0:
292,179,36283,1,0,0:0:0:0:
25,93,36500,6,0,L|32:28,1,53.9999983520508,4|0,1:3|0:0,0:0:0:0:
13,172,36935,1,0,0:0:0:0:
198,236,37152,1,4,1:3:0:0:
237,53,37370,2,0,L|171:67,1,53.9999983520508,8|0,0:2|0:0,0:0:0:0:
325,95,37804,1,0,0:0:0:0:
397,74,38022,1,0,0:0:0:0:
290,170,38239,5,0,0:0:0:0:
370,345,38457,1,4,1:3:0:0:
390,127,38674,2,0,L|399:54,1,53.9999983520508,4|0,1:3|0:0,0:0:0:0:
298,295,39109,2,0,L|285:370,1,53.9999983520508,8|0,0:2|0:0,0:0:0:0:
403,271,39544,1,4,0:3:0:0:
355,203,39761,1,0,0:0:0:0:
109,321,39978,6,0,L|44:335,1,53.9999983520508,4|0,1:3|0:0,0:0:0:0:
138,243,40413,1,0,0:0:0:0:
288,348,40631,1,4,1:3:0:0:
492,282,40848,2,0,L|499:220,1,53.9999983520508,8|0,0:2|0:0,0:0:0:0:
452,139,41283,1,4,0:3:0:0:
382,180,41500,1,4,0:3:0:0:
209,88,41717,6,0,L|214:32,1,53.9999983520508,4|0,1:0|0:0,0:0:0:0:
292,29,42152,1,0,0:0:0:0:
278,161,42370,1,0,3:0:0:0:
190,193,42587,2,0,L|130:196,1,53.9999983520508,0|0,0:0|0:0,0:0:0:0:
67,132,43022,1,0,0:0:0:0:
67,132,43239,1,0,0:0:0:0:
132,77,43457,6,0,P|110:192|98:261,1,184.800005639649,4|10,1:1|0:2,0:0:0:0:
106,338,46717,5,4,0:3:0:0:
239,343,46935,6,0,L|301:334,1,60,4|0,1:0|0:0,0:0:0:0:
300,213,47587,1,0,0:0:0:0:
352,275,47804,2,0,P|400:279|475:308,3,120,0|0|0|0,0:0|0:0|0:0|0:0,0:0:0:0:
498,225,49326,1,0,0:0:0:0:
439,152,49544,2,0,L|374:168,1,60,0|0,0:0|0:0,0:0:0:0:
308,186,49978,2,0,L|374:170,1,60,0|0,0:0|2:0,0:0:0:0:
472,17,50413,6,0,P|430:52|365:60,1,120,4|0,1:0|0:0,0:0:0:0:
259,109,51065,1,0,0:0:0:0:
285,31,51283,2,0,L|302:168,1,120,0|0,0:0|0:0,0:0:0:0:
350,259,51935,1,0,0:0:0:0:
235,289,52152,6,0,P|286:235|342:233,1,120,4|0,1:1|0:0,0:0:0:0:
390,174,52804,1,0,0:0:0:0:
480,287,53022,2,0,L|469:354,1,60,10|0,3:0|0:0,0:0:0:0:
469,206,53457,2,0,L|481:141,1,60,0|0,0:0|0:0,0:0:0:0:
195,324,53891,6,0,P|135:309|71:290,1,120,4|0,1:0|0:0,0:0:0:0:
0,295,54544,1,0,0:0:0:0:
36,176,54761,2,0,P|40:136|42:107,1,60,0|0,0:0|0:0,0:0:0:0:
122,27,55196,2,0,L|121:101,1,60,0|0,0:0|0:0,0:0:0:0:
198,185,55631,5,0,0:0:0:0:
212,95,55848,1,0,0:0:0:0:
211,172,56065,5,0,0:0:0:0:
225,82,56282,1,0,2:0:0:0:
223,154,56500,5,0,0:0:0:0:
237,64,56717,1,0,2:0:0:0:
241,140,56935,5,0,0:0:0:0:
122,27,57152,1,0,0:0:0:0:
178,282,57370,6,0,P|227:273|310:261,1,120,4|0,1:3|0:0,0:0:0:0:
378,291,58022,1,0,0:0:0:0:
389,190,58239,1,0,0:0:0:0:
451,358,58457,5,0,0:0:0:0:
399,270,58674,1,0,0:0:0:0:
317,197,58891,1,0,0:0:0:0:
487,146,59109,2,0,P|499:107|515:20,1,120,4|0,1:3|0:0,0:0:0:0:
429,44,59761,1,0,0:0:0:0:
373,118,59978,5,0,0:0:0:0:
394,27,60196,1,0,0:0:0:0:
424,215,60413,5,0,0:0:0:0:
332,115,60631,1,0,0:0:0:0:
65,84,60848,6,0,L|-10:97,1,60,4|0,1:2|0:0,0:0:0:0:
173,147,61283,2,0,B|147:124|147:124|111:139,1,60,8|0,3:2|0:0,0:0:0:0:
220,265,61717,2,0,B|213:223|213:223|184:223,1,60,8|0,3:2|3:0,0:0:0:0:
185,369,62152,1,8,3:2:0:0:
257,336,62370,1,0,0:0:0:0:
60,287,62587,5,8,3:2:0:0:
185,369,62804,1,0,0:0:0:0:
101,357,63022,5,8,3:2:0:0:
247,307,63239,1,0,0:0:0:0:
185,369,63457,5,8,3:2:0:0:
334,282,63674,1,0,0:0:0:0:
341,197,63891,1,8,3:2:0:0:
288,128,64109,1,8,3:2:0:0:
75,60,64326,6,0,P|33:67|6:71,1,60,8|0,1:2|0:0,0:0:0:0:
178,146,64761,2,0,B|154:124|154:124|114:132,1,60,8|0,3:2|0:0,0:0:0:0:
261,229,65196,2,0,B|270:193|270:193|245:161,1,60,8|0,3:2|3:2,0:0:0:0:
188,280,65631,1,8,3:2:0:0:
262,317,65848,1,0,0:0:0:0:
62,360,66065,5,8,3:2:0:0:
262,317,66283,1,0,0:0:0:0:
200,367,66500,5,8,3:2:0:0:
6,273,66717,1,0,0:0:0:0:
62,360,66935,5,8,3:2:0:0:
289,211,67152,1,0,0:0:0:0:
272,361,67370,1,8,3:2:0:0:
45,207,67587,1,0,3:0:0:0:
131,92,67804,5,8,1:2:0:0:
47,97,68022,1,8,3:2:0:0:
241,195,68239,5,8,3:2:0:0:
171,169,68457,1,0,0:0:0:0:
305,290,68674,5,8,3:2:0:0:
323,235,68891,1,0,0:0:0:0:
197,338,69109,5,8,3:2:0:0:
274,373,69326,1,0,0:0:0:0:
92,284,69544,5,8,3:2:0:0:
0,319,69761,1,8,3:2:0:0:
11,235,69978,5,8,3:2:0:0:
92,284,70195,1,0,0:0:0:0:
124,115,70413,5,8,3:2:0:0:
48,139,70630,1,0,0:0:0:0:
88,378,70848,1,8,3:2:0:0:
160,351,71065,1,0,0:0:0:0:
219,211,71283,5,8,3:2:0:0:
217,201,71391,1,0,3:0:0:0:
280,162,71500,5,0,3:0:0:0:
284,150,71609,1,0,3:0:0:0:
362,147,71717,5,8,3:2:0:0:
376,136,71826,1,0,3:0:0:0:
427,195,71935,5,0,3:0:0:0:
454,193,72044,1,0,3:0:0:0:
475,271,72152,5,8,3:2:0:0:
454,342,72261,1,0,3:0:0:0:
380,370,72370,5,0,3:0:0:0:
302,355,72478,1,0,3:0:0:0:
236,307,72587,5,8,3:2:0:0:
168,264,72696,1,0,3:0:0:0:
84,272,72804,5,0,3:0:0:0:
30,341,72913,1,0,3:0:0:0:
110,366,73022,6,0,B|30:340|30:340|50:331|69:341,1,120,8|0,1:0|0:0,0:0:0:0:
115,378,74326,1,0,3:0:0:0:
358,254,74761,6,0,P|339:181|332:121,1,125.999996154785,4|0,0:0|2:0,0:0:0:0:
292,68,75631,6,0,B|298:38|311:16|311:16|326:36|333:64,1,96,8|0,0:0|0:0,0:0:0:0:
116,288,76065,5,4,0:3:0:0:
108,273,76174,1,0,0:0:0:0:
102,249,76283,1,0,0:0:0:0:
102,207,76391,1,0,0:0:0:0:
129,159,76500,1,0,0:0:0:0:
188,116,76609,1,0,0:0:0:0:
207,41,76717,1,0,0:0:0:0:
136,0,76826,1,0,0:0:0:0:
52,33,76935,1,0,0:0:0:0:
19,111,77044,1,0,0:0:0:0:
47,199,77152,1,0,0:0:0:0:
127,257,77261,1,0,0:0:0:0:
232,295,77370,6,0,P|269:288|311:279,1,60,8|0,0:0|0:0,0:0:0:0:
316,268,77696,1,8,0:3:0:0:
280,260,77804,1,0,0:0:0:0:
248,252,77913,1,4,0:3:0:0:
220,246,78022,2,0,L|212:207,1,30,4|0,0:3|0:0,0:0:0:0:
406,81,78239,6,0,L|477:71,1,60,4|0,0:3|0:0,0:0:0:0:
272,27,78565,1,0,0:0:0:0:
293,17,78674,5,0,0:0:0:0:
313,70,78783,1,0,0:0:0:0:
291,122,78891,1,0,0:0:0:0:
235,136,79000,1,0,0:0:0:0:
144,105,79109,6,0,P|136:75|130:43,1,60,8|0,0:0|0:0,0:0:0:0:
306,206,79435,1,0,0:0:0:0:
305,222,79544,5,0,0:0:0:0:
270,268,79653,1,0,0:0:0:0:
214,274,79761,1,0,0:0:0:0:
162,248,79870,1,0,0:0:0:0:
370,281,79978,6,0,L|440:292,1,60,4|0,0:3|0:0,0:0:0:0:
294,344,80304,1,0,0:0:0:0:
299,357,80413,5,0,0:0:0:0:
224,379,80522,1,0,0:0:0:0:
147,364,80631,1,0,0:0:0:0:
87,313,80739,1,0,0:0:0:0:
50,244,80848,6,0,L|60:171,1,60,8|0,0:0|0:0,0:0:0:0:
205,152,81174,1,0,0:0:0:0:
213,168,81283,5,0,0:0:0:0:
130,194,81391,1,0,0:0:0:0:
60,140,81500,1,4,0:3:0:0:
81,55,81609,1,4,0:3:0:0:
212,61,81717,6,0,P|269:78|334:95,1,120,4|0,0:3|0:0,0:0:0:0:
408,104,82370,1,4,0:3:0:0:
331,76,82587,2,0,L|207:95,1,120,8|4,0:0|0:3,0:0:0:0:
122,79,83131,2,0,L|83:71,2,30,0|0|0,0:0|0:0|0:0,0:0:0:0:
94,168,83457,5,0,0:0:0:0:
71,174,83565,1,0,0:0:0:0:
49,180,83674,1,0,0:0:0:0:
76,186,83783,1,0,0:0:0:0:
132,274,83891,5,0,0:0:0:0:
87,264,84000,1,0,0:0:0:0:
45,256,84109,1,0,0:0:0:0:
126,243,84217,1,0,0:0:0:0:
211,226,84326,6,0,P|230:198|235:157,3,60,8|8|0|0,0:0|0:3|0:0|0:0,0:0:0:0:
272,363,85196,6,0,B|266:297|266:297|279:264,1,71.9999978027344,4|0,0:3|0:0,0:0:0:0:
367,200,85522,1,0,0:0:0:0:
355,188,85631,5,0,0:0:0:0:
345,239,85739,1,0,0:0:0:0:
373,278,85848,1,0,0:0:0:0:
423,280,85957,1,0,0:0:0:0:
479,198,86065,6,0,B|482:132|482:132|461:98,1,83.9999974365235,8|0,0:0|0:0,0:0:0:0:
382,56,86391,1,0,0:0:0:0:
395,51,86500,5,0,0:0:0:0:
384,104,86608,1,0,0:0:0:0:
335,121,86717,1,0,0:0:0:0:
287,103,86826,1,0,0:0:0:0:
206,49,86935,6,0,L|112:66,1,83.9999974365235,0|0,0:0|0:0,0:0:0:0:
11,122,87261,1,0,0:0:0:0:
25,150,87370,5,0,0:0:0:0:
30,113,87478,1,0,0:0:0:0:
37,77,87587,1,0,0:0:0:0:
45,41,87696,1,0,0:0:0:0:
111,152,87804,6,0,L|196:167,1,83.9999974365235,8|0,0:0|0:0,0:0:0:0:
305,265,88131,1,0,0:0:0:0:
298,277,88240,5,0,0:0:0:0:
293,238,88348,1,0,0:0:0:0:
285,202,88457,1,4,0:3:0:0:
277,165,88566,1,0,0:0:0:0:
378,315,88674,6,0,P|410:329|456:285,1,96,4|0,0:3|0:0,0:0:0:0:
140,276,89326,1,4,0:3:0:0:
87,348,89544,2,0,P|49:358|18:311,1,96,8|4,0:0|0:3,0:0:0:0:
23,240,90087,6,0,L|20:211,2,24,0|0|0,0:0|0:0|0:0,0:0:0:0:
98,134,90413,5,0,0:0:0:0:
99,147,90522,1,0,0:0:0:0:
102,158,90631,1,0,0:0:0:0:
104,167,90739,1,0,0:0:0:0:
205,38,90848,5,4,0:3:0:0:
153,47,90957,1,0,0:0:0:0:
101,56,91065,1,0,0:0:0:0:
50,67,91174,1,0,0:0:0:0:
212,151,91283,6,0,L|272:137,3,48,8|8|0|4,0:0|0:3|0:0|0:3,0:0:0:0:
450,82,92152,5,4,0:3:0:0:
351,66,92370,2,0,L|319:60,1,24,0|0,0:0|0:0,0:0:0:0:
399,10,92587,1,0,0:0:0:0:
339,204,92804,1,4,0:3:0:0:
440,361,93022,1,8,0:0:0:0:
454,211,93239,2,0,L|458:184,1,24,0|0,0:0|0:0,0:0:0:0:
344,360,93457,1,4,0:3:0:0:
188,313,93674,1,0,0:0:0:0:
236,298,93783,1,0,0:0:0:0:
286,283,93891,5,0,0:0:0:0:
54,353,94109,1,4,0:3:0:0:
360,255,94326,1,4,0:3:0:0:
20,179,94544,1,0,0:0:0:0:
91,221,94652,1,0,0:0:0:0:
173,225,94761,2,0,P|191:198|201:164,1,48,8|8,0:0|0:3,0:0:0:0:
207,108,95087,1,8,0:3:0:0:
154,60,95196,1,0,0:0:0:0:
111,56,95304,1,4,0:3:0:0:
76,66,95413,1,4,0:3:0:0:
61,80,95522,1,0,0:0:0:0:
54,95,95631,6,0,P|60:148|67:201,1,96,4|0,0:3|0:0,0:0:0:0:
23,317,96283,1,4,0:3:0:0:
224,244,96500,2,0,P|187:225|124:247,1,96,8|4,0:0|0:3,0:0:0:0:
127,229,98239,6,0,L|141:137,2,66.0000020141602,8|8|0,0:0|0:3|0:0,0:0:0:0:
194,110,98891,1,4,0:3:0:0:
399,195,99109,2,0,L|474:181,1,66.0000020141602,4|0,0:3|0:0,0:0:0:0:
321,175,99435,1,0,0:0:0:0:
300,179,99544,1,0,0:0:0:0:
404,313,99761,1,4,0:3:0:0:
226,263,99978,2,0,L|309:278,1,66.0000020141602,8|0,0:0|0:0,0:0:0:0:
143,278,100304,1,0,0:0:0:0:
76,308,100413,2,0,P|35:304|7:276,1,66.0000020141602,4|0,0:3|0:0,0:0:0:0:
11,163,100848,5,0,0:0:0:0:
90,14,101065,1,4,0:3:0:0:
171,198,101283,2,0,P|168:149|147:124,1,66.0000020141602,4|0,0:3|0:0,0:0:0:0:
79,46,101609,1,0,0:0:0:0:
14,85,101717,2,0,L|172:58,1,132.00000402832,8|0,0:0|2:0,0:0:0:0:
134,57,102370,1,0,3:0:0:0:
384,153,102587,6,0,L|446:161,1,60,4|0,1:3|0:0,0:0:0:0:
319,230,102913,1,4,1:3:0:0:
319,230,103239,2,0,L|272:226,1,30,4|0,1:3|0:0,0:0:0:0:
311,317,103457,1,10,0:2:0:0:
400,299,103565,2,0,L|304:319,1,90,4|4,1:3|1:3,0:0:0:0:
97,289,104761,1,2,0:0:0:0:
95,297,104870,1,2,0:0:0:0:
92,305,104978,1,2,0:0:0:0:
90,312,105087,1,2,0:0:0:0:
18,306,105196,6,0,P|76:299|140:275,1,120,10|0,0:2|2:0,0:0:0:0:
179,87,106065,5,4,1:3:0:0:
47,108,106391,1,4,1:3:0:0:
34,109,106500,1,0,0:0:0:0:
182,166,106717,2,0,L|213:174,1,30,4|0,1:3|0:0,0:0:0:0:
23,203,106935,1,10,0:2:0:0:
102,161,107044,2,0,P|54:193|14:205,1,90,4|4,1:3|1:3,0:0:0:0:
310,179,107804,6,0,P|320:147|326:114,1,60,2|4,0:0|1:3,0:0:0:0:
474,152,108239,5,0,0:0:0:0:
457,124,108348,1,4,1:3:0:0:
409,57,108457,1,0,0:0:0:0:
417,49,108565,1,0,0:0:0:0:
496,32,108674,6,0,P|448:46|357:66,1,120,10|0,0:2|2:0,0:0:0:0:
207,302,109544,6,0,L|279:292,1,60,4|0,1:3|0:0,0:0:0:0:
122,261,109870,1,4,1:3:0:0:
122,261,110196,2,0,L|68:263,1,30,4|0,1:3|0:0,0:0:0:0:
101,150,110413,1,10,0:2:0:0:
185,182,110522,2,0,P|112:152|75:151,1,90,4|4,1:3|1:3,0:0:0:0:
271,71,111500,5,4,0:0:0:0:
401,49,111717,1,2,0:0:0:0:
409,56,111826,1,6,1:3:0:0:
415,62,111935,1,2,0:0:0:0:
419,71,112044,1,2,0:0:0:0:
351,105,112152,6,0,P|361:149|385:274,1,150,10|0,0:2|2:0,0:0:0:0:
390,244,112804,1,0,0:0:0:0:
180,325,113022,6,0,L|243:337,1,60,4|0,1:3|0:0,0:0:0:0:
81,273,113348,2,0,L|10:286,1,60,4|0,1:3|0:0,0:0:0:0:
160,220,113674,1,4,1:3:0:0:
18,152,113891,1,10,0:2:0:0:
81,200,114000,2,0,L|178:174,1,90,4|4,1:3|1:3,0:0:0:0:
251,156,114761,5,4,1:3:0:0:
323,334,114978,1,0,0:0:0:0:
406,213,115196,1,2,0:0:0:0:
444,220,115304,1,6,1:3:0:0:
480,290,115413,1,2,0:0:0:0:
496,290,115522,1,2,0:0:0:0:
499,367,115631,2,0,P|502:301|510:228,1,120,10|0,0:2|0:0,0:0:0:0:
485,237,116174,2,0,L|480:153,1,60,0|0,0:0|0:0,0:0:0:0:
499,153,116500,5,4,1:0:0:0:
355,46,116717,1,0,0:0:0:0:
432,37,116826,2,0,L|419:142,1,90,4|4,1:3|1:3,0:0:0:0:
349,303,117370,1,10,0:2:0:0:
355,222,117478,2,0,P|346:174|334:130,1,90,4|4,1:3|1:3,0:0:0:0:
240,75,118022,1,0,0:0:0:0:
220,153,118239,1,2,0:0:0:0:
161,94,118457,1,0,0:0:0:0:
112,360,118674,1,2,0:0:0:0:
117,351,118783,1,2,0:0:0:0:
120,342,118891,1,2,0:0:0:0:
121,332,119000,1,6,1:3:0:0:
71,272,119109,6,0,P|63:233|60:190,2,60,10|4|0,0:2|1:3|0:0,0:0:0:0:
152,257,119652,2,0,P|163:223|165:157,2,90,4|4|4,1:3|1:3|1:3,0:0:0:0:
213,313,120413,2,0,P|238:286|250:250,1,60,0|4,0:0|1:3,0:0:0:0:
303,190,120848,1,10,0:2:0:0:
342,258,120957,2,0,P|351:224|350:149,1,90,4|4,1:3|1:3,0:0:0:0:
420,319,121500,1,0,0:0:0:0:
451,249,121717,6,0,L|453:328,1,60,4|0,1:3|0:0,0:0:0:0:
405,111,122152,1,2,0:0:0:0:
429,105,122261,1,2,0:0:0:0:
323,77,122370,1,2,0:0:0:0:
300,83,122478,1,6,1:3:0:0:
394,23,122587,2,0,P|432:35|469:43,1,60,10|4,0:2|1:3,0:0:0:0:
339,155,123022,1,0,0:0:0:0:
258,169,123131,2,0,P|220:163|156:137,1,90,4|4,1:3|1:3,0:0:0:0:
38,116,123674,5,0,0:0:0:0:
45,98,123783,1,4,1:3:0:0:
60,59,123891,5,0,0:0:0:0:
89,221,124109,2,0,L|71:291,1,60,4|10,1:3|0:2,0:0:0:0:
24,336,124435,2,0,P|70:324|127:311,1,90,4|4,1:3|1:3,0:0:0:0:
289,257,124978,1,0,0:0:0:0:
336,325,125196,1,2,0:0:0:0:
246,325,125413,1,0,0:0:0:0:
469,245,125631,5,2,0:0:0:0:
474,234,125739,1,2,0:0:0:0:
476,222,125848,1,2,0:0:0:0:
474,207,125957,1,6,1:3:0:0:
401,180,126065,1,10,0:2:0:0:
477,108,126283,2,0,P|480:73|479:45,1,60,4|0,1:3|0:0,0:0:0:0:
395,24,126609,2,0,P|361:37|292:67,1,90,4|4,1:3|1:3,0:0:0:0:
230,159,127261,5,4,1:3:0:0:
232,134,127370,2,0,L|235:66,1,60,0|4,0:0|1:3,0:0:0:0:
131,227,127804,1,10,0:2:0:0:
147,144,127913,2,0,P|143:99|138:49,1,90,4|4,1:3|1:3,0:0:0:0:
53,64,128457,1,0,0:0:0:0:
35,145,128674,1,2,0:0:0:0:
98,328,128891,5,4,1:3:0:0:
248,257,129109,1,2,0:0:0:0:
285,268,129217,1,6,1:3:0:0:
349,328,129326,1,2,0:0:0:0:
362,323,129435,1,2,0:0:0:0:
421,269,129544,2,0,P|462:277|491:285,1,60,10|0,0:2|0:0,0:0:0:0:
491,365,129978,2,0,L|428:350,1,60,2|0,0:0|0:0,0:0:0:0:
164,296,130413,6,0,P|114:305|57:326,1,90,4|4,1:1|1:3,0:0:0:0:
63,327,130848,1,0,0:0:0:0:
52,189,131065,2,0,P|109:193|135:185,1,60,4|10,1:3|0:2,0:0:0:0:
194,221,131391,2,0,P|222:201|247:137,1,90,4|4,1:3|1:3,0:0:0:0:
309,26,131935,1,0,0:0:0:0:
320,206,132152,2,0,L|327:268,1,60,0|0,0:0|0:0,0:0:0:0:
207,325,132587,2,0,L|200:277,3,30,2|2|2|6,0:0|0:0|0:0|1:3,0:0:0:0:
278,365,133022,2,0,L|350:358,1,60,10|4,0:2|1:3,0:0:0:0:
134,308,133457,1,0,0:0:0:0:
82,358,133565,2,0,P|49:330|41:268,1,90,4|4,1:3|1:3,0:0:0:0:
51,110,134217,5,4,1:3:0:0:
60,130,134326,2,0,P|103:141|142:149,1,60,0|4,0:0|1:3,0:0:0:0:
188,206,134761,1,10,0:2:0:0:
258,241,134870,2,0,P|300:226|325:176,1,90,4|4,1:3|1:3,0:0:0:0:
291,40,135413,1,0,0:0:0:0:
400,231,135631,2,0,L|469:250,1,60,4|0,1:3|0:0,0:0:0:0:
485,92,136065,5,2,0:0:0:0:
479,83,136174,1,2,0:0:0:0:
470,74,136283,1,2,0:0:0:0:
460,67,136391,1,6,0:3:0:0:
447,65,136500,2,0,L|380:79,1,60,10|6,0:2|1:3,0:0:0:0:
286,142,136935,1,0,0:0:0:0:
215,164,137044,2,0,L|121:144,1,90,4|4,1:3|1:3,0:0:0:0:
22,301,137587,6,0,L|27:265,1,30,0|4,0:0|1:3,0:0:0:0:
103,238,137804,2,0,P|133:247|161:266,2,60,0|4|10,0:0|1:3|0:2,0:0:0:0:
184,336,138348,2,0,P|221:330|270:285,1,90,4|4,1:3|1:3,0:0:0:0:
383,359,138891,1,0,0:0:0:0:
288,197,139109,2,0,L|299:132,1,60,0|0,0:0|0:0,0:0:0:0:
447,286,139544,2,0,L|481:279,3,30,2|2|2|6,0:0|0:0|0:0|1:3,0:0:0:0:
382,253,139978,2,0,P|373:216|371:178,1,60,10|4,0:2|1:3,0:0:0:0:
298,137,140413,1,0,0:0:0:0:
294,60,140522,2,0,P|319:33|379:25,1,90,4|4,1:3|1:3,0:0:0:0:
200,137,141174,5,4,1:3:0:0:
180,148,141283,2,0,P|139:145|100:140,1,60,0|4,0:0|1:3,0:0:0:0:
20,226,141717,1,10,0:2:0:0:
88,261,141826,2,0,P|126:248|186:239,1,90,4|4,1:3|1:3,0:0:0:0:
314,346,142370,1,4,1:3:0:0:
348,167,142587,5,0,3:0:0:0:
490,304,142804,2,0,L|422:290,1,60,4|2,1:3|0:0,0:0:0:0:
366,256,143131,1,6,1:3:0:0:
354,258,143239,1,2,0:0:0:0:
341,261,143348,1,2,0:0:0:0:
329,263,143457,1,10,0:2:0:0:
472,223,143674,1,4,1:3:0:0:
376,162,143891,1,2,0:0:0:0:
362,165,144000,1,0,0:0:0:0:
348,167,144109,1,2,0:0:0:0:
476,129,144326,5,4,1:3:0:0:
303,89,144652,1,4,1:3:0:0:
167,186,144978,1,4,1:3:0:0:
192,75,145196,1,8,0:1:0:0:
203,81,145304,1,4,0:3:0:0:
259,271,145631,2,0,L|250:339,1,60,4|0,0:3|0:0,0:0:0:0:
27,358,146500,5,2,0:0:0:0:
26,347,146609,1,2,0:0:0:0:
25,334,146717,1,2,0:0:0:0:
22,321,146826,1,2,0:0:0:0:
19,310,146935,1,8,0:1:0:0:
392,341,147804,5,4,0:0:0:0:
331,235,148131,1,4,0:0:0:0:
216,187,148457,1,4,0:0:0:0:
308,118,148674,1,8,0:1:0:0:
294,119,148783,1,4,0:0:0:0:
109,199,149109,2,0,L|39:200,1,60,4|0,0:0|0:0,0:0:0:0:
110,119,149544,1,4,0:0:0:0:
262,368,149978,1,2,0:0:0:0:
265,361,150087,1,2,0:0:0:0:
268,354,150196,1,2,0:0:0:0:
270,346,150304,1,2,0:0:0:0:
271,338,150413,1,8,0:1:0:0:
372,126,150848,6,0,L|434:137,1,60,2|0,0:0|0:0,0:0:0:0:
207,47,151283,1,4,0:0:0:0:
