osu file format v14

[General]
AudioFilename: audio.mp3
AudioLeadIn: 0
PreviewTime: 73022
Countdown: 0
SampleSet: Soft
StackLeniency: 0.7
Mode: 0
LetterboxInBreaks: 0
EpilepsyWarning: 1
WidescreenStoryboard: 1

[Editor]
DistanceSpacing: 1.3
BeatDivisor: 4
GridSize: 32
TimelineZoom: 2.300001

[Metadata]
Title:Flow of Life (TSAR / Tu Zi ST Remix)
TitleUnicode:Flow of Life (TSAR / 兔子ST Remix)
Artist:Windbell
ArtistUnicode:Windbell
Creator:vivicat
Version:Hard
Source:明日方舟
Tags:Arknights Amiya video game fanzhen0019 Hanazawa Kana Lobelia English vocaloid 崔瀚普 塞壬唱片 MSR Monster Siren Records bao.uner windbell_project HyperGryph 生命流 electronic
BeatmapID:2608242
BeatmapSetID:1179243

[Difficulty]
HPDrainRate:4.5
CircleSize:4
OverallDifficulty:7
ApproachRate:8
SliderMultiplier:1.4
SliderTickRate:1

[Events]
//Background and Video events
0,0,"81889701_p0.jpg",0,0
Video,-330,"1.mp4"
//Break Periods
//Storyboard Layer 0 (Background)
//Storyboard Layer 1 (Fail)
//Storyboard Layer 2 (Pass)
//Storyboard Layer 3 (Foreground)
//Storyboard Layer 4 (Overlay)
//Storyboard Sound Samples

[TimingPoints]
1718,434.782608695652,4,2,1,30,1,0
5196,-100,4,2,1,40,0,0
6717,-133.333333333333,4,2,1,40,0,0
8239,-100,4,2,1,40,0,0
15631,-100,4,2,1,50,0,0
29109,-100,4,3,1,60,0,0
46935,-100,4,2,1,60,0,0
74761,-100,4,1,1,80,0,1
102478,-100,4,1,1,5,0,1
102587,-100,4,1,1,70,0,0
144326,-100,4,3,1,60,0,0
151283,447.761194029851,4,2,1,50,1,0
151730,458.015267175573,4,2,1,50,1,0
152188,472.44094488189,4,2,1,50,1,0
152660,487.80487804878,4,2,1,50,1,0
153147,512.820512820512,4,2,1,50,1,0
153655,535.714285714286,4,2,1,50,1,0
154190,571.428571428572,4,2,1,50,1,0
154761,612.244897959184,4,2,1,50,1,0
155373,631.578947368421,4,2,1,50,1,0
156004,645.161290322581,4,2,1,50,1,0
156649,666.666666666666,4,2,1,50,1,0
157315,731.70731707317,4,2,1,50,1,0
158046,789.473684210525,4,2,1,50,1,0
158835,833.333333333332,4,2,1,50,1,0
159668,882.352941176469,4,2,1,50,1,0
160550,937.499999999998,4,2,1,50,1,0

[Colours]
Combo1 : 169,205,241
Combo2 : 187,186,243

[HitObjects]
97,183,1718,6,0,P|166:186|233:168,1,140,2|0,0:0|0:0,0:0:0:0:
253,276,2370,2,0,P|308:259|389:261,1,140,2|0,0:0|0:0,0:0:0:0:
472,191,3022,1,0,0:0:0:0:
478,281,3239,1,0,0:0:0:0:
386,281,3457,6,0,P|321:305|253:293,1,140,2|0,0:0|0:0,0:0:0:0:
174,219,4109,2,0,P|238:194|306:206,1,140,2|0,0:0|0:0,0:0:0:0:
357,300,4761,1,0,0:0:0:0:
462,301,4978,1,0,0:0:0:0:
450,187,5196,6,0,L|441:41,1,140,2|0,0:0|0:0,0:0:0:0:
331,47,5848,2,0,L|322:186,1,140,2|0,0:0|0:0,0:0:0:0:
65,105,6717,2,0,B|124:158|191:105|191:105|252:67|318:134,1,262.500010013581,0|2,0:0|0:0,0:0:0:0:
305,326,8674,6,0,P|310:258|361:190,1,140,2|0,0:0|0:0,0:0:0:0:
445,135,9326,2,0,P|440:203|389:271,1,140,2|0,0:0|0:0,0:0:0:0:
401,261,9978,1,0,0:0:0:0:
207,311,10413,6,0,P|139:306|71:255,1,140,2|0,0:0|0:0,0:0:0:0:
21,172,11065,2,0,P|89:177|157:228,1,140,2|0,0:0|0:0,0:0:0:0:
260,206,11717,2,0,L|344:220,1,70
392,154,12152,6,0,P|465:149|500:212,1,140,2|0,0:0|0:0,0:0:0:0:
458,280,12804,2,0,P|381:284|312:298,1,140,2|0,0:0|0:0,0:0:0:0:
227,286,13457,1,2,0:0:0:0:
161,348,13674,2,0,P|29:244|81:166,1,280,2|0,0:0|0:0,0:0:0:0:
153,147,14761,2,0,L|370:163,1,210,2|0,0:0|0:0,0:0:0:0:
431,216,15631,6,0,P|481:322|364:321,1,280,4|2,1:0|0:0,0:0:0:0:
288,268,16935,1,0,0:0:0:0:
197,110,17370,2,0,L|50:93,1,140,2|0,0:0|0:0,0:0:0:0:
22,206,18022,2,0,L|163:196,1,140,2|0,0:0|0:0,0:0:0:0:
204,270,18674,1,0,0:0:0:0:
371,342,19109,6,0,P|404:280|386:191,1,140,2|0,0:0|0:0,0:0:0:0:
323,159,19761,2,0,P|314:86|349:16,1,140,2|0,0:0|0:0,0:0:0:0:
255,19,20413,2,0,B|214:60|176:40|176:40|129:9|92:20|53:64|71:118|130:125,1,280,2|0,0:0|0:0,0:0:0:0:
278,169,21717,2,0,P|374:142|463:210,1,210,2|0,0:0|0:0,0:0:0:0:
476,307,22587,6,0,B|426:375|349:317|349:317|284:266|220:324,1,280,0|2,3:0|0:0,0:0:0:0:
112,314,24326,6,0,L|81:97,1,210,2|2,0:0|0:0,0:0:0:0:
397,217,25631,2,0,L|383:141,1,70,0|0,0:0|0:0,0:0:0:0:
363,75,26065,6,0,P|294:86|216:44,1,140,2|0,0:0|0:0,0:0:0:0:
130,29,26717,2,0,L|149:185,1,140,2|0,0:0|0:0,0:0:0:0:
211,237,27370,2,0,P|213:281|236:309,1,70,2|0,0:0|0:0,0:0:0:0:
302,338,27804,1,0,1:0:0:0:
256,192,27913,12,10,29109,0:2:0:0:
129,82,29544,6,0,P|163:177|131:291,1,210,4|4,1:3|1:3,0:0:0:0:
80,350,30413,1,8,0:2:0:0:
413,202,31283,5,0,0:0:0:0:
332,159,31500,1,4,1:3:0:0:
409,113,31717,2,0,P|429:81|421:46,1,70,4|0,1:3|0:0,0:0:0:0:
338,25,32152,2,0,L|183:35,1,140,8|4,0:2|0:3,0:0:0:0:
78,170,33022,6,0,B|124:168|165:210|241:212|283:155,1,210,4|4,1:3|1:3,0:0:0:0:
356,201,33891,1,8,0:2:0:0:
356,201,34326,2,0,P|401:213|409:303,1,140,0|0,0:0|0:0,0:0:0:0:
334,339,34978,1,4,1:3:0:0:
243,330,35196,1,4,1:3:0:0:
165,165,35631,2,0,B|92:186|92:186|20:188,1,140,8|0,0:2|0:0,0:0:0:0:
98,355,36500,6,0,P|118:277|245:277,1,210,4|4,1:3|1:3,0:0:0:0:
309,315,37370,1,8,0:2:0:0:
385,122,38239,1,0,0:0:0:0:
296,98,38457,1,4,1:3:0:0:
210,128,38674,2,0,L|128:123,1,70,4|0,1:3|0:0,0:0:0:0:
107,38,39109,2,0,P|163:43|252:32,1,140,8|4,0:2|0:3,0:0:0:0:
381,54,39978,6,0,P|384:140|402:216,1,140,4|0,1:3|0:0,0:0:0:0:
440,272,40631,1,4,1:3:0:0:
393,350,40848,2,0,P|329:329|236:344,2,140,8|4|4,0:2|0:3|1:0,0:0:0:0:
256,192,42152,12,4,43457,1:1:0:0:
256,192,43565,12,8,46500,0:2:0:0:
323,220,46935,6,0,L|183:220,1,140,4|0,1:0|0:0,0:0:0:0:
112,320,47587,2,0,B|256:32|256:32|400:320,1,630,0|0,0:0|0:0,0:0:0:0:
240,313,49978,2,0,B|245:347|245:347|255:328|272:325,1,70,0|0,0:0|2:0,0:0:0:0:
144,256,50413,6,0,L|160:96,1,140,4|0,1:0|0:0,0:0:0:0:
304,128,51065,2,0,B|176:189|176:189|368:272,1,350,0|4,0:0|1:1,0:0:0:0:
299,45,53022,2,0,P|302:79|329:99,1,70,10|0,3:0|0:0,0:0:0:0:
433,69,53457,2,0,L|419:137,1,70,0|0,0:0|0:0,0:0:0:0:
176,112,53891,6,0,B|159:260,1,140,4|0,1:0|0:0,0:0:0:0:
192,112,54544,2,0,B|320:288,1,210,0|0,0:0|0:0,0:0:0:0:
329,79,55631,2,0,L|306:217,1,140,0|0,0:0|0:0,0:0:0:0:
61,260,56500,2,0,L|71:191,1,70,0|0,0:0|2:0,0:0:0:0:
81,98,56935,2,0,P|80:74|86:100,1,70,0|0,0:0|0:0,0:0:0:0:
238,129,57370,6,0,P|186:146|245:169,1,140,4|0,1:3|0:0,0:0:0:0:
317,170,58022,2,0,B|309:248|309:248|265:266|225:241,1,140,0|0,0:0|0:0,0:0:0:0:
151,283,58674,2,0,L|137:359,1,70,0|0,0:0|0:0,0:0:0:0:
52,155,59109,2,0,B|82:216|175:170|201:61|44:14|6:76|16:162|42:202|42:202|84:239|44:257,1,420,4|0,1:3|0:0,0:0:0:0:
198,108,60848,5,4,1:2:0:0:
378,244,61283,1,8,3:2:0:0:
202,196,61717,1,8,3:2:0:0:
346,306,62152,2,0,B|415:300,1,70,8|0,3:2|0:0,0:0:0:0:
506,290,62587,5,8,3:2:0:0:
344,205,63022,1,8,3:2:0:0:
457,346,63456,1,8,3:2:0:0:
366,337,63674,2,0,B|293:349,2,70,0|8|8,0:0|3:2|3:2,0:0:0:0:
455,317,64326,5,8,1:2:0:0:
479,137,64760,1,8,3:2:0:0:
376,287,65195,1,8,3:2:0:0:
415,109,65631,2,0,B|421:178,1,70,8|0,3:2|0:0,0:0:0:0:
424,269,66065,5,8,3:2:0:0:
272,169,66499,1,8,3:2:0:0:
378,316,66934,1,8,3:2:0:0:
293,307,67152,2,0,B|223:300,2,70,0|8|0,0:0|3:2|3:0,0:0:0:0:
228,207,67804,6,0,B|133:183,2,70,8|8|8,1:2|0:0|3:2,0:0:0:0:
315,233,68457,1,0,0:0:0:0:
279,149,68674,2,0,L|249:64,1,70,8|0,3:2|0:0,0:0:0:0:
164,87,69109,2,0,L|140:153,1,70,8|0,3:2|0:0,0:0:0:0:
308,199,69544,6,0,L|338:287,2,70,8|8|8,3:2|3:2|3:2,0:0:0:0:
276,113,70196,1,0,0:0:0:0:
364,138,70413,2,0,L|429:165,1,70,8|0,3:2|0:0,0:0:0:0:
423,256,70848,2,0,L|359:283,1,70,8|0,3:2|0:0,0:0:0:0:
251,244,71283,6,0,L|285:241,3,35,8|0|0|0,3:2|3:2|3:2|3:2,3:2:0:0:
196,223,71717,2,0,L|161:225,3,35,8|0|0|0,3:2|3:2|3:2|3:2,3:2:0:0:
265,167,72152,2,0,L|299:164,3,35,8|0|0|0,3:2|3:2|3:2|3:2,3:2:0:0:
167,118,72587,2,0,L|132:121,3,35,8|0|0|0,3:2|3:2|3:2|3:2,3:2:0:0:
258,50,73022,1,8,1:0:0:0:
256,192,73131,12,0,74326,0:0:0:0:
158,116,74761,6,0,P|101:49|69:131,1,210,4|0,0:0|2:0,0:0:0:0:
132,210,75631,1,8,0:0:0:0:
397,149,76065,2,0,P|369:115|318:122,1,70,4|0,0:3|0:0,0:0:0:0:
302,128,76391,1,0,0:0:0:0:
276,166,76500,2,0,L|277:224,3,35,0|0|0|0,0:0|0:0|0:0|0:0,0:0:0:0:
196,260,76935,2,0,L|196:225,3,35
122,305,77370,2,0,P|80:276|71:224,1,105,8|8,0:0|0:3,0:0:0:0:
66,86,77913,1,4,0:3:0:0:
107,104,78022,1,4,0:3:0:0:
229,68,78239,6,0,L|297:74,1,70,4|0,0:3|0:0,0:0:0:0:
337,172,78674,1,0,0:0:0:0:
238,177,78891,1,0,0:0:0:0:
212,267,79109,2,0,L|280:273,1,70,8|0,0:0|0:0,0:0:0:0:
356,354,79544,1,0,0:0:0:0:
257,359,79761,1,0,0:0:0:0:
158,332,79978,6,0,L|153:262,1,70,4|0,0:3|0:0,0:0:0:0:
64,205,80413,2,0,L|57:274,1,70,0|0,0:0|0:0,0:0:0:0:
151,241,80848,1,8,0:0:0:0:
147,141,81065,1,0,0:0:0:0:
286,182,81283,1,0,0:0:0:0:
261,276,81500,1,4,0:3:0:0:
267,81,81717,6,0,L|406:90,1,140,4|0,0:3|0:0,0:0:0:0:
494,98,82370,1,4,0:3:0:0:
469,206,82587,2,0,L|394:216,1,70,8|0,0:0|0:0,0:0:0:0:
299,251,83022,2,0,P|255:269|262:312,1,70,4|0,0:3|0:0,0:0:0:0:
265,330,83348,1,0,0:0:0:0:
305,351,83457,2,0,L|354:353,3,35
401,313,83891,2,0,L|436:315,3,35
433,231,84326,2,0,P|381:223|337:195,2,105,8|8|4,0:0|0:3|0:3,0:0:0:0:
501,162,85196,6,0,B|418:153,1,70,4|0,0:3|0:0,0:0:0:0:
403,75,85631,1,0,0:0:0:0:
327,105,85848,1,0,0:0:0:0:
263,44,86065,2,0,B|167:29,1,70,8|0,0:0|0:0,0:0:0:0:
218,121,86500,1,0,0:0:0:0:
127,127,86717,1,0,0:0:0:0:
163,226,86935,6,0,L|147:294,1,70,4|0,0:3|0:0,0:0:0:0:
237,302,87370,1,0,0:0:0:0:
254,384,87587,1,0,0:0:0:0:
325,328,87804,2,0,L|341:260,1,70,8|0,0:0|0:0,0:0:0:0:
431,272,88239,1,0,0:0:0:0:
450,361,88457,1,4,0:3:0:0:
307,334,88674,6,0,P|252:357|217:357,2,70,4|0|0,0:3|0:0|0:0,0:0:0:0:
384,285,89326,1,4,0:3:0:0:
414,198,89544,1,8,0:0:0:0:
199,191,89978,2,0,P|166:181|148:152,1,70,4|0,0:3|0:0,0:0:0:0:
148,106,90304,1,0,0:0:0:0:
153,59,90413,2,0,L|187:60,3,35,0|0|0|0,0:0|0:0|0:0|0:0,0:0:0:0:
74,95,90848,2,0,L|39:93,3,35,4|0|0|0,0:3|0:0|0:0|0:0,0:0:0:0:
117,168,91283,2,0,B|233:154,2,105,8|8|4,0:0|0:3|0:3,0:0:0:0:
108,287,92152,6,0,L|191:277,1,70,4|0,0:3|0:0,0:0:0:0:
154,192,92587,1,0,0:0:0:0:
71,154,92804,1,4,0:3:0:0:
197,42,93022,2,0,L|218:122,1,70,8|0,0:0|0:0,0:0:0:0:
306,108,93457,1,4,0:3:0:0:
341,191,93674,1,0,0:0:0:0:
404,64,93891,6,0,L|481:55,1,70,0|4,0:0|0:3,0:0:0:0:
458,145,94326,2,0,L|448:214,1,70,4|0,0:3|0:0,0:0:0:0:
474,329,94761,1,8,0:0:0:0:
360,347,94978,2,0,L|297:357,2,35
315,244,95413,1,0,0:0:0:0:
430,259,95631,6,0,P|416:170|375:131,1,140,4|0,0:3|0:0,0:0:0:0:
292,147,96283,1,4,0:3:0:0:
228,215,96500,2,0,B|139:229,1,70,8|4,0:0|0:3,0:0:0:0:
75,189,96935,2,0,P|121:102|236:130,1,210,4|0,0:3|0:0,0:0:0:0:
284,193,97804,1,0,0:0:0:0:
272,295,98022,1,0,0:0:0:0:
367,330,98239,2,0,B|420:321|420:321|496:344,2,105,8|8|4,0:0|0:3|0:3,0:0:0:0:
292,242,99109,6,0,L|451:225,1,140,4|0,0:3|0:0,0:0:0:0:
461,135,99761,2,0,L|378:131,1,70,4|8,0:3|0:0,0:0:0:0:
286,138,100196,1,0,0:0:0:0:
241,231,100413,2,0,L|98:242,1,140,4|0,0:3|0:0,0:0:0:0:
3,251,101065,1,4,0:3:0:0:
3,251,101283,1,4,0:3:0:0:
188,139,101717,1,8,0:0:0:0:
363,32,102152,6,0,P|400:41|360:66,1,105,0|0,0:0|3:0,0:0:0:0:
365,70,102587,6,0,B|318:44|234:47|234:47,2,105,4|4|4,1:3|1:3|1:3,0:0:0:0:
434,128,103457,1,10,0:2:0:0:
402,159,103565,2,0,P|349:164|298:153,1,105,4|4,1:3|1:3,0:0:0:0:
113,155,104544,1,0,0:0:0:0:
113,155,104761,2,0,L|124:119,1,35,2|6,0:2|0:3,0:2:0:0:
62,281,105196,1,10,0:2:0:0:
382,337,106065,6,0,P|424:361|491:370,2,105,4|4|4,1:3|1:3|1:3,0:0:0:0:
305,287,106935,1,10,0:2:0:0:
269,257,107044,2,0,P|208:250|150:269,1,105,4|4,1:3|1:3,0:0:0:0:
186,53,108022,2,0,P|126:50|76:90,1,105,4|4,1:3|1:3,0:0:0:0:
64,111,108457,1,0,0:0:0:0:
148,175,108674,1,10,0:2:0:0:
360,243,109544,6,0,P|342:292|346:344,2,105,4|4|4,1:3|1:3|1:3,0:0:0:0:
412,169,110413,1,10,0:2:0:0:
432,128,110522,2,0,P|446:78|428:2,1,105,4|4,1:3|1:3,0:0:0:0:
140,177,111500,1,4,0:3:0:0:
140,177,111717,2,0,L|127:238,1,35,2|6,0:2|1:3,0:2:0:0:
156,66,112152,1,10,0:2:0:0:
387,131,113022,6,0,P|385:73|365:16,2,105,4|4|4,1:3|1:3|1:3,0:0:0:0:
348,210,113891,1,10,0:2:0:0:
334,253,114000,2,0,P|324:306|355:373,1,105,4|4,1:3|1:3,0:0:0:0:
444,122,114978,2,0,P|448:70|408:19,1,105,0|6,0:0|1:3,0:0:0:0:
298,88,115631,1,10,0:2:0:0:
61,326,116500,6,0,P|86:282|82:234,1,70,4|0,1:0|0:0,0:0:0:0:
97,218,116826,2,0,P|82:172|56:148,1,70,4|0,1:3|0:0,0:0:0:0:
28,127,117152,1,4,1:3:0:0:
189,150,117370,1,10,0:2:0:0:
226,125,117478,2,0,P|274:119|316:155,1,105,4|4,1:3|1:3,0:0:0:0:
457,267,118239,2,0,L|469:335,2,70,2|0|2,0:2|0:2|0:2,0:2:0:0:
369,271,118891,1,2,0:2:0:0:
369,271,119000,2,0,L|302:268,1,35,6|10,1:3|0:2,0:2:0:0:
251,307,119326,2,0,P|216:269|218:218,1,105,4|4,1:3|1:3,0:0:0:0:
306,121,119978,6,0,P|327:158|363:162,1,70,4|0,1:3|0:0,0:0:0:0:
397,165,120304,2,0,P|428:176|442:208,1,70,4|0,1:3|0:0,0:0:0:0:
437,253,120631,1,4,1:3:0:0:
353,289,120848,1,10,0:2:0:0:
344,333,120957,2,0,P|322:366|287:379,1,70,4|0,1:3|0:0,0:0:0:0:
255,355,121283,2,0,P|206:351|177:372,1,70,4|0,1:3|0:0,0:0:0:0:
99,341,121717,2,0,L|129:196,1,140,4|2,1:3|0:2,0:0:0:0:
196,143,122370,2,0,L|247:124,2,35,2|6|10,0:3|1:3|0:2,0:3:0:0:
112,106,122804,2,0,L|2:93,1,105,4|4,1:3|1:3,0:0:0:0:
59,220,123457,6,0,P|95:204|140:218,1,70,4|0,1:3|0:0,0:0:0:0:
167,222,123783,2,0,P|201:225|232:210,1,70,4|0,1:3|0:0,0:0:0:0:
262,183,124109,1,4,1:3:0:0:
313,108,124326,1,10,0:2:0:0:
347,77,124435,2,0,P|375:59|423:82,1,70,4|0,1:3|0:0,0:0:0:0:
433,105,124761,2,0,L|440:175,1,70,4|0,1:3|0:0,0:0:0:0:
389,250,125196,6,0,B|312:244|312:244|242:268,1,140,2|2,0:3|0:3,0:3:0:0:
155,262,125848,1,2,0:3:0:0:
155,262,125957,2,0,L|94:254,1,35,6|10,1:3|0:2,0:3:0:0:
169,163,126283,2,0,P|215:136|264:158,1,105,4|4,1:3|1:3,0:0:0:0:
167,328,126935,6,0,P|197:348|252:338,1,70,4|0,1:3|0:0,0:0:0:0:
263,317,127261,2,0,P|297:318|326:337,1,70,4|0,1:3|0:0,0:0:0:0:
363,363,127587,1,4,1:3:0:0:
445,324,127804,1,10,0:2:0:0:
427,281,127913,2,0,P|413:253|434:222,1,70,4|0,1:3|0:0,0:0:0:0:
450,181,128239,2,0,L|363:174,1,70,4|0,1:3|0:0,0:0:0:0:
290,159,128674,5,2,0:3:0:0:
242,236,128891,2,0,P|191:250|143:228,1,105,4|6,1:3|1:3,0:0:0:0:
5,175,129544,2,0,P|21:105|104:168,1,210,10|0,0:2|0:0,0:0:0:0:
86,338,130413,6,0,P|43:308|28:259,2,105,4|4|4,1:1|1:3|1:3,0:0:0:0:
183,282,131283,1,10,0:2:0:0:
213,313,131391,2,0,P|247:329|291:318,1,70,4|0,1:3|0:0,0:0:0:0:
322,303,131717,2,0,P|362:279|405:284,1,70,4|0,1:3|0:0,0:0:0:0:
473,296,132152,2,0,L|456:151,1,140,0|2,0:0|0:3,0:0:0:0:
399,86,132804,1,2,0:3:0:0:
314,123,133022,1,10,0:2:0:0:
225,106,133239,2,0,P|173:88|110:121,1,105,4|4,1:3|1:3,0:0:0:0:
219,204,133891,6,0,P|263:212|292:284,2,105,4|4|4,1:3|1:3|1:3,0:0:0:0:
115,158,134761,1,10,0:2:0:0:
90,199,134870,2,0,P|80:236|111:274,1,70,4|0,1:3|0:0,0:0:0:0:
134,283,135196,2,0,P|148:314|137:346,1,70,4|0,1:3|0:0,0:0:0:0:
246,225,135631,2,0,P|244:176|255:121,2,105,4|0|2,1:3|0:0|0:3,0:0:0:0:
351,287,136500,1,10,0:2:0:0:
437,215,136717,2,0,P|443:158|414:108,1,105,4|4,1:3|1:3,0:0:0:0:
256,88,137370,6,0,P|211:117|157:102,2,105,4|4|4,1:3|1:3|1:3,0:0:0:0:
374,91,138239,1,10,0:2:0:0:
421,114,138348,2,0,P|439:128|436:185,1,70,4|0,1:3|0:0,0:0:0:0:
415,220,138674,2,0,P|414:254|438:278,1,70,4|0,1:3|0:0,0:0:0:0:
330,310,139109,2,0,B|281:353|205:339,2,105,0|0|2,0:0|0:0|0:3,0:0:0:0:
334,198,139978,1,10,0:2:0:0:
236,141,140196,2,0,P|180:138|114:171,1,105,4|4,1:3|1:3,0:0:0:0:
290,301,140848,6,0,P|344:302|383:365,2,105,4|4|4,1:3|1:3|1:3,0:0:0:0:
183,283,141717,1,10,0:2:0:0:
142,321,141826,2,0,P|100:327|62:296,1,70,4|0,1:3|0:0,0:0:0:0:
68,259,142152,2,0,P|36:245|2:253,1,70,4|4,1:3|1:3,0:0:0:0:
62,157,142587,2,0,P|159:131|235:206,1,210,0|2,3:0|0:3,0:0:0:0:
281,300,143457,1,10,0:2:0:0:
378,332,143674,2,0,P|444:326|461:250,1,140,4|2,1:3|0:3,0:0:0:0:
394,138,144326,6,0,P|395:82|405:34,2,105,4|4|4,1:1|1:3|1:3,0:0:0:0:
309,210,145196,1,8,0:1:0:0:
309,210,145304,2,0,P|303:268|287:322,1,105,4|4,0:3|0:3,0:0:0:0:
117,261,146283,2,0,L|130:343,1,70,0|2,0:3|0:3,0:3:0:0:
166,352,146609,2,0,L|153:269,1,70,2|2,0:3|0:3,0:3:0:0:
146,201,146935,1,8,0:1:0:0:
307,196,147804,6,0,P|315:265|345:309,2,105,4|4|4,0:3|0:3|0:3,0:3:0:0:
234,116,148674,1,8,0:1:0:0:
234,116,148783,2,0,P|232:71|221:9,1,105,4|4,0:3|0:3,0:3:0:0:
384,250,149761,2,0,L|389:332,1,70,0|2,0:0|0:0,0:0:0:0:
358,357,150087,2,0,L|353:279,1,70,2|2,0:0|0:0,0:0:0:0:
309,236,150413,2,0,L|237:248,1,70,8|0,0:1|0:0,0:0:0:0:
310,162,150848,2,0,L|379:169,1,70,2|0,0:0|0:0,0:0:0:0:
443,129,151283,5,4,0:0:0:0:
