osu file format v14

[General]
AudioFilename: audio.mp3
AudioLeadIn: 0
PreviewTime: 73022
Countdown: 0
SampleSet: Normal
StackLeniency: 0.7
Mode: 0
LetterboxInBreaks: 0
EpilepsyWarning: 1
WidescreenStoryboard: 1

[Editor]
DistanceSpacing: 1.3
BeatDivisor: 8
GridSize: 4
TimelineZoom: 2.8

[Metadata]
Title:Flow of Life (TSAR / Tu Zi ST Remix)
TitleUnicode:Flow of Life (TSAR / 兔子ST Remix)
Artist:Windbell
ArtistUnicode:Windbell
Creator:vivicat
Version:Extra
Source:明日方舟
Tags:Arknights Amiya video game fanzhen0019 Hanazawa Kana Lobelia English vocaloid 崔瀚普 塞壬唱片 MSR Monster Siren Records bao.uner windbell_project HyperGryph 生命流 electronic
BeatmapID:2608241
BeatmapSetID:1179243

[Difficulty]
HPDrainRate:7
CircleSize:4.5
OverallDifficulty:8.5
ApproachRate:9.6
SliderMultiplier:2.2
SliderTickRate:1

[Events]
//Background and Video events
0,0,"77034087_p0_master1200.jpg",0,0
Video,-330,"1.mp4"
//Break Periods
//Storyboard Layer 0 (Background)
//Storyboard Layer 1 (Fail)
//Storyboard Layer 2 (Pass)
//Storyboard Layer 3 (Foreground)
//Storyboard Layer 4 (Overlay)
//Storyboard Sound Samples

[TimingPoints]
1718,434.782608695652,4,2,1,30,1,0
1718,-200,4,2,1,30,0,0
5196,-200,4,2,1,40,0,0
8239,-200,4,2,1,10,0,0
8457,-200,4,2,1,40,0,0
15631,-200,4,2,1,50,0,0
29109,-100,4,3,1,70,0,0
46935,-100,4,2,1,70,0,0
50413,-86.9565217391304,4,2,1,70,0,0
53891,-100,4,2,1,70,0,0
56500,-166.666666666667,4,2,1,70,0,0
56935,-100,4,2,1,70,0,0
57044,-100,4,1,1,5,0,0
57152,-100,4,1,1,70,0,0
57261,-100,4,1,1,5,0,0
57370,-62.5,4,2,1,70,0,0
58674,-40,4,2,1,70,0,0
59109,-125,4,2,1,70,0,0
60848,-100,4,2,1,60,0,0
67696,-100,4,2,1,5,0,0
67804,-100,4,2,1,60,0,0
71717,-100,4,2,1,65,0,0
72152,-100,4,2,1,75,0,0
74761,-66.6666666666667,4,1,1,80,0,1
76554,-66.6666666666667,4,1,1,5,0,1
76609,-66.6666666666667,4,1,1,80,0,1
76663,-66.6666666666667,4,1,1,5,0,1
76717,-66.6666666666667,4,1,1,80,0,1
76772,-66.6666666666667,4,1,1,5,0,1
76826,-66.6666666666667,4,1,1,80,0,1
76881,-66.6666666666667,4,1,1,5,0,1
76935,-55.5555555555556,4,1,1,80,0,1
76989,-55.5555555555556,4,1,1,5,0,1
77044,-55.5555555555556,4,1,1,80,0,1
77098,-55.5555555555556,4,1,1,5,0,1
77152,-55.5555555555556,4,1,1,80,0,1
77207,-55.5555555555556,4,1,1,5,0,1
77261,-55.5555555555556,4,1,1,80,0,1
77315,-55.5555555555556,4,1,1,5,0,1
77370,-66.6666666666667,4,1,1,80,0,1
78239,-100,4,1,1,80,0,1
79109,-66.6666666666667,4,1,1,80,0,1
80848,-83.3333333333333,4,1,1,80,0,1
81717,-58.8235294117647,4,1,1,80,0,1
83294,-58.8235294117647,4,1,1,5,0,1
83348,-58.8235294117647,4,1,1,80,0,1
83402,-58.8235294117647,4,1,1,5,0,1
83457,-58.8235294117647,4,1,1,80,0,1
83511,-58.8235294117647,4,1,1,5,0,1
83565,-58.8235294117647,4,1,1,80,0,1
83620,-58.8235294117647,4,1,1,5,0,1
83674,-58.8235294117647,4,1,1,80,0,1
83728,-58.8235294117647,4,1,1,5,0,1
83783,-58.8235294117647,4,1,1,80,0,1
83837,-58.8235294117647,4,1,1,5,0,1
83891,-58.8235294117647,4,1,1,80,0,1
83946,-58.8235294117647,4,1,1,5,0,1
84000,-58.8235294117647,4,1,1,80,0,1
84054,-58.8235294117647,4,1,1,5,0,1
84109,-58.8235294117647,4,1,1,80,0,1
84163,-58.8235294117647,4,1,1,5,0,1
84217,-58.8235294117647,4,1,1,80,0,1
84272,-58.8235294117647,4,1,1,5,0,1
84326,-58.8235294117647,4,1,1,80,0,1
85196,-100,4,1,1,80,0,1
88674,-58.8235294117647,4,1,1,80,0,1
89815,-58.8235294117647,4,1,1,5,0,1
89870,-58.8235294117647,4,1,1,80,0,1
89924,-58.8235294117647,4,1,1,5,0,1
89978,-58.8235294117647,4,1,1,80,0,1
90033,-58.8235294117647,4,1,1,5,0,1
90087,-58.8235294117647,4,1,1,80,0,1
90141,-58.8235294117647,4,1,1,5,0,1
90196,-58.8235294117647,4,1,1,80,0,1
90250,-58.8235294117647,4,1,1,5,0,1
90304,-58.8235294117647,4,1,1,80,0,1
90359,-58.8235294117647,4,1,1,5,0,1
90413,-58.8235294117647,4,1,1,80,0,1
90467,-58.8235294117647,4,1,1,5,0,1
90522,-58.8235294117647,4,1,1,80,0,1
90576,-58.8235294117647,4,1,1,5,0,1
90631,-58.8235294117647,4,1,1,80,0,1
90685,-58.8235294117647,4,1,1,5,0,1
90739,-58.8235294117647,4,1,1,80,0,1
90794,-58.8235294117647,4,1,1,5,0,1
90848,-58.8235294117647,4,1,1,80,0,1
90902,-58.8235294117647,4,1,1,5,0,1
90957,-58.8235294117647,4,1,1,80,0,1
91011,-58.8235294117647,4,1,1,5,0,1
91065,-58.8235294117647,4,1,1,80,0,1
91120,-58.8235294117647,4,1,1,5,0,1
91174,-58.8235294117647,4,1,1,80,0,1
91228,-58.8235294117647,4,1,1,5,0,1
91283,-58.8235294117647,4,1,1,80,0,1
93022,-50,4,1,1,80,0,1
93891,-58.8235294117647,4,1,1,80,0,1
96935,-76.9230769230769,4,1,1,80,0,1
97913,-58.8235294117647,4,1,1,80,0,1
99544,-52.6315789473684,4,1,1,80,0,1
99978,-47.6190476190476,4,1,1,80,0,1
100413,-43.4782608695652,4,1,1,80,0,1
100848,-47.6190476190476,4,1,1,80,0,1
101283,-66.6666666666667,4,1,1,80,0,1
101717,-100,4,1,1,80,0,1
102152,-200,4,1,1,80,0,1
102478,-200,4,1,1,5,0,1
102587,-100,4,3,1,70,0,0
105196,-133.333333333333,4,2,1,70,0,0
105848,-133.333333333333,4,2,1,5,0,0
106065,-100,4,3,1,70,0,0
107261,-100,4,3,1,5,0,0
107370,-100,4,3,1,70,0,0
110739,-100,4,3,1,5,0,0
110848,-100,4,3,1,70,0,0
112152,-133.333333333333,4,2,1,70,0,0
112804,-100,4,2,1,5,0,0
113022,-100,4,3,1,70,0,0
116092,-100,4,3,1,30,0,0
116500,-100,4,3,1,70,0,0
122696,-100,4,3,1,5,0,0
122804,-100,4,3,1,70,0,0
126174,-100,4,3,1,5,0,0
126283,-100,4,3,1,70,0,0
144326,-100,4,3,1,60,0,0
150848,-200,4,3,1,60,0,0
151283,447.761194029851,4,2,1,50,1,0
151730,458.015267175573,4,2,1,50,1,0
152188,472.44094488189,4,2,1,50,1,0
152660,487.80487804878,4,2,1,50,1,0
153147,512.820512820512,4,2,1,50,1,0
153655,535.714285714286,4,2,1,50,1,0
154190,571.428571428572,4,2,1,50,1,0
154761,612.244897959184,4,2,1,50,1,0
155373,631.578947368421,4,2,1,50,1,0
156004,645.161290322581,4,2,1,50,1,0
156649,666.666666666666,4,2,1,50,1,0
157315,731.70731707317,4,2,1,50,1,0
158046,789.473684210525,4,2,1,50,1,0
158835,833.333333333332,4,2,1,50,1,0
159668,882.352941176469,4,2,1,50,1,0
160550,937.499999999998,4,2,1,50,1,0

[Colours]
Combo1 : 169,205,241
Combo2 : 187,186,243

[HitObjects]
384,48,1391,5,0,0:0:0:0:
384,48,1718,2,0,P|416:96|384:160,1,110,2|0,0:0|0:0,0:0:0:0:
192,256,2370,2,0,P|217:208|269:197,1,110,2|0,0:0|0:0,0:0:0:0:
136,319,3022,2,0,L|142:375,1,55
192,48,3457,2,0,P|160:96|192:160,1,110,2|0,0:0|0:0,0:0:0:0:
416,176,4109,2,0,P|390:128|338:117,1,110,2|0,0:0|0:0,0:0:0:0:
154,225,4761,1,0,0:0:0:0:
102,39,4978,1,0,0:0:0:0:
176,80,5196,6,0,P|201:127|253:138,1,110,2|0,0:0|0:0,0:0:0:0:
61,163,5848,2,0,P|117:204|175:183,1,110,2|0,0:0|0:0,0:0:0:0:
395,219,6500,1,2,0:0:0:0:
445,117,6717,2,0,B|365:133|262:72|262:72|317:165|283:263,1,385,2|0,0:0|0:0,0:0:0:0:
279,356,8674,6,0,P|333:354|368:314,1,110,2|0,0:0|0:0,0:0:0:0:
102,129,9326,2,0,P|127:177|119:231,1,110,2|0,0:0|0:0,0:0:0:0:
35,260,9978,1,0,0:0:0:0:
253,33,10413,2,0,P|216:66|216:146,1,110,2|0,0:0|0:0,0:0:0:0:
335,217,11065,2,0,P|366:180|437:184,1,110,2|0,0:0|0:0,0:0:0:0:
487,229,11717,1,0,0:0:0:0:
271,153,11935,1,0,0:0:0:0:
487,229,12152,6,0,P|447:275|389:264,1,110,2|0,0:0|0:0,0:0:0:0:
185,210,12804,2,0,P|218:253|224:310,1,110,2|0,0:0|0:0,0:0:0:0:
105,158,13457,1,2,0:0:0:0:
265,71,13674,2,0,P|342:72|393:149,1,165,2|0,0:0|0:0,0:0:0:0:
378,257,14544,1,0,0:0:0:0:
359,267,14652,1,0,0:0:0:0:
346,280,14761,2,0,P|395:217|475:218,1,165,2|0,0:0|0:0,0:0:0:0:
340,360,15631,5,4,1:0:0:0:
144,252,16500,1,2,0:0:0:0:
196,136,16935,2,0,L|201:205,1,55
290,182,17370,2,0,P|260:240|262:301,1,110,2|0,0:0|0:0,0:0:0:0:
489,148,18022,2,0,P|425:151|379:114,1,110,2|0,0:0|0:0,0:0:0:0:
176,36,18674,2,0,L|182:106,1,55
193,246,19109,6,0,P|143:226|94:246,1,110,2|0,0:0|0:0,0:0:0:0:
355,217,19761,2,0,P|405:237|455:218,1,110,2|0,0:0|0:0,0:0:0:0:
46,238,20413,2,0,B|107:194|150:234|180:290|273:237,1,220,2|0,0:0|0:0,0:0:0:0:
358,113,21500,1,0,0:0:0:0:
340,94,21609,1,0,0:0:0:0:
317,86,21717,2,0,P|376:103|381:202,1,165,2|0,0:0|0:0,0:0:0:0:
244,96,22587,5,0,3:0:0:0:
160,184,23457,1,2,0:0:0:0:
356,320,24326,2,0,P|311:288|317:230,1,110,2|0,0:0|0:0,0:0:0:0:
190,107,24978,2,0,P|242:107|272:63,1,110,2|0,0:0|0:0,0:0:0:0:
351,31,25631,1,0,0:0:0:0:
176,189,25848,1,0,0:0:0:0:
358,161,26065,6,0,P|393:121|460:139,1,110,2|0,0:0|0:0,0:0:0:0:
170,210,26717,2,0,P|195:256|172:304,1,110,2|0,0:0|0:0,0:0:0:0:
93,164,27370,1,2,0:0:0:0:
304,256,27587,1,0,0:0:0:0:
435,101,27804,1,0,1:0:0:0:
256,192,27913,12,10,29109,0:2:0:0:
236,194,29326,5,0,0:0:0:0:
160,294,29544,5,4,1:3:0:0:
464,256,29761,1,0,0:0:0:0:
360,219,29978,1,0,0:0:0:0:
464,256,30196,1,4,1:3:0:0:
225,41,30413,1,8,0:2:0:0:
116,302,30631,1,0,0:0:0:0:
205,238,30848,1,0,0:0:0:0:
222,346,31065,1,0,0:0:0:0:
92,308,31283,5,0,0:0:0:0:
70,118,31500,1,4,1:3:0:0:
179,117,31717,1,4,1:3:0:0:
74,80,31935,1,0,0:0:0:0:
212,344,32152,1,8,0:2:0:0:
419,85,32370,1,0,0:0:0:0:
461,257,32587,1,4,0:0:0:0:
227,133,32804,1,0,0:0:0:0:
438,103,33022,5,4,1:3:0:0:
82,157,33239,1,0,0:0:0:0:
153,193,33457,1,0,0:0:0:0:
15,108,33674,1,4,1:3:0:0:
386,70,33891,2,0,B|418:79|442:74|442:74|426:98|428:139,1,110,8|0,0:2|0:0,0:0:0:0:
192,99,34326,1,0,0:0:0:0:
327,35,34544,1,0,0:0:0:0:
106,240,34761,5,0,0:0:0:0:
256,315,34978,1,4,1:3:0:0:
256,315,35196,2,0,B|287:313|305:294|305:294|322:313|357:319,1,110,4|0,1:3|0:0,0:0:0:0:
185,90,35631,1,8,0:2:0:0:
424,153,35848,1,0,0:0:0:0:
245,142,36065,2,0,B|285:156|322:132|322:132|302:160,1,110
52,121,36500,5,4,1:3:0:0:
341,282,36717,1,0,0:0:0:0:
338,185,36935,1,0,0:0:0:0:
448,311,37152,1,4,1:3:0:0:
374,38,37370,1,8,0:2:0:0:
133,326,37587,1,0,0:0:0:0:
37,275,37804,1,0,0:0:0:0:
164,337,38022,1,0,0:0:0:0:
30,189,38239,5,0,0:0:0:0:
320,268,38457,1,4,1:3:0:0:
471,253,38674,1,4,1:3:0:0:
433,322,38891,1,0,0:0:0:0:
293,51,39109,2,0,B|297:82|293:109|293:109|312:90|343:80,1,110,8|0,0:2|0:0,0:0:0:0:
38,191,39544,2,0,B|64:190|91:199|91:199|110:179|138:168,1,110,4|0,0:0|0:0,0:0:0:0:
168,66,39978,6,0,B|221:93|221:93|254:202|254:202|313:242,1,220,4|0,1:3|0:0,0:0:0:0:
78,89,40631,1,4,1:3:0:0:
287,31,40848,1,8,0:2:0:0:
172,326,41065,1,0,0:0:0:0:
70,108,41283,1,4,0:0:0:0:
410,213,41500,1,4,0:0:0:0:
259,178,41717,1,4,1:0:0:0:
256,192,41826,12,4,43457,1:1:0:0:
256,192,43565,12,0,46283,0:0:0:0:
256,173,46500,5,10,0:2:0:0:
256,219,46717,1,4,0:0:0:0:
169,55,46935,6,0,B|161:121|161:121|172:121|172:121|172:132|172:132|200:135|200:135|162:296|162:296|126:305|126:305|97:347|97:347|34:358|34:358|471:358|471:358|409:347|409:347|381:305|381:305|347:295|347:295|309:134|309:134|335:132|335:132|336:122|336:122|347:122|347:122|331:9|331:9|301:4|301:4|299:44|299:44|273:44|273:44|271:2|271:2|238:2|238:2|234:44|234:44|209:45|209:45|209:4|209:4|178:9,1,1650,4|0,1:0|2:0,0:0:0:0:
148,236,50413,2,0,B|148:289|148:289|184:361|251:371|323:360|356:294|356:294|357:233|357:233|300:168|262:191|188:216|148:152|148:152|148:80|148:80|169:16|250:-2|338:17|356:84|356:84|356:168,1,1012.00001930237,4|4,1:0|1:1,0:0:0:0:
256,96,53022,1,10,3:0:0:0:
320,128,53891,6,0,B|392:40|496:100|536:184|488:272|408:304|340:256|340:256|180:112|180:112|128:56|16:84|-32:168|16:268|104:316|180:252|180:252|300:148,1,1210,4|0,1:0|2:0,0:0:0:0:
420,184,56500,2,0,L|340:184,1,65.9999979858399,0|0,3:0|2:0,0:0:0:0:
96,184,56935,2,0,L|180:184,1,55,0|0,3:0|0:0,0:0:0:0:
124,152,57152,2,0,L|124:236,1,55,0|0,3:0|0:0,0:0:0:0:
71,44,57370,6,0,L|428:44,1,352,4|0,1:3|3:0,0:0:0:0:
67,312,58022,2,0,L|441:312,1,352,0|0,3:0|0:0,0:0:0:0:
415,125,58674,2,0,B|331:125|331:125|297:125|280:147|297:173|331:173|331:173|389:173|389:173|409:173|440:199|409:222|389:222|389:222|291:222,1,412.5,0|0,3:0|2:0,0:0:0:0:
89,226,59109,2,0,B|89:124|89:124|186:124|186:124|241:150|186:173|186:173|129:173|129:173|186:173|186:173|244:199|186:222|186:222|93:222,1,528,4|0,1:3|2:0,0:0:0:0:
72,208,60848,5,4,1:2:0:0:
133,319,61065,1,0,0:0:0:0:
136,152,61283,1,8,3:2:0:0:
133,319,61500,1,0,0:0:0:0:
248,104,61717,1,8,3:2:0:0:
133,319,61935,2,0,B|132:350,2,27.5,0|0|0,3:0|0:0|0:0,0:0:0:0:
200,204,62152,1,8,3:2:0:0:
136,152,62370,1,0,0:0:0:0:
133,319,62587,5,8,3:2:0:0:
72,208,62804,1,0,0:0:0:0:
133,319,63022,1,8,3:2:0:0:
136,152,63240,1,0,0:0:0:0:
133,319,63457,1,8,3:2:0:0:
248,104,63674,1,0,0:0:0:0:
340,344,63891,1,8,3:2:0:0:
463,143,64109,1,8,3:2:0:0:
397,28,64326,5,8,1:2:0:0:
463,143,64544,1,0,0:0:0:0:
328,84,64761,1,8,3:2:0:0:
463,143,64978,1,0,0:0:0:0:
270,154,65196,1,8,3:2:0:0:
463,143,65413,2,0,L|510:144,2,27.5,0|0|0,3:0|0:0|0:0,0:0:0:0:
400,237,65631,1,8,3:2:0:0:
225,227,65848,1,0,0:0:0:0:
102,280,66065,5,8,3:2:0:0:
198,112,66283,1,0,0:0:0:0:
251,324,66500,1,8,3:2:0:0:
316,60,66718,1,0,0:0:0:0:
421,332,66935,1,8,3:2:0:0:
429,144,67153,1,0,0:0:0:0:
492,281,67370,1,8,3:2:0:0:
338,198,67587,2,0,B|393:199,1,55,0|0,3:0|0:0,0:0:0:0:
493,202,67804,5,8,3:2:0:0:
432,272,68022,1,8,3:2:0:0:
336,280,68239,1,8,3:2:0:0:
199,215,68457,1,0,0:0:0:0:
290,65,68674,1,8,3:2:0:0:
340,160,68891,5,0,0:0:0:0:
353,196,69000,1,0,0:0:0:0:
348,234,69109,1,8,3:2:0:0:
320,182,69326,5,0,0:0:0:0:
308,249,69435,1,0,0:0:0:0:
272,305,69544,1,8,3:2:0:0:
147,315,69761,1,8,3:2:0:0:
72,216,69978,1,8,3:2:0:0:
179,289,70196,5,0,0:0:0:0:
217,293,70305,1,0,0:0:0:0:
254,283,70414,1,8,3:2:0:0:
207,274,70631,5,0,0:0:0:0:
270,252,70740,1,0,0:0:0:0:
328,214,70849,1,8,3:2:0:0:
82,248,71065,1,0,0:0:0:0:
207,106,71283,5,8,3:2:0:0:
255,80,71391,1,0,3:0:0:0:
299,82,71500,1,0,3:0:0:0:
329,94,71609,1,0,3:0:0:0:
308,177,71717,5,8,3:2:0:0:
342,232,71825,1,0,3:0:0:0:
389,257,71934,1,0,3:0:0:0:
427,262,72043,1,0,3:0:0:0:
468,184,72152,5,8,3:2:0:0:
476,109,72260,1,0,3:0:0:0:
450,53,72369,1,0,3:0:0:0:
419,21,72478,1,0,3:0:0:0:
331,119,72587,5,8,3:2:0:0:
240,128,72695,1,0,3:0:0:0:
173,97,72804,1,0,3:0:0:0:
135,60,72913,1,0,3:0:0:0:
135,60,73022,5,8,1:0:0:0:
256,192,73131,12,10,74326,0:2:0:0:
256,48,74761,6,0,B|160:192|160:192|256:336|256:336|352:192|352:192|269:67,1,660.000025177003,4|8,0:0|0:0,0:0:0:0:
305,98,76065,1,4,0:3:0:0:
305,98,76283,2,0,L|220:105,1,82.5000031471254
138,80,76500,6,0,L|88:46,1,41.2500015735627
153,153,76609,2,0,L|127:196,1,41.2500015735627
226,140,76717,2,0,L|276:174,1,41.2500015735627
211,67,76826,2,0,L|237:24,1,41.2500015735627
129,119,76935,6,0,L|68:132,1,49.4999984893799
191,160,77044,2,0,L|206:216,1,49.4999984893799
234,100,77152,2,0,L|295:88,1,49.4999984893799
172,59,77261,2,0,L|159:6,1,49.4999984893799
153,153,77370,6,0,B|110:225|110:225|110:264|110:264|65:344,1,206.250007867813,8|8,0:0|0:3,0:0:0:0:
301,236,77913,1,4,0:3:0:0:
127,308,78022,1,4,0:3:0:0:
301,236,78239,6,0,P|346:219|360:196,1,55,4|0,0:3|3:0,0:0:0:0:
304,273,78457,2,0,P|277:270|256:254,1,55,0|0,0:0|3:0,0:0:0:0:
212,236,78674,2,0,P|229:282|248:296,1,55,0|0,0:0|3:0,0:0:0:0:
173,240,78891,2,0,P|176:213|193:192,1,55,0|0,0:0|3:0,0:0:0:0:
91,178,79109,6,0,P|127:125|171:114,1,82.5000031471254,8|0,0:0|3:0,0:0:0:0:
138,57,79327,2,0,P|177:43|217:50,1,82.5000031471254,0|0,0:0|3:0,0:0:0:0:
258,7,79544,2,0,P|311:43|324:82,1,82.5000031471254,0|0,0:0|3:0,0:0:0:0:
376,53,79761,2,0,P|391:92|383:132,1,82.5000031471254,0|0,0:0|3:0,0:0:0:0:
356,192,79978,6,0,P|391:159|394:119,1,82.5000031471254,4|0,0:3|3:0,0:0:0:0:
377,54,80196,2,0,P|344:18|304:15,1,82.5000031471254,0|0,0:0|3:0,0:0:0:0:
236,37,80413,2,0,P|200:69|197:109,1,82.5000031471254,0|0,0:0|3:0,0:0:0:0:
219,176,80631,2,0,P|251:211|291:214,1,82.5000031471254,0|0,0:0|3:0,0:0:0:0:
353,193,80848,6,0,P|395:198|416:240,1,65.9999979858399,8|0,0:0|3:0,0:0:0:0:
388,272,81065,1,0,0:0:0:0:
321,266,81174,1,0,0:0:0:0:
310,207,81283,2,0,P|320:172|360:164,1,65.9999979858399,0|0,0:0|3:0,0:0:0:0:
388,160,81500,1,4,0:3:0:0:
428,176,81609,1,4,0:3:0:0:
447,216,81717,6,0,B|354:229|372:358|372:358|310:239|191:308,1,374.000007133484,4|0,0:3|0:0,0:0:0:0:
214,295,82370,1,4,0:3:0:0:
61,127,82587,2,0,B|54:205|130:225|130:225|141:149,2,187.000003566742,8|0|4,0:0|0:0|0:3,0:0:0:0:
155,172,83239,6,0,L|157:237,1,46.7500008916855
239,237,83348,2,0,L|174:240,1,46.7500008916855
161,314,83457,2,0,L|159:249,1,46.7500008916855
77,249,83566,2,0,L|142:246,1,46.7500008916855
191,180,83674,6,0,L|160:238,1,46.7500008916855
231,279,83783,2,0,L|174:248,1,46.7500008916855
125,306,83892,2,0,L|156:248,1,46.7500008916855
85,207,84001,2,0,L|142:238,1,46.7500008916855
222,198,84109,6,0,L|167:232,1,46.7500008916855
207,303,84218,2,0,L|172:248,1,46.7500008916855
93,280,84326,1,8,0:0:0:0:
160,18,84544,2,8,L|146:111,1,93.500001783371,8|8,0:3|0:3,0:3:0:0:
366,111,84870,2,8,L|351:18,1,93.500001783371,8|8,0:3|0:3,0:3:0:0:
253,97,85196,6,0,L|261:165,1,55,4|0,0:3|3:0,0:0:0:0:
279,257,85413,1,0,0:0:0:0:
209,320,85522,1,0,0:0:0:0:
347,173,85631,6,0,L|359:106,1,55,0|0,0:0|3:0,0:0:0:0:
371,14,85848,1,0,0:0:0:0:
463,0,85957,1,0,0:0:0:0:
277,38,86065,6,0,L|303:103,1,55,8|0,0:0|3:0,0:0:0:0:
356,166,86282,1,0,0:0:0:0:
449,170,86391,1,0,0:0:0:0:
264,204,86500,6,0,L|238:265,1,55,0|0,0:0|3:0,0:0:0:0:
190,335,86717,1,0,0:0:0:0:
96,343,86826,1,0,0:0:0:0:
36,238,86935,6,0,L|101:233,1,55,0|0,0:0|3:0,0:0:0:0:
196,219,87152,1,0,0:0:0:0:
165,307,87261,1,0,0:0:0:0:
90,233,87370,6,0,L|85:169,1,55,0|0,0:0|3:0,0:0:0:0:
73,93,87587,1,0,0:0:0:0:
0,150,87696,1,0,0:0:0:0:
36,238,87804,6,0,L|97:232,1,55,8|0,0:0|3:0,0:0:0:0:
257,155,88022,2,0,L|191:161,1,55,0|0,0:0|3:0,0:0:0:0:
390,142,88239,1,0,0:0:0:0:
400,241,88348,1,0,0:0:0:0:
410,143,88456,1,4,0:3:0:0:
373,248,88565,1,0,0:0:0:0:
277,184,88674,6,0,B|208:240|224:352|224:352|160:256|64:272|64:272,1,374.000007133484,4|0,0:3|0:0,0:0:0:0:
144,160,89326,1,4,0:3:0:0:
431,69,89544,1,8,0:0:0:0:
431,69,89761,6,0,P|438:88|463:109,1,46.7500008916855
366,73,89870,2,0,P|382:85|413:91,1,46.7500008916855
326,109,89978,2,0,P|346:112|376:101,1,46.7500008916855,4|0,0:3|0:0,0:0:0:0:
315,155,90087,2,0,P|334:147|354:123,1,46.7500008916855
317,184,90196,2,0,P|329:167|335:136,1,46.7500008916855
340,198,90305,2,0,P|343:177|332:147,1,46.7500008916855
413,233,90413,6,0,P|406:255|408:278,1,46.7500008916855
420,213,90522,2,0,P|425:235|439:254,1,46.7500008916855
425,184,90631,2,0,P|440:201|462:210,1,46.7500008916855
416,144,90740,2,0,P|438:150|461:148,1,46.7500008916855
332,58,90848,6,0,P|313:71|290:78,1,46.7500008916855,4|0,0:3|0:0,0:0:0:0:
257,47,90957,2,0,P|248:68|231:84,1,46.7500008916855
201,77,91065,2,0,P|202:100|196:122,1,46.7500008916855
175,132,91174,2,0,P|188:150|194:173,1,46.7500008916855
217,227,91283,5,8,0:0:0:0:
395,179,91500,1,8,0:3:0:0:
441,157,91609,1,8,0:3:0:0:
154,250,91826,1,4,0:3:0:0:
108,270,91935,1,4,0:3:0:0:
426,102,92152,6,0,P|380:109|348:143,1,93.500001783371,4|0,0:3|3:0,0:0:0:0:
271,282,92370,2,0,P|316:274|348:241,1,93.500001783371,0|0,0:0|3:0,0:0:0:0:
476,287,92587,2,0,P|469:241|436:209,1,93.500001783371,0|0,0:0|3:0,0:0:0:0:
212,99,92804,2,0,P|220:144|254:176,1,93.500001783371,4|0,0:3|3:0,0:0:0:0:
144,61,93022,6,0,L|144:192,1,110,8|0,0:0|3:0,0:0:0:0:
180,208,93240,2,0,L|180:96,1,110,0|0,0:0|3:0,0:0:0:0:
64,152,93457,2,0,L|64:276,1,110,4|0,0:3|3:0,0:0:0:0:
316,324,93674,2,0,L|316:208,1,110,0|0,0:0|3:0,0:0:0:0:
176,236,93891,6,0,P|221:243|253:276,1,93.500001783371,0|0,0:0|3:0,0:0:0:0:
395,268,94109,2,0,P|349:260|317:227,1,93.500001783371,4|0,0:3|3:0,0:0:0:0:
253,276,94326,2,0,P|219:307|212:353,1,93.500001783371,4|0,0:3|3:0,0:0:0:0:
317,227,94544,2,0,P|350:195|357:149,1,93.500001783371,0|0,0:0|3:0,0:0:0:0:
246,206,94761,5,8,0:0:0:0:
88,116,94978,1,8,0:3:0:0:
49,94,95087,1,8,0:3:0:0:
416,256,95304,1,4,0:3:0:0:
455,278,95413,1,4,0:3:0:0:
232,285,95631,6,0,B|313:285|329:210|329:210|336:160|400:128|480:192|432:288|364:277|326:241,1,374.000007133484,4|0,0:3|0:0,0:0:0:0:
350,256,96283,1,4,0:3:0:0:
39,95,96500,2,0,L|64:100,1,23.3750004458428,8|0,0:0|2:0,0:0:0:0:
462,161,96717,1,4,0:3:0:0:
256,105,96935,6,0,B|232:152|232:152|173:152|173:152|220:200|220:200|208:259|208:259|256:223|256:223|303:259|303:259|291:200|291:200|338:152|338:152|279:152|279:152|256:117,1,571.999973815919,4|0,0:3|2:0,0:0:0:0:
264,129,98022,1,0,0:0:0:0:
88,240,98239,1,8,0:0:0:0:
430,113,98457,1,8,0:3:0:0:
462,144,98565,1,8,0:3:0:0:
280,292,98783,1,4,0:3:0:0:
279,339,98891,1,4,0:3:0:0:
256,48,99109,6,0,L|256:151,1,93.500001783371,4|0,0:3|2:0,0:0:0:0:
336,132,99326,1,0,0:0:0:0:
336,92,99435,1,0,0:0:0:0:
248,96,99544,6,0,L|248:211,1,104.499997209549,0|0,0:0|2:0,0:0:0:0:
152,172,99761,1,4,0:3:0:0:
152,128,99870,1,0,0:0:0:0:
264,148,99978,6,0,L|265:272,1,115.49999647522,8|0,0:0|2:0,0:0:0:0:
376,248,100196,1,0,0:0:0:0:
376,192,100305,1,0,0:0:0:0:
244,192,100413,6,0,L|244:326,1,126.500002412796,4|0,0:3|2:0,0:0:0:0:
152,292,100631,1,0,0:0:0:0:
152,224,100740,1,0,0:0:0:0:
264,344,100848,6,0,L|264:229,1,115.49999647522,0|0,0:0|2:0,0:0:0:0:
360,220,101065,1,4,0:3:0:0:
360,268,101174,1,0,0:0:0:0:
320,144,101283,6,0,L|288:68,1,82.5000031471254,4|0,0:3|2:0,0:0:0:0:
220,68,101500,2,0,L|188:148,1,82.5000031471254,0|0,0:0|2:0,0:0:0:0:
140,180,101717,2,0,L|164:120,1,55,8|0,0:0|3:0,0:0:0:0:
344,136,101935,2,0,L|372:192,1,55,0|0,0:0|3:0,0:0:0:0:
255,134,102152,2,0,B|268:116|256:96|256:96|248:76|256:56,1,82.5,0|0,0:0|3:0,0:0:0:0:
176,224,102587,6,0,L|171:351,1,110,4|0,1:1|0:0,0:0:0:0:
120,265,102913,2,0,L|268:313,1,110,4|0,1:3|0:0,0:0:0:0:
174,147,103239,1,4,1:3:0:0:
390,193,103457,1,10,0:2:0:0:
321,232,103565,1,4,1:3:0:0:
321,232,103891,2,0,P|268:314|317:306,1,220,4|0,1:3|0:0,0:0:0:0:
443,283,104544,6,0,L|386:305,1,55,6|2,0:3|0:3,0:3:0:0:
200,248,104761,1,2,0:0:0:0:
178,256,104870,2,0,L|118:277,2,55,2|2|2,0:0|0:0|0:0,0:0:0:0:
288,204,105196,2,0,P|312:120|278:199,1,247.500009441376,10|0,0:2|2:0,0:0:0:0:
288,204,106065,6,0,L|422:170,1,110,4|0,1:3|0:0,0:0:0:0:
350,136,106391,2,0,L|333:245,1,110,4|0,1:3|0:0,0:0:0:0:
211,223,106717,1,4,1:3:0:0:
155,145,106935,1,10,0:2:0:0:
205,232,107044,2,0,L|222:356,1,110,4|0,1:3|0:0,0:0:0:0:
324,148,107370,2,0,P|339:79|435:102,1,165,4|0,1:3|0:0,0:0:0:0:
467,156,107804,5,2,0:0:0:0:
346,274,108022,2,0,L|226:256,1,110,4|0,1:3|0:0,0:0:0:0:
228,235,108348,2,0,L|336:251,1,110,4|0,1:3|0:0,0:0:0:0:
126,215,108674,1,10,0:2:0:0:
126,215,109544,6,0,L|235:201,1,110,4|0,1:3|0:0,0:0:0:0:
192,157,109870,2,0,L|155:281,1,110,4|0,1:3|0:0,0:0:0:0:
51,227,110196,1,4,1:3:0:0:
270,191,110414,1,10,0:2:0:0:
309,185,110522,2,0,L|200:199,1,110,4|0,1:3|0:0,0:0:0:0:
368,179,110848,2,0,B|311:157|274:191|274:191|231:230|152:198,1,220,4|2,1:3|0:0,0:0:0:0:
78,133,111500,6,0,L|85:209,1,55,6|2,0:3|0:3,0:0:0:0:
175,289,111718,1,2,0:0:0:0:
270,306,111827,1,6,1:3:0:0:
342,272,111935,1,2,0:0:0:0:
377,223,112044,1,2,0:0:0:0:
379,189,112152,2,0,P|334:122|307:234,1,247.500009441376,10|0,0:2|0:0,0:0:0:0:
328,225,113022,6,0,L|347:354,1,110,4|0,1:3|0:0,0:0:0:0:
297,326,113348,2,0,L|386:245,1,110,4|0,1:3|0:0,0:0:0:0:
310,143,113674,1,4,1:3:0:0:
173,245,113892,1,10,0:2:0:0:
160,287,114000,2,0,P|177:262|199:169,1,110,4|0,1:3|0:0,0:0:0:0:
94,334,114326,2,0,P|151:308|203:204,1,165,4|0,1:3|0:0,0:0:0:0:
20,192,114761,2,0,P|68:217|141:200,1,110,4|0,1:3|0:0,0:0:0:0:
191,91,115196,5,2,0:0:0:0:
142,206,115305,1,6,1:3:0:0:
159,297,115413,1,2,0:0:0:0:
222,328,115522,1,2,0:0:0:0:
259,305,115631,1,10,0:2:0:0:
259,305,116065,2,0,L|279:299,8,13.75
248,303,116500,6,0,L|358:273,1,110,4|0,1:0|0:0,0:0:0:0:
314,232,116826,2,0,L|284:342,1,110,4|0,1:3|0:0,0:0:0:0:
164,316,117152,1,4,1:3:0:0:
314,232,117370,5,10,0:2:0:0:
354,192,117478,2,0,P|318:233|272:262,1,110,4|0,1:3|0:0,0:0:0:0:
378,132,117804,2,0,P|330:232|226:280,1,220,4|2,1:3|0:0,0:0:0:0:
232,292,118457,6,0,P|198:286|171:250,1,55,6|2,0:3|0:0,0:0:0:0:
106,209,118674,1,2,0:0:0:0:
142,124,118783,1,2,0:0:0:0:
204,91,118891,1,2,0:0:0:0:
256,103,119000,1,6,1:3:0:0:
283,126,119109,2,0,P|300:180|268:236,1,110,10|4,0:2|1:3,0:0:0:0:
254,245,119435,1,0,0:0:0:0:
486,279,119652,1,4,1:3:0:0:
422,245,119761,1,0,0:0:0:0:
422,245,119978,6,0,P|405:191|437:135,1,110,4|0,1:3|0:0,0:0:0:0:
501,170,120304,2,0,P|462:211|398:212,1,110,4|0,1:3|0:0,0:0:0:0:
373,198,120631,1,4,1:3:0:0:
109,143,120848,1,10,0:2:0:0:
81,115,120957,2,0,P|122:153|123:217,1,110,4|0,1:3|0:0,0:0:0:0:
32,94,121283,2,0,P|111:125|142:197,1,165,4|0,1:3|0:0,0:0:0:0:
172,287,121717,6,0,P|165:232|264:206,1,165,4|0,1:3|0:0,0:0:0:0:
343,248,122152,1,2,0:0:0:0:
272,331,122261,1,2,0:0:0:0:
201,271,122370,1,2,0:0:0:0:
223,210,122478,1,6,1:3:0:0:
253,198,122587,2,0,P|280:203|306:231,1,55,10|0,0:2|0:0,0:0:0:0:
351,259,122804,2,0,P|394:291|467:270,1,110,4|0,1:3|0:0,0:0:0:0:
456,56,123131,2,0,P|450:100|475:164,1,110,4|0,1:3|2:0,0:0:0:0:
489,163,123457,6,0,P|449:124|382:134,1,110,4|0,1:3|0:0,0:0:0:0:
428,191,123783,2,0,P|467:151|457:84,1,110,4|0,1:3|0:0,0:0:0:0:
397,32,124109,1,4,1:3:0:0:
284,114,124327,1,10,0:2:0:0:
306,91,124435,2,0,P|266:130|199:120,1,110,4|0,1:3|0:0,0:0:0:0:
337,53,124761,2,0,P|309:124|170:132,1,220,4|2,1:3|0:0,0:0:0:0:
165,138,125413,6,0,P|177:170|174:206,1,55,6|2,0:3|0:3,0:3:0:0:
202,307,125631,1,2,0:0:0:0:
297,338,125740,1,2,0:0:0:0:
365,282,125848,1,2,0:0:0:0:
353,214,125957,1,6,1:3:0:0:
312,178,126065,2,0,P|327:204|326:252,1,55,10|0,0:2|0:0,0:0:0:0:
275,160,126283,2,0,P|312:207|298:278,1,110,4|0,1:3|0:0,0:0:0:0:
88,284,126609,2,0,B|118:283|142:271|142:271|166:278|198:273,1,110,4|0,1:3|0:0,0:0:0:0:
321,202,126935,6,0,P|289:159|236:152,1,110,4|0,1:3|0:0,0:0:0:0:
306,136,127261,2,0,P|299:190|257:222,1,110,4|0,1:3|0:0,0:0:0:0:
273,62,127587,1,4,1:3:0:0:
132,156,127805,1,10,0:2:0:0:
91,141,127913,2,0,P|144:147|176:190,1,110,4|0,1:3|0:0,0:0:0:0:
49,147,128239,2,0,P|144:134|191:202,1,165,4|0,1:3|0:0,0:0:0:0:
264,340,128674,5,2,0:0:0:0:
265,357,128891,6,0,P|301:372|336:362,1,55,2|2,1:3|0:3,0:3:0:0:
406,347,129109,1,2,0:0:0:0:
436,256,129217,1,6,1:3:0:0:
375,164,129326,1,2,0:0:0:0:
276,160,129435,1,2,0:0:0:0:
213,214,129544,2,0,P|200:253|218:285,1,55,10|0,0:2|0:0,0:0:0:0:
227,291,129761,2,0,P|205:340|138:304,2,110,0|2|0,0:3|0:0|0:0,0:0:0:0:
119,72,130413,6,0,P|171:88|196:136,1,110,4|0,1:1|0:0,0:0:0:0:
293,242,130739,2,0,B|302:185|299:133,1,110,4|0,1:3|0:0,0:0:0:0:
303,46,131065,1,4,1:3:0:0:
312,54,131283,5,10,0:2:0:0:
308,141,131391,2,0,B|297:194|302:257,1,110,4|0,1:3|0:0,0:0:0:0:
476,351,131717,2,0,P|428:342|404:280,1,110,4|0,1:3|0:0,0:0:0:0:
450,215,132044,1,0,0:0:0:0:
499,286,132152,6,0,P|425:308|339:225,1,165,0|0,1:0|0:0,0:0:0:0:
334,163,132587,1,2,0:0:0:0:
372,92,132696,1,2,0:0:0:0:
432,76,132804,1,2,0:0:0:0:
462,88,132913,1,6,1:3:0:0:
474,106,133022,2,0,P|428:106|402:132,1,55,10|0,0:2|0:0,0:0:0:0:
368,179,133239,2,0,P|331:217|245:193,1,110,4|0,1:3|0:0,0:0:0:0:
67,314,133565,2,0,P|67:260|106:222,1,110,4|0,1:3|0:0,0:0:0:0:
238,194,133891,6,0,P|253:245|300:271,1,110,4|0,1:3|0:0,0:0:0:0:
185,372,134217,2,0,L|173:260,1,110,4|0,1:3|0:0,0:0:0:0:
156,120,134544,1,4,1:3:0:0:
411,112,134761,1,10,0:2:0:0:
408,80,134870,2,0,P|434:123|392:196,1,110,4|0,1:3|0:0,0:0:0:0:
318,289,135196,2,0,B|360:282|380:259|380:259|412:276|447:277,1,137.5,4|0,1:3|0:0,0:0:0:0:
301,146,135631,6,0,P|202:148|168:202,1,165,0|0,1:3|0:0,0:0:0:0:
184,316,136065,1,2,0:0:0:0:
276,340,136174,1,2,0:0:0:0:
338,296,136283,1,2,0:0:0:0:
316,236,136391,1,6,0:3:0:0:
263,214,136500,2,0,P|248:188|258:151,1,55,10|0,0:2|0:0,0:0:0:0:
263,116,136717,1,6,1:3:0:0:
414,191,136935,1,0,0:0:0:0:
345,240,137044,2,0,L|352:349,1,110,4|0,1:3|0:0,0:0:0:0:
422,246,137370,6,0,P|399:184|331:172,1,110,4|0,1:3|0:0,0:0:0:0:
248,185,137696,2,0,P|201:158|187:107,1,110,4|0,1:3|0:0,0:0:0:0:
240,44,138022,1,4,1:3:0:0:
122,198,138239,1,10,0:2:0:0:
96,239,138348,2,0,P|84:288|115:352,1,110,4|0,1:3|0:0,0:0:0:0:
190,263,138674,2,0,P|243:232|340:259,1,165,4|0,1:3|0:0,0:0:0:0:
228,185,139109,6,0,P|193:238|220:332,1,165,0|0,1:0|0:0,0:0:0:0:
351,362,139544,1,2,0:0:0:0:
453,293,139652,1,2,0:0:0:0:
429,204,139761,1,2,0:0:0:0:
363,194,139870,1,6,1:3:0:0:
329,215,139978,2,0,P|309:244|311:270,1,55,10|0,0:2|0:0,0:0:0:0:
308,288,140196,2,0,P|302:223|272:173,1,110,4|0,1:3|0:0,0:0:0:0:
123,66,140522,2,0,P|148:113|200:129,1,110,4|0,1:3|0:0,0:0:0:0:
158,343,140848,6,0,P|185:296|171:244,1,110,4|0,1:3|0:0,0:0:0:0:
117,317,141174,2,0,P|163:344|215:330,1,110,4|0,1:3|0:0,0:0:0:0:
278,291,141500,1,4,1:3:0:0:
196,160,141717,1,10,0:2:0:0:
219,172,141826,2,0,P|272:164|305:121,1,110,4|0,1:3|0:0,0:0:0:0:
364,31,142152,2,0,L|375:84,1,55,4|0,1:3|0:0,0:0:0:0:
458,216,142370,2,0,L|447:163,1,55,4|0,1:3|0:0,0:0:0:0:
333,35,142587,6,0,P|301:78|198:55,1,165,0|0,3:0|0:0,0:0:0:0:
89,51,143022,1,2,0:0:0:0:
142,136,143131,1,6,1:3:0:0:
220,175,143239,1,2,0:0:0:0:
290,170,143348,1,2,0:0:0:0:
322,149,143457,2,0,P|353:105|405:96,1,110,10|4,0:2|1:3,0:0:0:0:
405,313,143891,1,0,0:0:0:0:
308,309,144000,2,0,L|417:326,1,110,6|0,0:3|0:0,0:0:0:0:
464,206,144326,6,0,P|405:197|351:223,1,110,4|0,1:1|0:0,0:0:0:0:
272,96,144652,2,0,P|281:155|255:209,1,110,4|0,1:3|0:0,0:0:0:0:
178,258,144978,1,4,1:3:0:0:
386,197,145196,1,8,0:1:0:0:
279,74,145304,2,0,P|295:151|337:170,1,110,4|0,0:3|0:0,0:0:0:0:
265,54,145631,2,0,P|267:152|324:199,1,165,4|0,0:3|0:0,0:0:0:0:
346,29,146065,6,0,B|303:35|265:54|265:54|225:35|163:45,1,165
124,105,146500,1,2,0:0:0:0:
150,151,146609,1,2,0:0:0:0:
184,168,146717,1,2,0:0:0:0:
213,169,146826,1,2,0:0:0:0:
229,160,146935,1,8,0:1:0:0:
229,160,147804,6,0,P|248:210|238:264,1,110,4|0,0:0|0:0,0:0:0:0:
400,30,148131,2,0,P|346:20|296:40,1,110,4|0,0:0|0:0,0:0:0:0:
221,77,148456,1,4,0:0:0:0:
76,223,148674,1,8,0:1:0:0:
105,235,148783,2,0,P|158:244|209:225,1,110,4|0,0:0|0:0,0:0:0:0:
154,43,149109,2,0,L|144:170,1,110,4|0,0:0|0:0,0:0:0:0:
137,301,149544,6,0,P|162:252|208:224,1,110,4|0,0:0|0:0,0:0:0:0:
354,224,149978,1,2,0:0:0:0:
405,166,150087,1,2,0:0:0:0:
400,101,150195,1,2,0:0:0:0:
363,60,150304,1,2,0:0:0:0:
326,52,150413,2,0,P|361:109|359:152,1,110,8|0,0:1|0:0,0:0:0:0:
328,132,150848,6,0,P|328:100|308:76,1,55,2|0,0:0|0:0,0:0:0:0:
256,192,151283,12,0,161018,0:0:0:0:
