osu file format v14

[General]
AudioFilename: audio.mp3
AudioLeadIn: 0
PreviewTime: 103767
Countdown: 0
SampleSet: Soft
StackLeniency: 0.7
Mode: 3
LetterboxInBreaks: 0
SpecialStyle: 0
WidescreenStoryboard: 0

[Editor]
Bookmarks: 1026,3883,5787,11501,19120,26739,34358,49596,55310,58167,61976,65786,73405,81024,96262,103881,119119,122928,125786,127689,133403,141022
DistanceSpacing: 1
BeatDivisor: 4
GridSize: 4
TimelineZoom: 1.8

[Metadata]
Title:Your Obnoxious Nature Suits Your Unsavory Face
TitleUnicode:Your Obnoxious Nature Suits Your Unsavory Face
Artist:Wind Wolf/Night Breeze
ArtistUnicode:Wind Wolf/Night Breeze
Creator:Firmatorenio
Version:MX
Source:
Tags:
BeatmapID:1138250
BeatmapSetID:537089

[Difficulty]
HPDrainRate:7.5
CircleSize:7
OverallDifficulty:8
ApproachRate:5
SliderMultiplier:1.4
SliderTickRate:1

[Events]
//Background and Video events
0,0,"woonabageljambackground_by_arctic_lux-d5t1erj.png",0,0
//Break Periods
//Storyboard Layer 0 (Background)
//Storyboard Layer 1 (Fail)
//Storyboard Layer 2 (Pass)
//Storyboard Layer 3 (Foreground)
//Storyboard Sound Samples

[TimingPoints]
1026,238.095238095238,4,2,0,32,1,0
5787,238.095238095238,3,2,0,32,1,0
5787,-149.253731343284,3,2,0,32,0,0
11501,238.095238095238,4,2,0,32,1,0
34358,-100,4,2,0,32,0,1
49596,238.095238095238,3,2,0,32,1,0
49596,-149.925037481259,3,2,0,32,0,0
58167,238.095238095238,4,2,0,32,1,0
103881,-100,4,2,0,32,0,1
111500,-100,4,2,0,32,0,0
113405,-100,4,2,0,32,0,1
119119,-100,4,2,0,32,0,0
127689,238.095238095238,3,2,0,32,1,0
127689,-149.253731343284,3,2,0,32,0,0
133403,238.095238095238,4,2,0,32,1,0

[HitObjects]
36,192,1026,128,0,1264:0:0:0:0:
256,192,1026,128,0,1264:0:0:0:0:
329,192,1026,128,0,1264:0:0:0:0:
329,192,1383,1,0,0:0:0:0:
256,192,1383,1,0,0:0:0:0:
36,192,1383,1,0,0:0:0:0:
402,192,1502,128,0,1740:0:0:0:0:
182,192,1502,128,0,1740:0:0:0:0:
109,192,1502,128,0,1740:0:0:0:0:
402,192,1859,1,0,0:0:0:0:
182,192,1859,1,0,0:0:0:0:
109,192,1859,1,0,0:0:0:0:
475,192,1978,128,0,2216:0:0:0:0:
329,192,1978,128,0,2216:0:0:0:0:
256,192,1978,128,0,2216:0:0:0:0:
475,192,2335,1,0,0:0:0:0:
329,192,2335,1,0,0:0:0:0:
256,192,2335,1,0,0:0:0:0:
36,192,2454,128,0,2692:0:0:0:0:
182,192,2454,128,0,2692:0:0:0:0:
402,192,2454,128,0,2692:0:0:0:0:
402,192,2811,1,0,0:0:0:0:
182,192,2811,1,0,0:0:0:0:
36,192,2811,1,0,0:0:0:0:
475,192,2930,128,0,3168:0:0:0:0:
329,192,2930,128,0,3168:0:0:0:0:
109,192,2930,128,0,3168:0:0:0:0:
182,192,3049,1,0,0:0:0:0:
256,192,3168,1,0,0:0:0:0:
109,192,3287,1,0,0:0:0:0:
475,192,3287,1,0,0:0:0:0:
329,192,3287,1,0,0:0:0:0:
402,192,3406,128,0,3883:0:0:0:0:
182,192,3406,128,0,3883:0:0:0:0:
36,192,3406,128,0,3883:0:0:0:0:
329,192,3525,1,0,0:0:0:0:
256,192,3645,1,0,0:0:0:0:
109,192,3764,1,0,0:0:0:0:
475,192,3883,1,0,0:0:0:0:
329,192,3883,1,0,0:0:0:0:
256,192,3883,1,0,0:0:0:0:
402,192,4121,1,0,0:0:0:0:
256,192,4121,1,0,0:0:0:0:
109,192,4121,1,0,0:0:0:0:
36,192,4359,1,0,0:0:0:0:
109,192,4359,1,0,0:0:0:0:
475,192,4359,1,0,0:0:0:0:
402,192,4597,1,0,0:0:0:0:
329,192,4597,1,0,0:0:0:0:
36,192,4597,1,0,0:0:0:0:
256,192,4835,1,0,0:0:0:0:
475,192,4835,1,0,0:0:0:0:
402,192,4835,1,0,0:0:0:0:
36,192,5073,1,0,0:0:0:0:
109,192,5073,1,0,0:0:0:0:
256,192,5073,1,0,0:0:0:0:
475,192,5311,1,0,0:0:0:0:
329,192,5311,1,0,0:0:0:0:
109,192,5311,1,0,0:0:0:0:
475,192,5549,1,0,0:0:0:0:
182,192,5549,1,0,0:0:0:0:
36,192,5549,1,0,0:0:0:0:
256,192,5787,1,0,0:0:0:0:
402,192,5787,1,0,0:0:0:0:
182,192,5787,128,0,6739:0:0:0:0:
329,192,6025,1,0,0:0:0:0:
109,192,6263,1,0,0:0:0:0:
329,192,6263,1,0,0:0:0:0:
329,192,6501,1,0,0:0:0:0:
475,192,6501,1,0,0:0:0:0:
256,192,6739,128,0,7215:0:0:0:0:
402,192,6739,1,0,0:0:0:0:
109,192,6977,1,0,0:0:0:0:
402,192,6977,1,0,0:0:0:0:
402,192,7215,1,0,0:0:0:0:
329,192,7215,128,0,8406:0:0:0:0:
109,192,7215,1,0,0:0:0:0:
182,192,7453,1,0,0:0:0:0:
109,192,7572,1,0,0:0:0:0:
182,192,7691,1,0,0:0:0:0:
182,192,7929,1,0,0:0:0:0:
475,192,7929,1,0,0:0:0:0:
36,192,8167,1,0,0:0:0:0:
36,192,8406,1,0,0:0:0:0:
402,192,8406,1,0,0:0:0:0:
256,192,8406,128,0,8644:0:0:0:0:
402,192,8644,1,0,0:0:0:0:
36,192,8644,1,0,0:0:0:0:
182,192,8644,128,0,9596:0:0:0:0:
329,192,8882,1,0,0:0:0:0:
329,192,9120,1,0,0:0:0:0:
402,192,9120,1,0,0:0:0:0:
109,192,9358,1,0,0:0:0:0:
329,192,9358,1,0,0:0:0:0:
256,192,9596,128,0,10072:0:0:0:0:
475,192,9596,1,0,0:0:0:0:
36,192,9834,1,0,0:0:0:0:
475,192,9834,1,0,0:0:0:0:
36,192,10072,1,0,0:0:0:0:
475,192,10072,1,0,0:0:0:0:
329,192,10072,128,0,11025:0:0:0:0:
109,192,10310,1,0,0:0:0:0:
402,192,10429,1,0,0:0:0:0:
109,192,10548,1,0,0:0:0:0:
402,192,10786,1,0,0:0:0:0:
182,192,10786,1,0,0:0:0:0:
109,192,10786,1,0,0:0:0:0:
36,192,11025,1,0,0:0:0:0:
256,192,11025,1,0,0:0:0:0:
402,192,11025,128,0,11263:0:0:0:0:
256,192,11263,1,0,0:0:0:0:
109,192,11263,1,0,0:0:0:0:
475,192,11263,128,0,11501:0:0:0:0:
329,192,11501,1,0,0:0:0:0:
182,192,11501,1,0,0:0:0:0:
36,192,11501,1,0,0:0:0:0:
109,192,11620,1,0,0:0:0:0:
329,192,11739,1,0,0:0:0:0:
402,192,11739,1,0,0:0:0:0:
109,192,11858,1,0,0:0:0:0:
329,192,11977,1,0,0:0:0:0:
402,192,11977,1,0,0:0:0:0:
36,192,11977,1,0,0:0:0:0:
256,192,11977,1,0,0:0:0:0:
329,192,12215,1,0,0:0:0:0:
402,192,12215,1,0,0:0:0:0:
182,192,12215,1,0,0:0:0:0:
109,192,12334,1,0,0:0:0:0:
329,192,12453,1,0,0:0:0:0:
402,192,12453,1,0,0:0:0:0:
109,192,12572,1,0,0:0:0:0:
329,192,12691,1,0,0:0:0:0:
402,192,12691,1,0,0:0:0:0:
109,192,12810,1,0,0:0:0:0:
329,192,12929,1,0,0:0:0:0:
402,192,12929,1,0,0:0:0:0:
36,192,12929,1,0,0:0:0:0:
182,192,12929,1,0,0:0:0:0:
329,192,13167,1,0,0:0:0:0:
402,192,13167,1,0,0:0:0:0:
256,192,13167,1,0,0:0:0:0:
109,192,13405,1,0,0:0:0:0:
182,192,13405,1,0,0:0:0:0:
475,192,13405,1,0,0:0:0:0:
329,192,13524,1,0,0:0:0:0:
109,192,13643,1,0,0:0:0:0:
182,192,13643,1,0,0:0:0:0:
329,192,13762,1,0,0:0:0:0:
109,192,13881,1,0,0:0:0:0:
182,192,13881,1,0,0:0:0:0:
475,192,13881,1,0,0:0:0:0:
402,192,13881,1,0,0:0:0:0:
109,192,14120,1,0,0:0:0:0:
182,192,14120,1,0,0:0:0:0:
256,192,14120,1,0,0:0:0:0:
329,192,14239,1,0,0:0:0:0:
109,192,14358,1,0,0:0:0:0:
182,192,14358,1,0,0:0:0:0:
329,192,14477,1,0,0:0:0:0:
109,192,14596,1,0,0:0:0:0:
182,192,14596,1,0,0:0:0:0:
329,192,14715,1,0,0:0:0:0:
109,192,14834,1,0,0:0:0:0:
182,192,14834,1,0,0:0:0:0:
402,192,14834,1,0,0:0:0:0:
475,192,14834,1,0,0:0:0:0:
109,192,15072,1,0,0:0:0:0:
182,192,15072,1,0,0:0:0:0:
256,192,15072,1,0,0:0:0:0:
329,192,15310,1,0,0:0:0:0:
475,192,15310,1,0,0:0:0:0:
182,192,15310,1,0,0:0:0:0:
36,192,15429,1,0,0:0:0:0:
329,192,15548,1,0,0:0:0:0:
475,192,15548,1,0,0:0:0:0:
36,192,15667,1,0,0:0:0:0:
329,192,15786,1,0,0:0:0:0:
475,192,15786,1,0,0:0:0:0:
256,192,15786,1,0,0:0:0:0:
182,192,15786,1,0,0:0:0:0:
329,192,16024,1,0,0:0:0:0:
475,192,16024,1,0,0:0:0:0:
182,192,16024,1,0,0:0:0:0:
36,192,16143,1,0,0:0:0:0:
329,192,16262,1,0,0:0:0:0:
475,192,16262,1,0,0:0:0:0:
36,192,16381,1,0,0:0:0:0:
475,192,16501,1,0,0:0:0:0:
329,192,16501,1,0,0:0:0:0:
36,192,16620,1,0,0:0:0:0:
109,192,16679,1,0,0:0:0:0:
329,192,16739,1,0,0:0:0:0:
475,192,16739,1,0,0:0:0:0:
182,192,16739,1,0,0:0:0:0:
402,192,16739,1,0,0:0:0:0:
256,192,16858,1,0,0:0:0:0:
329,192,16977,1,0,0:0:0:0:
475,192,16977,1,0,0:0:0:0:
182,192,16977,1,0,0:0:0:0:
109,192,17096,1,0,0:0:0:0:
182,192,17215,1,0,0:0:0:0:
36,192,17215,1,0,0:0:0:0:
329,192,17215,1,0,0:0:0:0:
402,192,17334,1,0,0:0:0:0:
182,192,17453,1,0,0:0:0:0:
36,192,17453,1,0,0:0:0:0:
402,192,17572,1,0,0:0:0:0:
182,192,17691,1,0,0:0:0:0:
36,192,17691,1,0,0:0:0:0:
475,192,17691,1,0,0:0:0:0:
329,192,17691,1,0,0:0:0:0:
182,192,17929,1,0,0:0:0:0:
36,192,17929,1,0,0:0:0:0:
256,192,17929,1,0,0:0:0:0:
329,192,18048,1,0,0:0:0:0:
402,192,18108,1,0,0:0:0:0:
182,192,18167,1,0,0:0:0:0:
36,192,18167,1,0,0:0:0:0:
475,192,18167,1,0,0:0:0:0:
402,192,18286,1,0,0:0:0:0:
182,192,18405,1,0,0:0:0:0:
36,192,18405,1,0,0:0:0:0:
402,192,18524,1,0,0:0:0:0:
182,192,18643,1,0,0:0:0:0:
36,192,18643,1,0,0:0:0:0:
256,192,18643,1,0,0:0:0:0:
475,192,18643,1,0,0:0:0:0:
402,192,18762,1,0,0:0:0:0:
182,192,18881,1,0,0:0:0:0:
36,192,18881,1,0,0:0:0:0:
329,192,18881,1,0,0:0:0:0:
256,192,19000,1,0,0:0:0:0:
182,192,19120,1,0,0:0:0:0:
402,192,19120,1,0,0:0:0:0:
109,192,19120,1,0,0:0:0:0:
256,192,19239,1,0,0:0:0:0:
475,192,19239,1,0,0:0:0:0:
329,192,19358,1,0,0:0:0:0:
256,192,19477,1,0,0:0:0:0:
36,192,19477,1,0,0:0:0:0:
329,192,19596,1,0,0:0:0:0:
109,192,19596,1,0,0:0:0:0:
402,192,19715,1,0,0:0:0:0:
475,192,19834,1,0,0:0:0:0:
182,192,19834,1,0,0:0:0:0:
402,192,19953,1,0,0:0:0:0:
36,192,19953,1,0,0:0:0:0:
109,192,20072,1,0,0:0:0:0:
182,192,20191,1,0,0:0:0:0:
402,192,20191,1,0,0:0:0:0:
256,192,20310,1,0,0:0:0:0:
329,192,20429,1,0,0:0:0:0:
109,192,20429,1,0,0:0:0:0:
402,192,20548,1,0,0:0:0:0:
182,192,20548,1,0,0:0:0:0:
329,192,20667,1,0,0:0:0:0:
256,192,20786,1,0,0:0:0:0:
475,192,20786,1,0,0:0:0:0:
182,192,20905,1,0,0:0:0:0:
36,192,21024,1,0,0:0:0:0:
256,192,21024,1,0,0:0:0:0:
109,192,21143,1,0,0:0:0:0:
329,192,21143,1,0,0:0:0:0:
182,192,21262,1,0,0:0:0:0:
256,192,21381,1,0,0:0:0:0:
475,192,21381,1,0,0:0:0:0:
329,192,21500,1,0,0:0:0:0:
36,192,21500,1,0,0:0:0:0:
402,192,21620,1,0,0:0:0:0:
329,192,21739,1,0,0:0:0:0:
109,192,21739,1,0,0:0:0:0:
256,192,21858,1,0,0:0:0:0:
36,192,21858,1,0,0:0:0:0:
329,192,21977,1,0,0:0:0:0:
402,192,22096,1,0,0:0:0:0:
182,192,22096,1,0,0:0:0:0:
329,192,22215,1,0,0:0:0:0:
256,192,22334,1,0,0:0:0:0:
36,192,22334,1,0,0:0:0:0:
182,192,22453,1,0,0:0:0:0:
475,192,22453,1,0,0:0:0:0:
256,192,22572,1,0,0:0:0:0:
329,192,22691,1,0,0:0:0:0:
109,192,22691,1,0,0:0:0:0:
402,192,22810,1,0,0:0:0:0:
329,192,22929,1,0,0:0:0:0:
109,192,22929,1,0,0:0:0:0:
402,192,23048,1,0,0:0:0:0:
182,192,23048,1,0,0:0:0:0:
329,192,23167,1,0,0:0:0:0:
256,192,23286,1,0,0:0:0:0:
36,192,23286,1,0,0:0:0:0:
182,192,23405,1,0,0:0:0:0:
475,192,23405,1,0,0:0:0:0:
256,192,23524,1,0,0:0:0:0:
182,192,23643,1,0,0:0:0:0:
475,192,23643,1,0,0:0:0:0:
109,192,23762,1,0,0:0:0:0:
402,192,23762,1,0,0:0:0:0:
36,192,23881,1,0,0:0:0:0:
402,192,24000,1,0,0:0:0:0:
109,192,24000,1,0,0:0:0:0:
182,192,24120,1,0,0:0:0:0:
256,192,24239,1,0,0:0:0:0:
329,192,24298,1,0,0:0:0:0:
402,192,24358,1,0,0:0:0:0:
109,192,24358,1,0,0:0:0:0:
182,192,24477,1,0,0:0:0:0:
475,192,24477,1,0,0:0:0:0:
402,192,24596,1,0,0:0:0:0:
109,192,24596,1,0,0:0:0:0:
329,192,24715,1,0,0:0:0:0:
36,192,24715,1,0,0:0:0:0:
182,192,24834,1,0,0:0:0:0:
402,192,24834,1,0,0:0:0:0:
256,192,24953,1,0,0:0:0:0:
475,192,24953,1,0,0:0:0:0:
329,192,25072,1,0,0:0:0:0:
402,192,25191,1,0,0:0:0:0:
36,192,25191,1,0,0:0:0:0:
475,192,25310,1,0,0:0:0:0:
109,192,25310,1,0,0:0:0:0:
402,192,25429,1,0,0:0:0:0:
329,192,25548,1,0,0:0:0:0:
36,192,25548,1,0,0:0:0:0:
256,192,25667,1,0,0:0:0:0:
109,192,25667,1,0,0:0:0:0:
182,192,25727,1,0,0:0:0:0:
36,192,25786,1,0,0:0:0:0:
475,192,25786,1,0,0:0:0:0:
109,192,25905,1,0,0:0:0:0:
402,192,25905,1,0,0:0:0:0:
256,192,26024,1,0,0:0:0:0:
182,192,26143,1,0,0:0:0:0:
329,192,26143,1,0,0:0:0:0:
109,192,26262,1,0,0:0:0:0:
402,192,26262,1,0,0:0:0:0:
475,192,26381,1,0,0:0:0:0:
256,192,26500,1,0,0:0:0:0:
402,192,26500,1,0,0:0:0:0:
329,192,26620,1,0,0:0:0:0:
109,192,26739,1,0,0:0:0:0:
256,192,26739,1,0,0:0:0:0:
109,192,26977,1,0,0:0:0:0:
475,192,26977,1,0,0:0:0:0:
109,192,27215,1,0,0:0:0:0:
256,192,27215,1,0,0:0:0:0:
109,192,27453,1,0,0:0:0:0:
475,192,27453,1,0,0:0:0:0:
182,192,27572,1,0,0:0:0:0:
256,192,27691,1,0,0:0:0:0:
36,192,27691,1,0,0:0:0:0:
182,192,27810,1,0,0:0:0:0:
109,192,27929,1,0,0:0:0:0:
402,192,27929,1,0,0:0:0:0:
36,192,28048,1,0,0:0:0:0:
402,192,28167,1,0,0:0:0:0:
109,192,28167,1,0,0:0:0:0:
475,192,28286,1,0,0:0:0:0:
402,192,28405,1,0,0:0:0:0:
109,192,28405,1,0,0:0:0:0:
329,192,28524,1,0,0:0:0:0:
256,192,28643,1,0,0:0:0:0:
36,192,28643,1,0,0:0:0:0:
256,192,28881,1,0,0:0:0:0:
475,192,28881,1,0,0:0:0:0:
256,192,29120,1,0,0:0:0:0:
36,192,29120,1,0,0:0:0:0:
256,192,29358,1,0,0:0:0:0:
475,192,29358,1,0,0:0:0:0:
329,192,29477,1,0,0:0:0:0:
402,192,29596,1,0,0:0:0:0:
182,192,29596,1,0,0:0:0:0:
329,192,29715,1,0,0:0:0:0:
402,192,29834,1,0,0:0:0:0:
36,192,29834,1,0,0:0:0:0:
475,192,29953,1,0,0:0:0:0:
402,192,30072,1,0,0:0:0:0:
182,192,30072,1,0,0:0:0:0:
329,192,30191,1,0,0:0:0:0:
182,192,30310,1,0,0:0:0:0:
256,192,30310,1,0,0:0:0:0:
109,192,30429,1,0,0:0:0:0:
182,192,30548,1,0,0:0:0:0:
475,192,30548,1,0,0:0:0:0:
256,192,30667,1,0,0:0:0:0:
182,192,30786,1,0,0:0:0:0:
329,192,30786,1,0,0:0:0:0:
109,192,30905,1,0,0:0:0:0:
36,192,31024,1,0,0:0:0:0:
475,192,31024,1,0,0:0:0:0:
109,192,31143,1,0,0:0:0:0:
182,192,31262,1,0,0:0:0:0:
329,192,31262,1,0,0:0:0:0:
109,192,31381,1,0,0:0:0:0:
475,192,31500,1,0,0:0:0:0:
36,192,31500,1,0,0:0:0:0:
402,192,31620,1,0,0:0:0:0:
329,192,31739,1,0,0:0:0:0:
109,192,31739,1,0,0:0:0:0:
256,192,31858,1,0,0:0:0:0:
182,192,31977,1,0,0:0:0:0:
329,192,31977,1,0,0:0:0:0:
109,192,32096,1,0,0:0:0:0:
36,192,32215,1,0,0:0:0:0:
475,192,32215,1,0,0:0:0:0:
109,192,32334,1,0,0:0:0:0:
182,192,32453,1,0,0:0:0:0:
329,192,32453,1,0,0:0:0:0:
256,192,32572,1,0,0:0:0:0:
182,192,32691,1,0,0:0:0:0:
475,192,32691,1,0,0:0:0:0:
109,192,32810,1,0,0:0:0:0:
329,192,32929,1,0,0:0:0:0:
36,192,32929,1,0,0:0:0:0:
109,192,33048,1,0,0:0:0:0:
182,192,33167,1,0,0:0:0:0:
475,192,33167,1,0,0:0:0:0:
256,192,33286,1,0,0:0:0:0:
329,192,33405,1,0,0:0:0:0:
36,192,33405,1,0,0:0:0:0:
402,192,33524,1,0,0:0:0:0:
475,192,33643,1,0,0:0:0:0:
182,192,33643,1,0,0:0:0:0:
402,192,33762,1,0,0:0:0:0:
329,192,33881,1,0,0:0:0:0:
36,192,33881,1,0,0:0:0:0:
256,192,34000,1,0,0:0:0:0:
329,192,34120,1,0,0:0:0:0:
182,192,34120,1,0,0:0:0:0:
256,192,34239,1,0,0:0:0:0:
182,192,34358,1,0,0:0:0:0:
329,192,34358,1,0,0:0:0:0:
182,192,34596,1,0,0:0:0:0:
475,192,34596,1,0,0:0:0:0:
402,192,34715,1,0,0:0:0:0:
182,192,34834,1,0,0:0:0:0:
329,192,34834,1,0,0:0:0:0:
182,192,35072,1,0,0:0:0:0:
109,192,35072,1,0,0:0:0:0:
256,192,35191,1,0,0:0:0:0:
329,192,35310,1,0,0:0:0:0:
36,192,35310,1,0,0:0:0:0:
402,192,35429,1,0,0:0:0:0:
109,192,35429,1,0,0:0:0:0:
475,192,35548,1,0,0:0:0:0:
36,192,35548,1,0,0:0:0:0:
182,192,35667,1,0,0:0:0:0:
402,192,35667,1,0,0:0:0:0:
329,192,35786,1,0,0:0:0:0:
109,192,35786,1,0,0:0:0:0:
256,192,35905,1,0,0:0:0:0:
402,192,35905,1,0,0:0:0:0:
182,192,36024,1,0,0:0:0:0:
475,192,36024,1,0,0:0:0:0:
109,192,36143,1,0,0:0:0:0:
402,192,36143,1,0,0:0:0:0:
36,192,36262,1,0,0:0:0:0:
329,192,36262,1,0,0:0:0:0:
256,192,36381,1,0,0:0:0:0:
329,192,36500,1,0,0:0:0:0:
36,192,36500,1,0,0:0:0:0:
256,192,36620,1,0,0:0:0:0:
36,192,36739,1,0,0:0:0:0:
182,192,36739,1,0,0:0:0:0:
256,192,36858,1,0,0:0:0:0:
36,192,36977,1,0,0:0:0:0:
329,192,36977,1,0,0:0:0:0:
109,192,37096,1,0,0:0:0:0:
402,192,37096,1,0,0:0:0:0:
182,192,37215,1,0,0:0:0:0:
475,192,37215,1,0,0:0:0:0:
109,192,37334,1,0,0:0:0:0:
256,192,37453,1,0,0:0:0:0:
36,192,37453,1,0,0:0:0:0:
329,192,37572,1,0,0:0:0:0:
109,192,37572,1,0,0:0:0:0:
182,192,37691,1,0,0:0:0:0:
402,192,37691,1,0,0:0:0:0:
109,192,37810,1,0,0:0:0:0:
475,192,37810,1,0,0:0:0:0:
36,192,37929,1,0,0:0:0:0:
329,192,37929,1,0,0:0:0:0:
109,192,38048,1,0,0:0:0:0:
402,192,38048,1,0,0:0:0:0:
182,192,38167,1,0,0:0:0:0:
329,192,38167,1,0,0:0:0:0:
256,192,38286,1,0,0:0:0:0:
182,192,38405,1,0,0:0:0:0:
475,192,38405,1,0,0:0:0:0:
109,192,38524,1,0,0:0:0:0:
402,192,38524,1,0,0:0:0:0:
36,192,38643,1,0,0:0:0:0:
329,192,38643,1,0,0:0:0:0:
109,192,38762,1,0,0:0:0:0:
182,192,38881,1,0,0:0:0:0:
402,192,38881,1,0,0:0:0:0:
329,192,39000,1,0,0:0:0:0:
109,192,39000,1,0,0:0:0:0:
256,192,39120,1,0,0:0:0:0:
402,192,39120,1,0,0:0:0:0:
329,192,39239,1,0,0:0:0:0:
36,192,39239,1,0,0:0:0:0:
256,192,39358,1,0,0:0:0:0:
475,192,39358,1,0,0:0:0:0:
182,192,39477,1,0,0:0:0:0:
329,192,39477,1,0,0:0:0:0:
109,192,39596,1,0,0:0:0:0:
402,192,39596,1,0,0:0:0:0:
36,192,39715,1,0,0:0:0:0:
256,192,39715,1,0,0:0:0:0:
109,192,39834,1,0,0:0:0:0:
475,192,39834,1,0,0:0:0:0:
182,192,39953,1,0,0:0:0:0:
402,192,39953,1,0,0:0:0:0:
256,192,40072,1,0,0:0:0:0:
329,192,40072,1,0,0:0:0:0:
182,192,40191,1,0,0:0:0:0:
109,192,40310,1,0,0:0:0:0:
329,192,40310,1,0,0:0:0:0:
36,192,40429,1,0,0:0:0:0:
402,192,40429,1,0,0:0:0:0:
109,192,40548,1,0,0:0:0:0:
475,192,40548,1,0,0:0:0:0:
182,192,40667,1,0,0:0:0:0:
256,192,40786,1,0,0:0:0:0:
36,192,40786,1,0,0:0:0:0:
329,192,40905,1,0,0:0:0:0:
109,192,40905,1,0,0:0:0:0:
402,192,41024,1,0,0:0:0:0:
182,192,41024,1,0,0:0:0:0:
475,192,41143,1,0,0:0:0:0:
109,192,41143,1,0,0:0:0:0:
329,192,41262,1,0,0:0:0:0:
36,192,41262,1,0,0:0:0:0:
475,192,41381,1,0,0:0:0:0:
256,192,41381,1,0,0:0:0:0:
182,192,41500,1,0,0:0:0:0:
402,192,41500,1,0,0:0:0:0:
475,192,41620,1,0,0:0:0:0:
109,192,41620,1,0,0:0:0:0:
402,192,41739,1,0,0:0:0:0:
36,192,41739,1,0,0:0:0:0:
329,192,41858,1,0,0:0:0:0:
109,192,41858,1,0,0:0:0:0:
256,192,41977,1,0,0:0:0:0:
36,192,41977,1,0,0:0:0:0:
256,192,42215,1,0,0:0:0:0:
182,192,42215,1,0,0:0:0:0:
109,192,42334,1,0,0:0:0:0:
256,192,42453,1,0,0:0:0:0:
36,192,42453,1,0,0:0:0:0:
256,192,42691,1,0,0:0:0:0:
109,192,42691,1,0,0:0:0:0:
329,192,42810,1,0,0:0:0:0:
402,192,42929,1,0,0:0:0:0:
36,192,42929,1,0,0:0:0:0:
329,192,43048,1,0,0:0:0:0:
182,192,43048,1,0,0:0:0:0:
256,192,43167,1,0,0:0:0:0:
109,192,43167,1,0,0:0:0:0:
329,192,43286,1,0,0:0:0:0:
475,192,43286,1,0,0:0:0:0:
402,192,43405,1,0,0:0:0:0:
182,192,43405,1,0,0:0:0:0:
329,192,43524,1,0,0:0:0:0:
36,192,43524,1,0,0:0:0:0:
256,192,43643,1,0,0:0:0:0:
109,192,43643,1,0,0:0:0:0:
182,192,43762,1,0,0:0:0:0:
36,192,43762,1,0,0:0:0:0:
109,192,43881,1,0,0:0:0:0:
475,192,43881,1,0,0:0:0:0:
402,192,44000,1,0,0:0:0:0:
109,192,44120,1,0,0:0:0:0:
475,192,44120,1,0,0:0:0:0:
402,192,44239,1,0,0:0:0:0:
109,192,44358,1,0,0:0:0:0:
329,192,44358,1,0,0:0:0:0:
402,192,44477,1,0,0:0:0:0:
109,192,44596,1,0,0:0:0:0:
475,192,44596,1,0,0:0:0:0:
182,192,44715,1,0,0:0:0:0:
402,192,44715,1,0,0:0:0:0:
256,192,44834,1,0,0:0:0:0:
475,192,44834,1,0,0:0:0:0:
182,192,44953,1,0,0:0:0:0:
109,192,45072,1,0,0:0:0:0:
256,192,45072,1,0,0:0:0:0:
182,192,45191,1,0,0:0:0:0:
329,192,45191,1,0,0:0:0:0:
256,192,45310,1,0,0:0:0:0:
402,192,45310,1,0,0:0:0:0:
182,192,45429,1,0,0:0:0:0:
475,192,45429,1,0,0:0:0:0:
109,192,45548,1,0,0:0:0:0:
402,192,45548,1,0,0:0:0:0:
36,192,45667,1,0,0:0:0:0:
329,192,45667,1,0,0:0:0:0:
109,192,45786,1,0,0:0:0:0:
402,192,45786,1,0,0:0:0:0:
182,192,45905,1,0,0:0:0:0:
475,192,45905,1,0,0:0:0:0:
329,192,46024,1,0,0:0:0:0:
402,192,46024,1,0,0:0:0:0:
256,192,46143,1,0,0:0:0:0:
109,192,46143,1,0,0:0:0:0:
475,192,46262,1,0,0:0:0:0:
36,192,46262,1,0,0:0:0:0:
402,192,46381,1,0,0:0:0:0:
109,192,46381,1,0,0:0:0:0:
182,192,46500,1,0,0:0:0:0:
475,192,46500,1,0,0:0:0:0:
256,192,46620,1,0,0:0:0:0:
36,192,46620,1,0,0:0:0:0:
329,192,46739,1,0,0:0:0:0:
109,192,46739,1,0,0:0:0:0:
402,192,46858,1,0,0:0:0:0:
182,192,46858,1,0,0:0:0:0:
256,192,46977,1,0,0:0:0:0:
475,192,46977,1,0,0:0:0:0:
109,192,47096,1,0,0:0:0:0:
402,192,47096,1,0,0:0:0:0:
182,192,47215,1,0,0:0:0:0:
36,192,47215,1,0,0:0:0:0:
109,192,47334,1,0,0:0:0:0:
329,192,47334,1,0,0:0:0:0:
36,192,47453,1,0,0:0:0:0:
475,192,47453,1,0,0:0:0:0:
109,192,47572,1,0,0:0:0:0:
402,192,47572,1,0,0:0:0:0:
182,192,47691,1,0,0:0:0:0:
329,192,47691,1,0,0:0:0:0:
109,192,47810,1,0,0:0:0:0:
36,192,47929,1,0,0:0:0:0:
182,192,47929,1,0,0:0:0:0:
475,192,48048,1,0,0:0:0:0:
329,192,48048,1,0,0:0:0:0:
402,192,48167,1,0,0:0:0:0:
182,192,48167,1,0,0:0:0:0:
329,192,48286,1,0,0:0:0:0:
402,192,48405,1,0,0:0:0:0:
182,192,48405,1,0,0:0:0:0:
475,192,48524,1,0,0:0:0:0:
256,192,48524,1,0,0:0:0:0:
36,192,48643,1,0,0:0:0:0:
329,192,48643,1,0,0:0:0:0:
109,192,48762,1,0,0:0:0:0:
256,192,48762,1,0,0:0:0:0:
182,192,48881,1,0,0:0:0:0:
36,192,48881,1,0,0:0:0:0:
109,192,49000,1,0,0:0:0:0:
475,192,49000,1,0,0:0:0:0:
182,192,49120,1,0,0:0:0:0:
402,192,49120,1,0,0:0:0:0:
256,192,49239,1,0,0:0:0:0:
329,192,49239,1,0,0:0:0:0:
182,192,49358,1,0,0:0:0:0:
402,192,49358,1,0,0:0:0:0:
109,192,49477,1,0,0:0:0:0:
329,192,49477,1,0,0:0:0:0:
36,192,49596,1,0,0:0:0:0:
475,192,49596,1,0,0:0:0:0:
256,192,49596,128,0,50548:0:0:0:0:
182,192,49834,1,0,0:0:0:0:
182,192,50072,1,0,0:0:0:0:
329,192,50072,1,0,0:0:0:0:
109,192,50310,1,0,0:0:0:0:
402,192,50310,1,0,0:0:0:0:
109,192,50548,1,0,0:0:0:0:
402,192,50548,128,0,51024:0:0:0:0:
109,192,50786,1,0,0:0:0:0:
182,192,50786,1,0,0:0:0:0:
36,192,51024,1,0,0:0:0:0:
182,192,51024,1,0,0:0:0:0:
475,192,51024,128,0,52215:0:0:0:0:
36,192,51262,1,0,0:0:0:0:
182,192,51381,1,0,0:0:0:0:
36,192,51500,1,0,0:0:0:0:
109,192,51738,1,0,0:0:0:0:
329,192,51738,1,0,0:0:0:0:
329,192,51976,1,0,0:0:0:0:
329,192,52215,1,0,0:0:0:0:
256,192,52215,128,0,52453:0:0:0:0:
182,192,52215,1,0,0:0:0:0:
402,192,52453,1,0,0:0:0:0:
182,192,52453,1,0,0:0:0:0:
36,192,52453,128,0,53524:0:0:0:0:
402,192,52691,1,0,0:0:0:0:
109,192,52929,1,0,0:0:0:0:
402,192,52929,1,0,0:0:0:0:
329,192,53167,1,0,0:0:0:0:
475,192,53167,1,0,0:0:0:0:
475,192,53405,1,0,0:0:0:0:
109,192,53524,128,0,53881:0:0:0:0:
182,192,53643,1,0,0:0:0:0:
475,192,53643,1,0,0:0:0:0:
182,192,53881,1,0,0:0:0:0:
329,192,53881,1,0,0:0:0:0:
256,192,53881,128,0,54834:0:0:0:0:
329,192,54119,1,0,0:0:0:0:
182,192,54238,1,0,0:0:0:0:
329,192,54357,1,0,0:0:0:0:
36,192,54596,1,0,0:0:0:0:
109,192,54596,1,0,0:0:0:0:
402,192,54596,1,0,0:0:0:0:
182,192,54834,1,0,0:0:0:0:
329,192,54834,128,0,55072:0:0:0:0:
475,192,54834,1,0,0:0:0:0:
402,192,55072,128,0,55310:0:0:0:0:
256,192,55072,1,0,0:0:0:0:
36,192,55072,1,0,0:0:0:0:
109,192,55310,1,0,0:0:0:0:
256,192,55310,1,0,0:0:0:0:
475,192,55310,1,0,0:0:0:0:
182,192,55548,1,0,0:0:0:0:
475,192,55667,1,0,0:0:0:0:
36,192,55786,1,0,0:0:0:0:
402,192,55846,1,0,0:0:0:0:
256,192,56024,128,0,56738:0:0:0:0:
109,192,56024,1,0,0:0:0:0:
329,192,56024,1,0,0:0:0:0:
182,192,56262,1,0,0:0:0:0:
475,192,56381,1,0,0:0:0:0:
109,192,56500,1,0,0:0:0:0:
36,192,56738,1,0,0:0:0:0:
329,192,56738,128,0,57453:0:0:0:0:
402,192,56738,1,0,0:0:0:0:
256,192,56976,1,0,0:0:0:0:
475,192,57096,1,0,0:0:0:0:
182,192,57215,1,0,0:0:0:0:
36,192,57274,1,0,0:0:0:0:
109,192,57453,1,0,0:0:0:0:
402,192,57453,128,0,58167:0:0:0:0:
475,192,57453,1,0,0:0:0:0:
329,192,57691,1,0,0:0:0:0:
109,192,57810,1,0,0:0:0:0:
256,192,57929,1,0,0:0:0:0:
36,192,57988,1,0,0:0:0:0:
182,192,58167,128,0,58405:0:0:0:0:
109,192,58167,1,0,0:0:0:0:
329,192,58167,128,0,58405:0:0:0:0:
475,192,58167,128,0,58405:0:0:0:0:
182,192,58524,1,0,0:0:0:0:
329,192,58524,1,0,0:0:0:0:
475,192,58524,1,0,0:0:0:0:
109,192,58643,1,0,0:0:0:0:
182,192,58643,128,0,58881:0:0:0:0:
329,192,58643,128,0,58881:0:0:0:0:
475,192,58643,128,0,58881:0:0:0:0:
182,192,59000,1,0,0:0:0:0:
329,192,59000,1,0,0:0:0:0:
475,192,59000,1,0,0:0:0:0:
182,192,59119,128,0,59357:0:0:0:0:
329,192,59119,128,0,59357:0:0:0:0:
475,192,59119,128,0,59357:0:0:0:0:
109,192,59119,1,0,0:0:0:0:
402,192,59595,1,0,0:0:0:0:
256,192,59833,1,0,0:0:0:0:
36,192,60071,128,0,60309:0:0:0:0:
182,192,60071,128,0,60309:0:0:0:0:
329,192,60071,128,0,60309:0:0:0:0:
402,192,60071,1,0,0:0:0:0:
36,192,60428,1,0,0:0:0:0:
182,192,60428,1,0,0:0:0:0:
329,192,60428,1,0,0:0:0:0:
36,192,60547,128,0,60786:0:0:0:0:
182,192,60547,128,0,60786:0:0:0:0:
329,192,60547,128,0,60786:0:0:0:0:
402,192,60547,1,0,0:0:0:0:
36,192,60905,1,0,0:0:0:0:
182,192,60905,1,0,0:0:0:0:
329,192,60905,1,0,0:0:0:0:
402,192,61024,1,0,0:0:0:0:
329,192,61024,128,0,61262:0:0:0:0:
182,192,61024,128,0,61262:0:0:0:0:
36,192,61024,128,0,61262:0:0:0:0:
475,192,61500,1,0,0:0:0:0:
256,192,61619,1,0,0:0:0:0:
109,192,61738,1,0,0:0:0:0:
36,192,61976,128,0,62214:0:0:0:0:
36,192,62333,128,0,62690:0:0:0:0:
182,192,62452,128,0,62690:0:0:0:0:
182,192,62809,128,0,63167:0:0:0:0:
256,192,62928,128,0,63167:0:0:0:0:
256,192,63286,128,0,63643:0:0:0:0:
329,192,63405,128,0,63643:0:0:0:0:
329,192,63762,128,0,64119:0:0:0:0:
475,192,63881,128,0,65786:0:0:0:0:
109,192,63881,1,0,0:0:0:0:
182,192,64000,1,0,0:0:0:0:
256,192,64119,1,0,0:0:0:0:
329,192,64238,1,0,0:0:0:0:
402,192,64357,1,0,0:0:0:0:
36,192,64357,1,0,0:0:0:0:
329,192,64476,1,0,0:0:0:0:
256,192,64595,1,0,0:0:0:0:
182,192,64714,1,0,0:0:0:0:
109,192,64833,128,0,65786:0:0:0:0:
256,192,65071,1,0,0:0:0:0:
402,192,65309,1,0,0:0:0:0:
36,192,65428,1,0,0:0:0:0:
182,192,65786,128,0,65845:0:0:0:0:
402,192,65786,128,0,65845:0:0:0:0:
475,192,66262,1,0,0:0:0:0:
109,192,66500,128,0,66559:0:0:0:0:
329,192,66500,128,0,66559:0:0:0:0:
402,192,66738,1,0,0:0:0:0:
475,192,66976,1,0,0:0:0:0:
182,192,67214,1,0,0:0:0:0:
36,192,67333,1,0,0:0:0:0:
109,192,67690,128,0,67750:0:0:0:0:
329,192,67690,128,0,67750:0:0:0:0:
402,192,68167,1,0,0:0:0:0:
256,192,68405,128,0,68464:0:0:0:0:
36,192,68405,128,0,68464:0:0:0:0:
182,192,68643,1,0,0:0:0:0:
402,192,68881,1,0,0:0:0:0:
329,192,69119,1,0,0:0:0:0:
109,192,69238,1,0,0:0:0:0:
256,192,69595,128,0,69655:0:0:0:0:
36,192,69595,128,0,69655:0:0:0:0:
402,192,70071,1,0,0:0:0:0:
475,192,70309,128,0,70369:0:0:0:0:
182,192,70309,128,0,70369:0:0:0:0:
109,192,70547,1,0,0:0:0:0:
402,192,70786,1,0,0:0:0:0:
256,192,71024,1,0,0:0:0:0:
36,192,71143,1,0,0:0:0:0:
182,192,71500,128,0,71559:0:0:0:0:
475,192,71500,128,0,71559:0:0:0:0:
36,192,71976,1,0,0:0:0:0:
402,192,72214,128,0,72274:0:0:0:0:
109,192,72214,128,0,72274:0:0:0:0:
329,192,72452,1,0,0:0:0:0:
109,192,72690,1,0,0:0:0:0:
475,192,72928,1,0,0:0:0:0:
182,192,73047,1,0,0:0:0:0:
109,192,73405,128,0,73464:0:0:0:0:
402,192,73405,128,0,73464:0:0:0:0:
329,192,73405,1,0,0:0:0:0:
475,192,73881,1,0,0:0:0:0:
36,192,74119,128,0,74178:0:0:0:0:
329,192,74119,128,0,74178:0:0:0:0:
256,192,74119,1,0,0:0:0:0:
402,192,74357,1,0,0:0:0:0:
475,192,74595,1,0,0:0:0:0:
109,192,74833,1,0,0:0:0:0:
182,192,74833,1,0,0:0:0:0:
402,192,74952,1,0,0:0:0:0:
329,192,75309,1,0,0:0:0:0:
256,192,75309,128,0,75369:0:0:0:0:
475,192,75309,128,0,75369:0:0:0:0:
36,192,75786,1,0,0:0:0:0:
256,192,76024,1,0,0:0:0:0:
182,192,76024,128,0,76083:0:0:0:0:
402,192,76024,128,0,76083:0:0:0:0:
329,192,76262,1,0,0:0:0:0:
36,192,76500,1,0,0:0:0:0:
256,192,76738,1,0,0:0:0:0:
475,192,76738,1,0,0:0:0:0:
402,192,76857,1,0,0:0:0:0:
256,192,77214,1,0,0:0:0:0:
182,192,77214,128,0,77274:0:0:0:0:
402,192,77214,128,0,77274:0:0:0:0:
475,192,77690,1,0,0:0:0:0:
182,192,77928,1,0,0:0:0:0:
329,192,77928,128,0,77988:0:0:0:0:
109,192,77928,128,0,77988:0:0:0:0:
256,192,78167,1,0,0:0:0:0:
475,192,78405,1,0,0:0:0:0:
36,192,78643,1,0,0:0:0:0:
109,192,78643,1,0,0:0:0:0:
256,192,78762,1,0,0:0:0:0:
109,192,79119,1,0,0:0:0:0:
329,192,79119,1,0,0:0:0:0:
402,192,79119,1,0,0:0:0:0:
256,192,79119,128,0,79178:0:0:0:0:
36,192,79119,128,0,79178:0:0:0:0:
329,192,79595,1,0,0:0:0:0:
402,192,79595,1,0,0:0:0:0:
36,192,79833,1,0,0:0:0:0:
182,192,79833,128,0,79893:0:0:0:0:
475,192,79833,128,0,79893:0:0:0:0:
329,192,80071,1,0,0:0:0:0:
402,192,80071,1,0,0:0:0:0:
109,192,80309,1,0,0:0:0:0:
256,192,80428,1,0,0:0:0:0:
475,192,80428,1,0,0:0:0:0:
109,192,80547,1,0,0:0:0:0:
329,192,80547,1,0,0:0:0:0:
402,192,80547,1,0,0:0:0:0:
36,192,80666,1,0,0:0:0:0:
109,192,80786,1,0,0:0:0:0:
182,192,80905,1,0,0:0:0:0:
36,192,81024,1,0,0:0:0:0:
256,192,81024,128,0,81083:0:0:0:0:
475,192,81024,128,0,81083:0:0:0:0:
329,192,81262,1,0,0:0:0:0:
109,192,81500,1,0,0:0:0:0:
475,192,81500,1,0,0:0:0:0:
36,192,81738,1,0,0:0:0:0:
182,192,81738,128,0,81797:0:0:0:0:
402,192,81738,128,0,81797:0:0:0:0:
36,192,81976,1,0,0:0:0:0:
329,192,81976,1,0,0:0:0:0:
256,192,82214,1,0,0:0:0:0:
109,192,82452,1,0,0:0:0:0:
475,192,82452,1,0,0:0:0:0:
329,192,82690,1,0,0:0:0:0:
256,192,82928,1,0,0:0:0:0:
182,192,82928,128,0,82988:0:0:0:0:
402,192,82928,128,0,82988:0:0:0:0:
36,192,83166,1,0,0:0:0:0:
182,192,83405,1,0,0:0:0:0:
475,192,83405,1,0,0:0:0:0:
256,192,83643,1,0,0:0:0:0:
109,192,83643,128,0,83702:0:0:0:0:
329,192,83643,128,0,83702:0:0:0:0:
182,192,83881,1,0,0:0:0:0:
402,192,84000,1,0,0:0:0:0:
256,192,84000,1,0,0:0:0:0:
109,192,84119,1,0,0:0:0:0:
475,192,84357,1,0,0:0:0:0:
36,192,84357,1,0,0:0:0:0:
182,192,84595,1,0,0:0:0:0:
256,192,84833,1,0,0:0:0:0:
402,192,84833,1,0,0:0:0:0:
109,192,84833,128,0,84893:0:0:0:0:
329,192,84833,128,0,84893:0:0:0:0:
475,192,85071,1,0,0:0:0:0:
182,192,85309,1,0,0:0:0:0:
36,192,85309,1,0,0:0:0:0:
402,192,85547,1,0,0:0:0:0:
36,192,85547,128,0,85607:0:0:0:0:
256,192,85547,128,0,85607:0:0:0:0:
402,192,85786,1,0,0:0:0:0:
182,192,85786,1,0,0:0:0:0:
329,192,86024,1,0,0:0:0:0:
256,192,86262,1,0,0:0:0:0:
109,192,86262,1,0,0:0:0:0:
475,192,86500,1,0,0:0:0:0:
329,192,86738,1,0,0:0:0:0:
256,192,86738,128,0,86797:0:0:0:0:
36,192,86738,128,0,86797:0:0:0:0:
402,192,86976,1,0,0:0:0:0:
256,192,87214,1,0,0:0:0:0:
109,192,87214,1,0,0:0:0:0:
329,192,87452,1,0,0:0:0:0:
182,192,87452,128,0,87512:0:0:0:0:
475,192,87452,128,0,87512:0:0:0:0:
402,192,87690,1,0,0:0:0:0:
256,192,87809,1,0,0:0:0:0:
109,192,87809,1,0,0:0:0:0:
36,192,87928,1,0,0:0:0:0:
329,192,87928,1,0,0:0:0:0:
256,192,88166,1,0,0:0:0:0:
182,192,88166,1,0,0:0:0:0:
109,192,88166,1,0,0:0:0:0:
475,192,88405,1,0,0:0:0:0:
329,192,88405,1,0,0:0:0:0:
36,192,88524,1,0,0:0:0:0:
109,192,88643,1,0,0:0:0:0:
182,192,88643,128,0,88702:0:0:0:0:
402,192,88643,1,0,0:0:0:0:
256,192,88643,128,0,88702:0:0:0:0:
329,192,88881,1,0,0:0:0:0:
36,192,89119,1,0,0:0:0:0:
256,192,89119,1,0,0:0:0:0:
402,192,89357,1,0,0:0:0:0:
109,192,89357,128,0,89416:0:0:0:0:
182,192,89357,128,0,89416:0:0:0:0:
402,192,89595,1,0,0:0:0:0:
329,192,89595,1,0,0:0:0:0:
256,192,89833,1,0,0:0:0:0:
182,192,90071,1,0,0:0:0:0:
475,192,90071,1,0,0:0:0:0:
36,192,90071,1,0,0:0:0:0:
329,192,90309,1,0,0:0:0:0:
256,192,90547,1,0,0:0:0:0:
109,192,90547,128,0,90607:0:0:0:0:
182,192,90547,128,0,90607:0:0:0:0:
329,192,90786,1,0,0:0:0:0:
402,192,91024,1,0,0:0:0:0:
475,192,91024,1,0,0:0:0:0:
256,192,91262,1,0,0:0:0:0:
36,192,91262,128,0,91321:0:0:0:0:
109,192,91262,128,0,91321:0:0:0:0:
182,192,91500,1,0,0:0:0:0:
402,192,91619,1,0,0:0:0:0:
475,192,91619,1,0,0:0:0:0:
256,192,91738,1,0,0:0:0:0:
402,192,91976,1,0,0:0:0:0:
475,192,91976,1,0,0:0:0:0:
109,192,91976,1,0,0:0:0:0:
182,192,92214,1,0,0:0:0:0:
329,192,92452,1,0,0:0:0:0:
256,192,92452,1,0,0:0:0:0:
109,192,92452,128,0,92512:0:0:0:0:
36,192,92452,128,0,92512:0:0:0:0:
475,192,92690,1,0,0:0:0:0:
182,192,92928,1,0,0:0:0:0:
402,192,92928,1,0,0:0:0:0:
475,192,93166,128,0,93226:0:0:0:0:
36,192,93166,128,0,93226:0:0:0:0:
329,192,93166,1,0,0:0:0:0:
329,192,93405,1,0,0:0:0:0:
109,192,93405,1,0,0:0:0:0:
256,192,93643,1,0,0:0:0:0:
182,192,93881,1,0,0:0:0:0:
402,192,93881,1,0,0:0:0:0:
109,192,93881,1,0,0:0:0:0:
256,192,94119,1,0,0:0:0:0:
109,192,94357,1,0,0:0:0:0:
182,192,94357,1,0,0:0:0:0:
329,192,94357,1,0,0:0:0:0:
36,192,94357,128,0,94416:0:0:0:0:
475,192,94357,128,0,94416:0:0:0:0:
109,192,94833,1,0,0:0:0:0:
182,192,94833,1,0,0:0:0:0:
256,192,94833,1,0,0:0:0:0:
329,192,95071,1,0,0:0:0:0:
402,192,95071,128,0,95131:0:0:0:0:
475,192,95071,128,0,95131:0:0:0:0:
109,192,95309,1,0,0:0:0:0:
182,192,95309,1,0,0:0:0:0:
329,192,95309,1,0,0:0:0:0:
256,192,95547,1,0,0:0:0:0:
109,192,95786,1,0,0:0:0:0:
182,192,95786,1,0,0:0:0:0:
329,192,95786,1,0,0:0:0:0:
36,192,95905,1,0,0:0:0:0:
475,192,96024,1,0,0:0:0:0:
256,192,96143,1,0,0:0:0:0:
329,192,96262,1,0,0:0:0:0:
109,192,96262,1,0,0:0:0:0:
109,192,96500,1,0,0:0:0:0:
475,192,96500,1,0,0:0:0:0:
109,192,96738,1,0,0:0:0:0:
329,192,96738,1,0,0:0:0:0:
109,192,96976,1,0,0:0:0:0:
475,192,96976,1,0,0:0:0:0:
182,192,97095,1,0,0:0:0:0:
36,192,97214,1,0,0:0:0:0:
256,192,97214,1,0,0:0:0:0:
182,192,97333,1,0,0:0:0:0:
109,192,97452,1,0,0:0:0:0:
402,192,97452,1,0,0:0:0:0:
182,192,97571,1,0,0:0:0:0:
256,192,97690,1,0,0:0:0:0:
36,192,97690,1,0,0:0:0:0:
182,192,97809,1,0,0:0:0:0:
109,192,97928,1,0,0:0:0:0:
402,192,97928,1,0,0:0:0:0:
329,192,98047,1,0,0:0:0:0:
256,192,98166,1,0,0:0:0:0:
182,192,98166,1,0,0:0:0:0:
256,192,98405,1,0,0:0:0:0:
329,192,98405,1,0,0:0:0:0:
256,192,98643,1,0,0:0:0:0:
182,192,98643,1,0,0:0:0:0:
36,192,98881,1,0,0:0:0:0:
256,192,98881,1,0,0:0:0:0:
329,192,99000,1,0,0:0:0:0:
182,192,99119,1,0,0:0:0:0:
402,192,99119,1,0,0:0:0:0:
329,192,99238,1,0,0:0:0:0:
402,192,99357,1,0,0:0:0:0:
36,192,99357,1,0,0:0:0:0:
475,192,99476,1,0,0:0:0:0:
182,192,99595,1,0,0:0:0:0:
402,192,99595,1,0,0:0:0:0:
329,192,99714,1,0,0:0:0:0:
256,192,99833,1,0,0:0:0:0:
36,192,99833,1,0,0:0:0:0:
329,192,99952,1,0,0:0:0:0:
182,192,100071,1,0,0:0:0:0:
402,192,100071,1,0,0:0:0:0:
475,192,100190,1,0,0:0:0:0:
402,192,100309,1,0,0:0:0:0:
109,192,100309,1,0,0:0:0:0:
329,192,100428,1,0,0:0:0:0:
256,192,100547,1,0,0:0:0:0:
182,192,100547,1,0,0:0:0:0:
329,192,100666,1,0,0:0:0:0:
402,192,100786,1,0,0:0:0:0:
109,192,100786,1,0,0:0:0:0:
329,192,100905,1,0,0:0:0:0:
182,192,101024,1,0,0:0:0:0:
402,192,101024,1,0,0:0:0:0:
475,192,101143,1,0,0:0:0:0:
402,192,101262,1,0,0:0:0:0:
109,192,101262,1,0,0:0:0:0:
329,192,101381,1,0,0:0:0:0:
256,192,101500,1,0,0:0:0:0:
475,192,101500,1,0,0:0:0:0:
182,192,101619,1,0,0:0:0:0:
109,192,101738,1,0,0:0:0:0:
329,192,101738,1,0,0:0:0:0:
182,192,101857,1,0,0:0:0:0:
256,192,101976,1,0,0:0:0:0:
475,192,101976,1,0,0:0:0:0:
182,192,102095,1,0,0:0:0:0:
109,192,102214,1,0,0:0:0:0:
329,192,102214,1,0,0:0:0:0:
182,192,102333,1,0,0:0:0:0:
256,192,102452,1,0,0:0:0:0:
36,192,102452,1,0,0:0:0:0:
329,192,102571,1,0,0:0:0:0:
182,192,102690,1,0,0:0:0:0:
402,192,102690,1,0,0:0:0:0:
475,192,102809,1,0,0:0:0:0:
109,192,102928,1,0,0:0:0:0:
402,192,102928,1,0,0:0:0:0:
182,192,103047,1,0,0:0:0:0:
475,192,103166,1,0,0:0:0:0:
109,192,103166,1,0,0:0:0:0:
36,192,103286,1,0,0:0:0:0:
109,192,103405,1,0,0:0:0:0:
329,192,103405,1,0,0:0:0:0:
182,192,103524,1,0,0:0:0:0:
475,192,103643,1,0,0:0:0:0:
256,192,103643,1,0,0:0:0:0:
182,192,103762,1,0,0:0:0:0:
109,192,103881,1,0,0:0:0:0:
329,192,103881,128,0,104119:0:0:0:0:
109,192,104119,1,0,0:0:0:0:
475,192,104119,128,0,104238:0:0:0:0:
402,192,104238,128,0,104357:0:0:0:0:
109,192,104357,1,0,0:0:0:0:
329,192,104357,128,0,104595:0:0:0:0:
109,192,104595,1,0,0:0:0:0:
36,192,104595,128,0,104833:0:0:0:0:
182,192,104714,1,0,0:0:0:0:
256,192,104833,1,0,0:0:0:0:
329,192,104833,128,0,104952:0:0:0:0:
182,192,104952,1,0,0:0:0:0:
402,192,104952,128,0,105071:0:0:0:0:
109,192,105071,1,0,0:0:0:0:
256,192,105071,128,0,105190:0:0:0:0:
182,192,105190,1,0,0:0:0:0:
475,192,105190,128,0,105309:0:0:0:0:
329,192,105309,1,0,0:0:0:0:
109,192,105309,128,0,105428:0:0:0:0:
256,192,105428,1,0,0:0:0:0:
402,192,105428,128,0,105547:0:0:0:0:
182,192,105547,1,0,0:0:0:0:
329,192,105547,128,0,105666:0:0:0:0:
109,192,105666,1,0,0:0:0:0:
256,192,105666,128,0,105786:0:0:0:0:
36,192,105786,1,0,0:0:0:0:
182,192,105786,128,0,105905:0:0:0:0:
256,192,105905,128,0,106024:0:0:0:0:
329,192,106024,128,0,106143:0:0:0:0:
36,192,106024,1,0,0:0:0:0:
256,192,106143,128,0,106262:0:0:0:0:
182,192,106262,128,0,106381:0:0:0:0:
36,192,106262,1,0,0:0:0:0:
256,192,106381,128,0,106500:0:0:0:0:
329,192,106500,128,0,106619:0:0:0:0:
36,192,106500,1,0,0:0:0:0:
402,192,106619,128,0,106738:0:0:0:0:
109,192,106619,1,0,0:0:0:0:
475,192,106738,128,0,106976:0:0:0:0:
182,192,106738,1,0,0:0:0:0:
109,192,106857,1,0,0:0:0:0:
36,192,106976,128,0,107095:0:0:0:0:
402,192,106976,1,0,0:0:0:0:
109,192,107095,128,0,107214:0:0:0:0:
329,192,107095,1,0,0:0:0:0:
182,192,107214,128,0,107333:0:0:0:0:
402,192,107214,1,0,0:0:0:0:
329,192,107333,1,0,0:0:0:0:
256,192,107333,128,0,107452:0:0:0:0:
402,192,107452,1,0,0:0:0:0:
182,192,107452,128,0,107571:0:0:0:0:
256,192,107571,128,0,107690:0:0:0:0:
329,192,107571,1,0,0:0:0:0:
182,192,107690,128,0,107928:0:0:0:0:
402,192,107690,1,0,0:0:0:0:
475,192,107809,1,0,0:0:0:0:
329,192,107928,128,0,108047:0:0:0:0:
402,192,107928,1,0,0:0:0:0:
256,192,108047,128,0,108166:0:0:0:0:
475,192,108047,1,0,0:0:0:0:
109,192,108166,128,0,108405:0:0:0:0:
402,192,108166,1,0,0:0:0:0:
329,192,108286,1,0,0:0:0:0:
402,192,108405,1,0,0:0:0:0:
182,192,108405,128,0,108524:0:0:0:0:
329,192,108524,1,0,0:0:0:0:
109,192,108524,128,0,108643:0:0:0:0:
36,192,108643,1,0,0:0:0:0:
256,192,108643,128,0,108762:0:0:0:0:
402,192,108762,1,0,0:0:0:0:
182,192,108762,128,0,108881:0:0:0:0:
109,192,108881,1,0,0:0:0:0:
329,192,108881,128,0,109000:0:0:0:0:
475,192,109000,1,0,0:0:0:0:
256,192,109000,128,0,109119:0:0:0:0:
182,192,109119,1,0,0:0:0:0:
402,192,109119,128,0,109238:0:0:0:0:
329,192,109238,128,0,109357:0:0:0:0:
109,192,109238,1,0,0:0:0:0:
475,192,109357,128,0,109476:0:0:0:0:
36,192,109357,1,0,0:0:0:0:
402,192,109476,128,0,109595:0:0:0:0:
109,192,109476,1,0,0:0:0:0:
329,192,109595,128,0,109833:0:0:0:0:
182,192,109595,1,0,0:0:0:0:
109,192,109714,1,0,0:0:0:0:
182,192,109833,128,0,109952:0:0:0:0:
36,192,109833,1,0,0:0:0:0:
256,192,109952,128,0,110071:0:0:0:0:
402,192,109952,1,0,0:0:0:0:
475,192,110071,1,0,0:0:0:0:
329,192,110071,128,0,110309:0:0:0:0:
256,192,110190,1,0,0:0:0:0:
182,192,110309,128,0,110428:0:0:0:0:
402,192,110309,1,0,0:0:0:0:
256,192,110428,128,0,110547:0:0:0:0:
475,192,110428,1,0,0:0:0:0:
329,192,110547,128,0,110666:0:0:0:0:
36,192,110547,1,0,0:0:0:0:
256,192,110666,128,0,110786:0:0:0:0:
109,192,110666,1,0,0:0:0:0:
182,192,110786,128,0,110905:0:0:0:0:
475,192,110786,1,0,0:0:0:0:
109,192,110905,128,0,111024:0:0:0:0:
402,192,110905,1,0,0:0:0:0:
256,192,111024,128,0,111143:0:0:0:0:
329,192,111024,1,0,0:0:0:0:
182,192,111143,128,0,111262:0:0:0:0:
475,192,111143,1,0,0:0:0:0:
109,192,111262,128,0,111381:0:0:0:0:
402,192,111262,1,0,0:0:0:0:
36,192,111381,128,0,111500:0:0:0:0:
329,192,111381,1,0,0:0:0:0:
109,192,111500,128,0,111738:0:0:0:0:
256,192,111738,128,0,111857:0:0:0:0:
182,192,111857,128,0,111976:0:0:0:0:
109,192,111976,128,0,112214:0:0:0:0:
36,192,112214,128,0,112452:0:0:0:0:
109,192,112452,128,0,112571:0:0:0:0:
402,192,112452,1,0,0:0:0:0:
182,192,112452,1,0,0:0:0:0:
329,192,112571,128,0,112690:0:0:0:0:
256,192,112571,1,0,0:0:0:0:
182,192,112690,128,0,112809:0:0:0:0:
36,192,112690,1,0,0:0:0:0:
402,192,112809,128,0,112928:0:0:0:0:
329,192,112809,1,0,0:0:0:0:
109,192,112928,128,0,113047:0:0:0:0:
182,192,112928,1,0,0:0:0:0:
475,192,113047,128,0,113166:0:0:0:0:
256,192,113047,1,0,0:0:0:0:
329,192,113166,128,0,113286:0:0:0:0:
109,192,113166,1,0,0:0:0:0:
182,192,113286,128,0,113405:0:0:0:0:
36,192,113286,1,0,0:0:0:0:
109,192,113405,128,0,113524:0:0:0:0:
475,192,113405,1,0,0:0:0:0:
182,192,113524,128,0,113643:0:0:0:0:
256,192,113643,128,0,113762:0:0:0:0:
475,192,113643,1,0,0:0:0:0:
182,192,113762,128,0,113881:0:0:0:0:
36,192,113881,128,0,114000:0:0:0:0:
475,192,113881,1,0,0:0:0:0:
109,192,114000,128,0,114119:0:0:0:0:
182,192,114119,128,0,114238:0:0:0:0:
475,192,114119,1,0,0:0:0:0:
256,192,114238,128,0,114357:0:0:0:0:
36,192,114238,1,0,0:0:0:0:
329,192,114357,128,0,114595:0:0:0:0:
109,192,114357,1,0,0:0:0:0:
36,192,114476,1,0,0:0:0:0:
109,192,114595,128,0,114714:0:0:0:0:
402,192,114595,1,0,0:0:0:0:
182,192,114714,128,0,114833:0:0:0:0:
475,192,114714,1,0,0:0:0:0:
256,192,114833,128,0,114952:0:0:0:0:
402,192,114833,1,0,0:0:0:0:
329,192,114952,128,0,115071:0:0:0:0:
109,192,114952,1,0,0:0:0:0:
182,192,115071,128,0,115190:0:0:0:0:
36,192,115071,1,0,0:0:0:0:
256,192,115190,128,0,115309:0:0:0:0:
475,192,115190,1,0,0:0:0:0:
329,192,115309,128,0,115428:0:0:0:0:
36,192,115309,1,0,0:0:0:0:
402,192,115428,128,0,115547:0:0:0:0:
109,192,115428,1,0,0:0:0:0:
329,192,115547,128,0,115666:0:0:0:0:
36,192,115547,1,0,0:0:0:0:
475,192,115666,128,0,115786:0:0:0:0:
182,192,115666,1,0,0:0:0:0:
402,192,115786,128,0,115905:0:0:0:0:
109,192,115786,1,0,0:0:0:0:
329,192,115905,128,0,116024:0:0:0:0:
36,192,115905,1,0,0:0:0:0:
402,192,116024,128,0,116143:0:0:0:0:
109,192,116024,1,0,0:0:0:0:
256,192,116143,128,0,116262:0:0:0:0:
36,192,116143,1,0,0:0:0:0:
475,192,116262,128,0,116381:0:0:0:0:
109,192,116262,1,0,0:0:0:0:
182,192,116381,128,0,116500:0:0:0:0:
329,192,116381,1,0,0:0:0:0:
402,192,116500,128,0,116619:0:0:0:0:
256,192,116500,1,0,0:0:0:0:
109,192,116619,128,0,116738:0:0:0:0:
182,192,116619,1,0,0:0:0:0:
329,192,116738,128,0,116857:0:0:0:0:
256,192,116738,1,0,0:0:0:0:
36,192,116857,128,0,116976:0:0:0:0:
182,192,116857,1,0,0:0:0:0:
402,192,116976,128,0,117095:0:0:0:0:
109,192,116976,1,0,0:0:0:0:
329,192,117095,128,0,117214:0:0:0:0:
182,192,117095,1,0,0:0:0:0:
256,192,117214,128,0,117452:0:0:0:0:
475,192,117214,1,0,0:0:0:0:
402,192,117333,1,0,0:0:0:0:
329,192,117452,128,0,117571:0:0:0:0:
475,192,117452,1,0,0:0:0:0:
402,192,117571,128,0,117690:0:0:0:0:
36,192,117571,1,0,0:0:0:0:
256,192,117690,128,0,117928:0:0:0:0:
475,192,117690,1,0,0:0:0:0:
36,192,117809,1,0,0:0:0:0:
109,192,117928,128,0,118047:0:0:0:0:
329,192,117928,1,0,0:0:0:0:
182,192,118047,128,0,118166:0:0:0:0:
402,192,118047,1,0,0:0:0:0:
256,192,118166,128,0,118286:0:0:0:0:
475,192,118166,1,0,0:0:0:0:
182,192,118286,128,0,118405:0:0:0:0:
329,192,118286,1,0,0:0:0:0:
109,192,118405,128,0,118524:0:0:0:0:
402,192,118405,1,0,0:0:0:0:
36,192,118524,128,0,118643:0:0:0:0:
256,192,118524,1,0,0:0:0:0:
475,192,118643,128,0,118762:0:0:0:0:
329,192,118643,1,0,0:0:0:0:
402,192,118762,128,0,118881:0:0:0:0:
109,192,118762,1,0,0:0:0:0:
329,192,118881,128,0,119000:0:0:0:0:
182,192,118881,1,0,0:0:0:0:
402,192,119000,128,0,119119:0:0:0:0:
109,192,119000,1,0,0:0:0:0:
182,192,119119,1,0,0:0:0:0:
475,192,119198,1,0,0:0:0:0:
182,192,119278,1,0,0:0:0:0:
475,192,119357,1,0,0:0:0:0:
182,192,119436,1,0,0:0:0:0:
475,192,119516,1,0,0:0:0:0:
109,192,119595,1,0,0:0:0:0:
402,192,119674,1,0,0:0:0:0:
109,192,119754,1,0,0:0:0:0:
402,192,119833,1,0,0:0:0:0:
109,192,119913,1,0,0:0:0:0:
402,192,119992,1,0,0:0:0:0:
36,192,120071,1,0,0:0:0:0:
329,192,120151,1,0,0:0:0:0:
36,192,120230,1,0,0:0:0:0:
329,192,120309,1,0,0:0:0:0:
36,192,120389,1,0,0:0:0:0:
329,192,120468,1,0,0:0:0:0:
256,192,120547,1,0,0:0:0:0:
475,192,120627,1,0,0:0:0:0:
256,192,120706,1,0,0:0:0:0:
475,192,120786,1,0,0:0:0:0:
256,192,120865,1,0,0:0:0:0:
475,192,120944,1,0,0:0:0:0:
182,192,121024,1,0,0:0:0:0:
402,192,121103,1,0,0:0:0:0:
182,192,121182,1,0,0:0:0:0:
402,192,121262,1,0,0:0:0:0:
182,192,121341,1,0,0:0:0:0:
402,192,121420,1,0,0:0:0:0:
109,192,121500,1,0,0:0:0:0:
329,192,121579,1,0,0:0:0:0:
109,192,121659,1,0,0:0:0:0:
329,192,121738,1,0,0:0:0:0:
109,192,121817,1,0,0:0:0:0:
329,192,121897,1,0,0:0:0:0:
36,192,121976,1,0,0:0:0:0:
256,192,122055,1,0,0:0:0:0:
36,192,122135,1,0,0:0:0:0:
256,192,122214,1,0,0:0:0:0:
36,192,122293,1,0,0:0:0:0:
256,192,122373,1,0,0:0:0:0:
182,192,122452,1,0,0:0:0:0:
329,192,122532,1,0,0:0:0:0:
182,192,122611,1,0,0:0:0:0:
329,192,122690,1,0,0:0:0:0:
182,192,122770,1,0,0:0:0:0:
329,192,122849,1,0,0:0:0:0:
36,192,122928,128,0,123166:0:0:0:0:
182,192,122928,128,0,123166:0:0:0:0:
475,192,122928,128,0,123166:0:0:0:0:
475,192,123286,1,0,0:0:0:0:
182,192,123286,1,0,0:0:0:0:
36,192,123286,1,0,0:0:0:0:
109,192,123405,128,0,123643:0:0:0:0:
256,192,123405,128,0,123643:0:0:0:0:
402,192,123405,128,0,123643:0:0:0:0:
109,192,123762,1,0,0:0:0:0:
256,192,123762,1,0,0:0:0:0:
402,192,123762,1,0,0:0:0:0:
182,192,123881,128,0,124119:0:0:0:0:
329,192,123881,128,0,124119:0:0:0:0:
36,192,123881,128,0,124119:0:0:0:0:
36,192,124238,1,0,0:0:0:0:
182,192,124238,1,0,0:0:0:0:
329,192,124238,1,0,0:0:0:0:
475,192,124357,128,0,124595:0:0:0:0:
402,192,124357,128,0,124595:0:0:0:0:
256,192,124357,128,0,124595:0:0:0:0:
475,192,124714,1,0,0:0:0:0:
402,192,124714,1,0,0:0:0:0:
256,192,124714,1,0,0:0:0:0:
329,192,124833,128,0,125071:0:0:0:0:
109,192,124833,128,0,125071:0:0:0:0:
36,192,124833,128,0,125071:0:0:0:0:
182,192,124952,1,0,0:0:0:0:
256,192,125071,1,0,0:0:0:0:
36,192,125190,1,0,0:0:0:0:
109,192,125190,1,0,0:0:0:0:
329,192,125190,1,0,0:0:0:0:
182,192,125309,128,0,125786:0:0:0:0:
402,192,125309,128,0,125786:0:0:0:0:
475,192,125309,128,0,125786:0:0:0:0:
329,192,125428,1,0,0:0:0:0:
256,192,125547,1,0,0:0:0:0:
109,192,125666,1,0,0:0:0:0:
36,192,125786,1,0,0:0:0:0:
329,192,125786,1,0,0:0:0:0:
256,192,125786,1,0,0:0:0:0:
109,192,126024,1,0,0:0:0:0:
329,192,126024,1,0,0:0:0:0:
475,192,126024,1,0,0:0:0:0:
402,192,126262,1,0,0:0:0:0:
256,192,126262,1,0,0:0:0:0:
109,192,126262,1,0,0:0:0:0:
36,192,126500,1,0,0:0:0:0:
256,192,126500,1,0,0:0:0:0:
329,192,126500,1,0,0:0:0:0:
36,192,126738,1,0,0:0:0:0:
182,192,126738,1,0,0:0:0:0:
402,192,126738,1,0,0:0:0:0:
182,192,126976,1,0,0:0:0:0:
256,192,126976,1,0,0:0:0:0:
475,192,126976,1,0,0:0:0:0:
36,192,127214,1,0,0:0:0:0:
109,192,127214,1,0,0:0:0:0:
475,192,127214,1,0,0:0:0:0:
109,192,127452,1,0,0:0:0:0:
329,192,127452,1,0,0:0:0:0:
402,192,127452,1,0,0:0:0:0:
182,192,127689,128,0,128641:0:0:0:0:
402,192,127689,1,0,0:0:0:0:
36,192,127689,1,0,0:0:0:0:
329,192,127927,1,0,0:0:0:0:
109,192,128165,1,0,0:0:0:0:
329,192,128165,1,0,0:0:0:0:
329,192,128403,1,0,0:0:0:0:
475,192,128403,1,0,0:0:0:0:
402,192,128641,128,0,129117:0:0:0:0:
109,192,128641,1,0,0:0:0:0:
109,192,128879,1,0,0:0:0:0:
36,192,128879,1,0,0:0:0:0:
109,192,129117,1,0,0:0:0:0:
36,192,129117,1,0,0:0:0:0:
475,192,129117,128,0,130308:0:0:0:0:
329,192,129355,1,0,0:0:0:0:
36,192,129474,1,0,0:0:0:0:
329,192,129593,1,0,0:0:0:0:
182,192,129831,1,0,0:0:0:0:
329,192,129831,1,0,0:0:0:0:
109,192,130069,1,0,0:0:0:0:
36,192,130308,1,0,0:0:0:0:
109,192,130308,1,0,0:0:0:0:
256,192,130308,128,0,130546:0:0:0:0:
329,192,130546,1,0,0:0:0:0:
109,192,130546,1,0,0:0:0:0:
36,192,130546,128,0,131498:0:0:0:0:
402,192,130784,1,0,0:0:0:0:
402,192,131022,1,0,0:0:0:0:
329,192,131022,1,0,0:0:0:0:
402,192,131260,1,0,0:0:0:0:
475,192,131260,1,0,0:0:0:0:
256,192,131498,1,0,0:0:0:0:
109,192,131498,128,0,131974:0:0:0:0:
256,192,131736,1,0,0:0:0:0:
329,192,131736,1,0,0:0:0:0:
182,192,131974,1,0,0:0:0:0:
256,192,131974,1,0,0:0:0:0:
329,192,131974,128,0,132927:0:0:0:0:
36,192,132212,1,0,0:0:0:0:
182,192,132331,1,0,0:0:0:0:
36,192,132450,1,0,0:0:0:0:
36,192,132689,1,0,0:0:0:0:
256,192,132689,1,0,0:0:0:0:
475,192,132689,1,0,0:0:0:0:
402,192,132927,128,0,133165:0:0:0:0:
182,192,132927,1,0,0:0:0:0:
109,192,132927,1,0,0:0:0:0:
256,192,133165,1,0,0:0:0:0:
329,192,133165,1,0,0:0:0:0:
475,192,133165,128,0,133403:0:0:0:0:
402,192,133403,1,0,0:0:0:0:
256,192,133403,1,0,0:0:0:0:
109,192,133403,1,0,0:0:0:0:
36,192,133403,1,0,0:0:0:0:
