osu file format v14

[General]
AudioFilename: audio.mp3
AudioLeadIn: 0
PreviewTime: 58762
Countdown: 0
SampleSet: Soft
StackLeniency: 0.4
Mode: 0
LetterboxInBreaks: 0
WidescreenStoryboard: 0

[Editor]
Bookmarks: 843,7850,13105,20113,34127,48142,58653,62156,74419,88434,102448,116463,123470,133981,140988,146244,158507,172521,179529,193543
DistanceSpacing: 0.9
BeatDivisor: 4
GridSize: 16
TimelineZoom: 1.9

[Metadata]
Title:Lost Umbrella
TitleUnicode:ロストアンブレラ
Artist:Will Stetson feat. Kariyu
ArtistUnicode:Will Stetson feat. Kariyu
Creator:hehe
Version:Still Wet Son
Source:
Tags:evilbaye cover kiame dictate sayri saoie vocaloid kaai yuki english male vocal rock pop 稻叶昙 歌愛ユキ inabakumori 稲葉曇
BeatmapID:3683292
BeatmapSetID:1796828

[Difficulty]
HPDrainRate:5
CircleSize:4
OverallDifficulty:9.4
ApproachRate:9.8
SliderMultiplier:1.4
SliderTickRate:1

[Events]
//Background and Video events
0,0,"oY8Cu_hC.jpg large.jpg",0,0
//Break Periods
2,58798,61239
2,116663,118612
2,120385,122115
//Storyboard Layer 0 (Background)
//Storyboard Layer 1 (Fail)
//Storyboard Layer 2 (Pass)
//Storyboard Layer 3 (Foreground)
//Storyboard Layer 4 (Overlay)
//Storyboard Sound Samples

[TimingPoints]
843,218.978102189781,4,2,1,50,1,0
843,-66.6666666666667,4,2,1,50,0,0
7850,-66.6666666666667,4,2,1,60,0,0
12448,-88.8888888888889,4,2,1,60,0,0
13105,-100,4,2,1,60,0,0
17485,-83.3333333333333,4,2,1,60,0,0
20113,-66.6666666666667,4,2,1,70,0,0
34127,-83.3333333333333,4,2,1,70,0,0
48142,-71.4285714285714,4,2,1,80,0,0
48361,-50,4,2,1,80,0,0
49018,-166.666666666667,4,2,1,80,0,0
49182,-166.666666666667,4,2,1,5,0,0
49237,-142.857142857143,4,2,1,80,0,0
49401,-166.666666666667,4,2,1,5,0,0
49456,-125,4,2,1,80,0,0
49620,-166.666666666667,4,2,1,5,0,0
49675,-111.111111111111,4,2,1,80,0,0
49839,-166.666666666667,4,2,1,5,0,0
49894,-100,4,2,1,80,0,0
50058,-166.666666666667,4,2,1,5,0,0
50113,-90.9090909090909,4,2,1,80,0,0
50277,-166.666666666667,4,2,1,5,0,0
50332,-83.3333333333333,4,2,1,80,0,0
50496,-166.666666666667,4,2,1,5,0,0
50551,-76.9230769230769,4,2,1,80,0,0
50715,-166.666666666667,4,2,1,5,0,0
50770,-71.4285714285714,4,2,1,80,0,0
50934,-166.666666666667,4,2,1,5,0,0
50988,-66.6666666666667,4,2,1,80,0,0
51153,-166.666666666667,4,2,1,5,0,0
51207,-62.5,4,2,1,80,0,0
51372,-166.666666666667,4,2,1,5,0,0
51426,-58.8235294117647,4,2,1,80,0,0
51591,-166.666666666667,4,2,1,5,0,0
51645,-55.5555555555556,4,2,1,80,0,0
51810,-166.666666666667,4,2,1,5,0,0
51864,-71.4285714285714,4,2,1,80,0,0
52029,-166.666666666667,4,2,1,5,0,0
52083,-100,4,2,1,80,0,0
52248,-166.666666666667,4,2,1,5,0,0
52302,-166.666666666667,4,2,1,80,0,0
52467,-166.666666666667,4,2,1,5,0,0
52521,-166.666666666667,4,2,1,80,0,0
52686,-166.666666666667,4,2,1,5,0,0
52740,-142.857142857143,4,2,1,80,0,0
52905,-166.666666666667,4,2,1,5,0,0
52959,-125,4,2,1,80,0,0
53124,-166.666666666667,4,2,1,5,0,0
53178,-111.111111111111,4,2,1,80,0,0
53342,-166.666666666667,4,2,1,5,0,0
53397,-100,4,2,1,80,0,0
53561,-166.666666666667,4,2,1,5,0,0
53616,-90.9090909090909,4,2,1,80,0,0
53780,-166.666666666667,4,2,1,5,0,0
53835,-83.3333333333333,4,2,1,80,0,0
53999,-166.666666666667,4,2,1,5,0,0
54054,-76.9230769230769,4,2,1,80,0,0
54218,-166.666666666667,4,2,1,5,0,0
54273,-71.4285714285714,4,2,1,80,0,0
54437,-166.666666666667,4,2,1,5,0,0
54491,-66.6666666666667,4,2,1,80,0,0
54656,-166.666666666667,4,2,1,5,0,0
54710,-62.5,4,2,1,80,0,0
54875,-166.666666666667,4,2,1,5,0,0
54929,-58.8235294117647,4,2,1,80,0,0
55094,-166.666666666667,4,2,1,5,0,0
55148,-55.5555555555556,4,2,1,80,0,0
55313,-166.666666666667,4,2,1,5,0,0
55367,-71.4285714285714,4,2,1,80,0,0
55532,-166.666666666667,4,2,1,5,0,0
55586,-100,4,2,1,80,0,0
55751,-166.666666666667,4,2,1,5,0,0
55805,-166.666666666667,4,2,1,80,0,0
55970,-166.666666666667,4,2,1,5,0,0
56025,-55.5555555555556,4,2,1,80,0,0
56189,-166.666666666667,4,2,1,5,0,0
56244,-62.5,4,2,1,80,0,0
56408,-166.666666666667,4,2,1,5,0,0
56463,-66.6666666666667,4,2,1,80,0,0
56627,-166.666666666667,4,2,1,5,0,0
56682,-71.4285714285714,4,2,1,80,0,0
56846,-166.666666666667,4,2,1,5,0,0
56901,-76.9230769230769,4,2,1,80,0,0
57065,-166.666666666667,4,2,1,5,0,0
57120,-83.3333333333333,4,2,1,80,0,0
57284,-166.666666666667,4,2,1,5,0,0
57339,-90.9090909090909,4,2,1,80,0,0
57503,-166.666666666667,4,2,1,5,0,0
57558,-100,4,2,1,80,0,0
57722,-166.666666666667,4,2,1,5,0,0
57777,-111.111111111111,4,2,1,80,0,0
57941,-166.666666666667,4,2,1,5,0,0
57996,-125,4,2,1,80,0,0
58160,-166.666666666667,4,2,1,5,0,0
58215,-142.857142857143,4,2,1,80,0,0
58379,-166.666666666667,4,2,1,5,0,0
58434,-166.666666666667,4,2,1,80,0,0
58598,-166.666666666667,4,2,1,5,0,0
61718,-100,4,2,1,90,0,0
62156,-66.6666666666667,4,2,1,90,0,1
74419,-66.6666666666667,4,2,1,70,0,0
88434,-71.4285714285714,4,2,1,70,0,0
94565,-125,4,2,1,70,0,0
95441,-71.4285714285714,4,2,1,70,0,0
102448,-83.3333333333333,4,2,1,70,0,0
119091,-100,4,2,1,50,0,0
123470,-100,4,2,1,70,0,0
130478,-83.3333333333333,4,2,1,70,0,0
132229,-62.5,4,2,1,90,0,0
133981,-66.6666666666667,4,2,1,50,0,0
140551,-166.666666666667,4,2,1,60,0,0
140988,-100,4,2,1,60,0,0
145806,-83.3333333333333,4,2,1,90,0,0
146244,-55.5555555555556,4,2,1,90,0,1
158507,-62.5,4,2,1,80,0,0
171974,-250,4,2,1,80,0,0
172521,-83.3333333333333,4,2,1,70,0,0
190040,-83.3333333333333,4,2,1,90,0,0
193543,-125,4,2,1,70,0,0

[Colours]
Combo1 : 207,207,207
Combo2 : 255,175,175
Combo3 : 255,190,119
Combo4 : 208,255,128
Combo5 : 141,255,165
Combo6 : 121,200,255
Combo7 : 138,133,255
Combo8 : 111,111,111

[HitObjects]
180,124,843,118,0,B|226:83|212:30|212:30|226:83|286:95,1,210.000008010865,4|0,0:0|0:0,0:0:0:0:
234,290,1718,2,0,B|176:271|138:310|138:310|176:271|157:213,1,210.000008010865,4|0,0:0|0:0,0:0:0:0:
352,160,2594,2,0,B|364:220|417:234|417:234|364:220|324:266,1,210.000008010865,4|0,0:0|0:0,0:0:0:0:
229,11,4346,102,0,B|269:46|245:89|268:95|283:87|283:87|291:101|314:107|315:58|367:48,1,210.000008010865,4|0,0:0|0:0,0:0:0:0:
112,305,5222,2,0,B|123:252|172:252|165:229|151:220|151:220|159:206|153:183|110:206|75:167,1,210.000008010865,4|0,0:0|0:0,0:0:0:0:
425,259,6098,2,0,B|375:276|349:234|333:251|333:268|333:268|316:268|299:285|341:310|324:360,1,210.000008010865,4|0,0:0|0:0,0:0:0:0:
112,240,7850,6,0,B|81:248|93:294|124:286|124:286|248:253,1,157.500006008148,4|0,3:2|0:0,0:0:0:0:
203,265,8069,2,0,L|214:149,1,105.000004005432,8|0,0:0|0:0,0:0:0:0:
225,20,8288,1,0,3:0:0:0:
225,20,8397,1,0,3:0:0:0:
49,65,8507,2,0,L|68:190,1,105.000004005432,8|0,0:0|0:0,0:0:0:0:
290,122,8726,70,0,B|259:113|271:67|302:75|302:75|426:108,1,157.500006008148,0|0,3:0|0:0,0:0:0:0:
381,96,8945,1,8,0:0:0:0:
512,9,9054,2,0,L|401:24,1,105.000004005432,0|0,3:0|0:0,0:0:0:0:
453,195,9273,1,0,3:0:0:0:
453,195,9383,2,0,L|342:180,1,105.000004005432,8|0,0:0|0:0,0:0:0:0:
154,354,9602,38,0,B|145:384|99:372|107:341|107:341|140:217,1,157.500006008148,0|0,3:0|0:0,0:0:0:0:
128,262,9821,2,0,L|14:284,1,105.000004005432,8|0,0:0|0:0,0:0:0:0:
236,365,10040,1,0,3:0:0:0:
236,365,10149,1,0,3:0:0:0:
273,196,10259,2,0,L|298:315,1,105.000004005432,8|0,0:0|0:0,0:0:0:0:
199,155,10478,70,0,L|224:-2,1,157.500006008148,0|0,3:0|0:0,0:0:0:0:
223,0,10697,1,8,3:2:0:0:
129,74,10806,2,0,L|22:102,1,105.000004005432,0|0,3:0|0:0,0:0:0:0:
208,260,11025,1,0,3:0:0:0:
208,260,11134,2,0,L|329:289,1,105.000004005432,8|0,0:0|0:0,0:0:0:0:
446,108,11353,38,0,B|371:127|371:127|364:103|333:84|308:91,1,157.500006008148,0|0,3:0|0:0,0:0:0:0:
307,91,11572,2,0,L|286:209,1,105.000004005432,8|0,0:0|0:0,0:0:0:0:
494,171,11791,1,0,3:0:0:0:
494,171,11901,1,0,3:0:0:0:
388,281,12010,2,0,L|408:399,1,105.000004005432,8|0,0:0|0:0,0:0:0:0:
145,262,12229,70,0,B|164:187|164:187|140:180|121:149|128:124,1,157.500006008148,4|0,3:2|0:0,0:0:0:0:
128,123,12448,2,0,B|120:147|88:165|64:159|64:159|44:233,1,157.500006008148,4|0,3:2|0:0,0:0:0:0:
395,345,13105,85,2,3:2:0:0:
470,367,13324,1,2,0:2:0:0:
492,292,13543,1,2,0:2:0:0:
105,92,13762,69,2,0:0:0:0:
57,154,13872,1,2,0:0:0:0:
105,92,13981,2,0,B|101:215|30:171|23:293,1,210,2|2,0:0|0:0,0:0:0:0:
313,31,14638,2,0,B|346:82|359:50|395:112,1,105,2|0,0:1|0:0,0:0:0:0:
388,101,14857,37,2,0:0:0:0:
462,67,15076,1,2,0:0:0:0:
497,141,15295,1,2,0:0:0:0:
238,366,15514,69,2,0:0:0:0:
188,305,15624,1,2,0:0:0:0:
238,366,15733,2,0,B|230:287|180:227|180:227|209:235|227:262,1,210,2|2,0:0|0:0,0:0:0:0:
324,126,16390,2,0,B|328:84|354:53|354:53|339:57|329:71,1,105,2|0,0:1|0:0,0:0:0:0:
333,66,16609,37,2,0:0:0:0:
292,8,16828,1,2,0:0:0:0:
233,49,17047,1,2,0:0:0:0:
395,283,17266,69,2,0:0:0:0:
444,222,17375,1,2,0:0:0:0:
395,283,17485,2,0,B|390:315|460:303|501:245|484:134|383:121|380:241|353:186,1,251.999992309571,2|2,0:0|0:0,0:0:0:0:
38,224,18142,2,0,B|40:239|7:233|-12:206|-4:153|43:147|45:204|57:178,1,125.999996154785,2|0,0:1|0:0,0:0:0:0:
58,177,18361,37,2,0:0:0:0:
125,221,18580,1,2,0:0:0:0:
165,156,18799,1,2,0:0:0:0:
278,57,19018,69,2,0:0:0:0:
212,12,19127,1,2,0:0:0:0:
278,57,19237,1,2,0:0:0:0:
227,172,19620,37,2,0:3:0:0:
227,172,19675,2,0,P|255:227|275:288,1,125.999996154785,2|0,0:3|0:0,0:0:0:0:
274,287,19894,2,0,B|257:301|246:327|246:327|251:304|241:278,1,83.9999974365235,2|0,0:3|0:0,0:0:0:0:
150,117,20113,38,0,B|120:160|154:196|133:207|117:203|117:203|113:219|92:231|78:184|24:188,2,210.000008010865,6|10|2,3:2|0:0|3:2,0:0:0:0:
377,117,20770,1,8,0:0:0:0:
259,224,20879,1,0,0:0:0:0:
441,170,20988,22,0,B|400:136|424:92|401:87|386:95|386:95|378:81|355:74|354:123|300:134,1,210.000008010865,2|8,3:2|0:0,0:0:0:0:
180,35,21317,2,0,L|305:61,1,105.000004005432,2|0,3:2|0:0,0:0:0:0:
130,102,21536,1,0,3:0:0:0:
259,224,21645,2,0,L|384:198,1,105.000004005432,8|0,0:0|0:0,0:0:0:0:
28,384,21864,86,0,B|48:226|48:226|38:258|-1:265,2,210.000008010865,2|10|2,3:2|0:2|3:2,0:0:0:0:
258,153,22521,1,8,0:0:0:0:
100,106,22631,1,0,0:0:0:0:
185,184,22740,22,0,B|169:68|169:68|177:91|206:97,1,157.500006008148,2|0,3:2|0:0,0:0:0:0:
198,95,22959,1,8,0:0:0:0:
282,230,23069,2,0,L|400:260,1,105.000004005432,2|0,3:2|0:0,0:0:0:0:
223,286,23288,1,0,3:0:0:0:
441,205,23397,2,0,L|424:81,1,105.000004005432,8|0,0:0|0:0,0:0:0:0:
447,376,23616,86,0,B|462:311|493:345|519:295|519:295|505:356|476:310|461:378,2,210.000008010865,2|10|2,3:2|0:0|3:2,0:0:0:0:
173,344,24273,1,8,0:0:0:0:
194,193,24383,1,0,0:0:0:0:
248,295,24492,22,0,B|232:230|201:264|175:214|175:214|189:275|218:229|233:297,1,210.000008010865,2|8,3:2|0:0,0:0:0:0:
316,355,24821,2,0,L|337:232,1,105.000004005432,2|0,3:2|0:0,0:0:0:0:
447,242,25040,1,0,3:0:0:0:
273,190,25149,2,0,L|256:78,1,105.000004005432,8|0,0:0|0:0,0:0:0:0:
49,127,25368,86,0,B|23:120|23:120|1:74|30:11|106:9|144:59,2,210.000008010865,2|10|2,3:2|0:2|3:2,0:0:0:0:
240,243,26025,1,8,0:0:0:0:
192,361,26134,1,0,0:0:0:0:
107,223,26244,22,0,B|87:228|87:228|71:261|93:308|148:309|176:272,1,157.500006008148,2|0,3:2|0:0,0:0:0:0:
168,281,26463,1,8,0:0:0:0:
215,140,26572,2,0,L|246:271,1,105.000004005432,2|0,3:2|0:0,0:0:0:0:
273,80,26791,85,0,3:0:0:0:
131,142,26901,1,8,0:0:0:0:
375,254,27010,1,0,3:0:0:0:
190,347,27120,22,0,B|263:243|263:243|279:212|255:197|223:214|241:246,2,210.000008010865,6|10|2,3:2|0:0|3:2,0:0:0:0:
478,58,27777,1,8,0:0:0:0:
332,21,27886,1,0,0:0:0:0:
433,132,27996,86,0,B|506:236|506:236|522:267|498:282|466:265|484:233,1,210.000008010865,2|8,3:2|0:0,0:0:0:0:
355,98,28324,2,0,L|342:202,1,105.000004005432,2|0,3:2|0:0,0:0:0:0:
504,162,28543,1,0,3:0:0:0:
258,168,28653,2,0,L|271:272,1,105.000004005432,8|0,0:0|0:0,0:0:0:0:
108,8,28872,22,0,B|121:49|121:49|78:139|78:139|71:111|71:111|103:44,2,210.000008010865,2|10|2,3:2|0:2|3:2,0:0:0:0:
236,305,29529,1,8,0:0:0:0:
71,274,29638,1,0,0:0:0:0:
132,226,29748,86,0,B|123:253|123:253|152:313|152:313|156:294|156:294|135:250,1,157.500006008148,2|0,3:2|0:0,0:0:0:0:
138,255,29967,1,8,0:0:0:0:
34,345,30076,2,0,L|52:222,1,105.000004005432,2|0,3:2|0:0,0:0:0:0:
188,163,30295,1,0,3:0:0:0:
6,169,30405,2,0,L|130:139,1,105.000004005432,8|0,0:0|0:0,0:0:0:0:
389,20,30624,22,0,B|358:6|341:52|341:52|302:143|302:143|290:174|313:206,2,210.000008010865,6|10|2,3:2|0:0|3:2,0:0:0:0:
502,242,31280,1,8,0:0:0:0:
399,289,31390,1,0,0:0:0:0:
491,370,31499,86,0,B|460:384|443:338|443:338|404:247|404:247|392:216|415:184,1,210.000008010865,2|8,3:2|0:0,0:0:0:0:
238,278,31828,2,0,L|225:391,1,105.000004005432,2|0,3:2|0:0,0:0:0:0:
309,232,32047,1,0,3:0:0:0:
512,270,32156,2,0,L|499:157,1,105.000004005432,8|0,0:0|0:0,0:0:0:0:
244,0,32375,22,0,B|290:41|276:94|276:94|290:41|350:29,2,210.000008010865,2|10|2,3:2|0:2|3:2,0:0:0:0:
77,207,33032,1,8,0:0:0:0:
219,228,33142,1,0,0:0:0:0:
106,129,33251,86,0,B|71:159|82:199|82:199|71:159|26:150,1,157.500006008148,12|0,3:2|0:0,0:0:0:0:
26,150,33470,1,0,3:0:0:0:
177,158,33580,2,0,L|297:121,1,105.000004005432,12|0,3:2|3:0,0:0:0:0:
110,51,33799,21,0,3:0:0:0:
359,95,33908,2,0,L|349:164,1,52.5000020027161,8|0,0:0|0:0,0:0:0:0:
232,278,34018,2,0,L|216:218,1,52.5000020027161,8|0,0:0|0:0,0:0:0:0:
183,117,34127,22,0,B|280:101|235:174|374:160,1,167.999994873047,4|8,3:2|0:0,0:0:0:0:
405,219,34456,1,0,0:0:0:0:
506,89,34565,2,0,P|490:36|470:-1,1,83.9999974365235,0|0,3:0|3:0,0:0:0:0:
382,44,34784,2,0,P|398:97|418:134,1,83.9999974365235,8|0,0:0|3:0,0:0:0:0:
461,281,35003,69,2,3:3:0:0:
496,206,35113,5,2,3:3:0:0:
461,281,35222,101,10,3:3:0:0:
453,198,35332,5,2,3:3:0:0:
461,281,35441,101,2,3:3:0:0:
413,213,35551,5,2,3:3:0:0:
461,281,35660,101,10,3:3:0:0:
386,246,35770,5,2,3:3:0:0:
461,281,35879,22,0,B|364:265|409:338|270:324,1,167.999994873047,4|8,3:2|0:0,0:0:0:0:
260,251,36207,1,0,0:0:0:0:
130,346,36317,2,0,P|186:320|233:311,1,83.9999974365235,0|0,3:0|3:0,0:0:0:0:
181,232,36536,2,0,P|125:258|78:267,1,83.9999974365235,8|0,0:0|3:0,0:0:0:0:
5,153,36755,69,2,3:3:0:0:
80,188,36865,5,2,3:3:0:0:
5,153,36974,101,10,3:3:0:0:
88,145,37084,5,2,3:3:0:0:
116,49,37193,101,2,3:3:0:0:
41,84,37303,5,2,3:3:0:0:
116,49,37412,101,10,3:3:0:0:
33,41,37522,5,2,3:3:0:0:
116,49,37631,22,0,B|142:62|142:62|125:184|125:184|150:201,1,167.999994873047,4|8,3:2|0:0,0:0:0:0:
210,151,37959,1,0,0:0:0:0:
119,351,38069,2,0,L|103:242,1,83.9999974365235,0|0,3:0|3:0,0:0:0:0:
189,257,38288,2,0,L|205:366,1,83.9999974365235,8|0,0:0|3:0,0:0:0:0:
437,295,38507,69,2,3:3:0:0:
402,370,38617,5,2,3:3:0:0:
437,295,38726,101,10,3:3:0:0:
445,378,38836,5,2,3:3:0:0:
437,295,38945,101,2,3:3:0:0:
485,363,39055,5,2,3:3:0:0:
437,295,39164,101,10,3:3:0:0:
512,330,39274,5,2,3:3:0:0:
437,295,39383,22,0,B|427:308|427:308|306:291|306:291|292:317,1,167.999994873047,4|8,3:2|0:0,0:0:0:0:
345,213,39711,1,0,0:0:0:0:
503,110,39821,2,0,L|493:216,1,83.9999974365235,0|0,3:0|3:0,0:0:0:0:
418,182,40040,2,0,L|428:76,1,83.9999974365235,8|0,0:0|3:0,0:0:0:0:
178,46,40259,69,2,3:3:0:0:
253,11,40369,5,2,3:3:0:0:
178,46,40478,101,10,3:3:0:0:
261,54,40588,5,2,3:3:0:0:
198,144,40697,101,2,3:3:0:0:
123,109,40807,5,2,3:3:0:0:
198,144,40916,101,10,3:3:0:0:
115,152,41026,5,2,3:3:0:0:
198,144,41134,22,0,B|181:62|102:26|102:26|85:55,1,167.999994873047,4|8,3:2|0:0,0:0:0:0:
34,151,41463,1,0,0:0:0:0:
91,248,41572,2,0,P|143:224|190:214,1,83.9999974365235,0|0,3:0|3:0,0:0:0:0:
150,356,41791,2,0,P|183:309|218:277,1,83.9999974365235,8|0,0:0|3:0,0:0:0:0:
19,286,42010,102,0,B|101:281|157:348|157:348|133:371,1,167.999994873047,4|8,3:2|0:0,0:0:0:0:
253,232,42339,1,0,3:0:0:0:
336,330,42448,2,0,P|267:348|226:378,1,83.9999974365235,0|0,3:0|3:0,0:0:0:0:
462,281,42667,2,0,P|393:262|342:267,1,83.9999974365235,8|0,0:0|3:0,0:0:0:0:
266,144,42886,6,0,B|261:61|328:5|328:5|351:29,1,167.999994873047,4|8,3:2|0:0,0:0:0:0:
345,181,43215,1,0,0:0:0:0:
409,53,43324,2,0,P|472:23|519:27,1,83.9999974365235,0|0,3:0|3:0,0:0:0:0:
419,135,43543,2,0,P|476:174|496:217,1,83.9999974365235,8|0,0:0|3:0,0:0:0:0:
335,13,43762,102,0,B|253:-1|190:57|190:57|211:84,1,167.999994873047,4|8,3:2|0:0,0:0:0:0:
188,285,44091,1,0,3:0:0:0:
149,132,44200,2,0,P|190:168|211:213,1,83.9999974365235,0|0,3:0|3:0,0:0:0:0:
272,135,44419,2,0,P|289:186|285:236,1,83.9999974365235,8|0,0:0|3:0,0:0:0:0:
50,355,44638,5,4,3:2:0:0:
108,272,44748,1,0,3:0:0:0:
50,189,44857,2,0,P|13:231|-5:278,1,83.9999974365235,8|0,0:0|0:0,0:0:0:0:
319,295,45076,101,4,3:2:0:0:
283,153,45186,1,0,0:0:0:0:
139,166,45295,2,0,P|123:226|122:268,1,83.9999974365235
426,367,45514,5,4,3:2:0:0:
495,321,45624,1,0,3:0:0:0:
421,273,45733,1,8,0:0:0:0:
477,188,45842,1,0,3:0:0:0:
367,201,45952,1,4,3:2:0:0:
341,66,46061,1,0,3:0:0:0:
219,152,46171,2,0,P|232:198|235:261,1,83.9999974365235,8|0,0:0|0:0,0:0:0:0:
483,328,46390,102,0,B|371:298|371:298|339:289|331:321,1,167.999994873047,4|8,3:2|0:0,0:0:0:0:
332,320,46718,1,8,0:0:0:0:
204,380,46828,2,0,B|176:386|169:359|169:359|143:265,1,125.999996154785,4|0,3:2|0:0,0:0:0:0:
148,282,47047,1,8,0:0:0:0:
298,19,47266,6,0,L|286:118,1,83.9999974365235,4|8,3:2|0:0,0:0:0:0:
209,94,47485,2,0,L|221:-5,1,83.9999974365235,8|8,0:0|0:0,0:0:0:0:
345,154,47704,101,0,3:0:0:0:
83,359,47923,1,0,3:0:0:0:
5,36,48142,2,0,P|75:33|88:124,1,146.999995513916,4|0,3:2|0:0,0:0:0:0:
92,107,48361,6,0,B|125:127|125:127|424:53,2,280,6|6|6,3:2|3:2|3:2,0:0:0:0:
257,175,49018,102,0,L|263:109,1,62.9999980773926,4|0,3:2|0:0,0:0:0:0:
269,201,49237,6,0,L|346:255,1,73.4999977569581,4|0,3:2|0:0,0:0:0:0:
241,198,49456,6,0,L|155:238,1,84,4|0,3:2|0:0,0:0:0:0:
260,167,49675,6,0,L|277:68,1,94.499997116089,4|0,3:2|0:0,0:0:0:0:
275,208,49894,6,0,L|375:292,1,105,4|0,3:2|0:0,0:0:0:0:
232,200,50113,6,0,L|97:249,1,115.50000352478,4|0,3:2|0:0,0:0:0:0:
264,160,50332,38,0,L|298:33,1,125.999996154785,4|0,3:2|0:0,0:0:0:0:
279,215,50551,6,0,L|400:336,1,136.499993751526,4|0,3:2|0:0,0:0:0:0:
224,200,50770,6,0,L|43:248,1,146.999995513916,4|0,3:2|0:0,0:0:0:0:
270,153,50988,6,0,L|326:-2,1,157.500006008148,4|0,3:2|0:0,0:0:0:0:
282,223,51207,6,0,L|422:390,1,168,4|0,3:2|0:0,0:0:0:0:
215,199,51426,6,0,L|-16:240,1,178.500003404617,4|0,3:2|0:0,0:0:0:0:
282,223,51645,38,0,L|422:390,1,188.999994232178,4|0,3:2|0:0,0:0:0:0:
266,152,51864,6,0,L|309:-7,1,146.999995513916,4|0,3:2|0:0,0:0:0:0:
225,203,52083,6,0,L|99:248,1,105,4|0,3:2|0:0,0:0:0:0:
281,213,52302,6,0,L|336:259,1,62.9999980773926,4|0,3:2|0:0,0:0:0:0:
260,176,52521,6,0,L|277:112,1,62.9999980773926,4|0,3:2|0:0,0:0:0:0:
267,203,52740,6,0,L|334:270,1,73.4999977569581,4|0,3:2|0:0,0:0:0:0:
240,196,52959,38,0,L|148:220,1,84,4|0,3:2|0:0,0:0:0:0:
264,168,53178,6,0,L|298:74,1,94.499997116089,4|0,3:2|0:0,0:0:0:0:
272,211,53397,6,0,L|357:311,1,105,4|0,3:2|0:0,0:0:0:0:
231,196,53616,6,0,L|90:221,1,115.50000352478,4|0,3:2|0:0,0:0:0:0:
269,162,53835,6,0,L|325:43,1,125.999996154785,4|0,3:2|0:0,0:0:0:0:
274,218,54054,6,0,L|373:359,1,136.499993751526,4|0,3:2|0:0,0:0:0:0:
223,194,54273,38,0,L|37:211,1,146.999995513916,4|0,3:2|0:0,0:0:0:0:
276,156,54491,6,0,L|359:13,1,157.500006008148,4|0,3:2|0:0,0:0:0:0:
276,227,54710,6,0,L|385:416,1,168,4|0,3:2|0:0,0:0:0:0:
214,191,54929,6,0,L|-20:191,1,178.500003404617,4|0,3:2|0:0,0:0:0:0:
276,227,55148,6,0,L|385:416,1,188.999994232178,4|0,3:2|0:0,0:0:0:0:
273,154,55367,6,0,L|343:4,1,146.999995513916,4|0,3:2|0:0,0:0:0:0:
223,197,55586,38,0,L|92:220,1,105,4|0,3:2|0:0,0:0:0:0:
277,217,55805,6,0,L|323:272,1,62.9999980773926,4|0,3:2|0:0,0:0:0:0:
384,1,56025,6,0,L|279:157,1,188.999994232178,4|0,3:2|0:0,0:0:0:0:
347,380,56244,6,0,L|274:229,1,168,4|0,3:2|0:0,0:0:0:0:
57,178,56463,6,0,L|214:189,1,157.500006008148,4|0,3:2|0:0,0:0:0:0:
374,45,56682,6,0,L|281:159,1,146.999995513916,4|0,3:2|0:0,0:0:0:0:
319,357,56901,38,0,L|270:230,1,136.499993751526,4|0,3:2|0:0,0:0:0:0:
90,165,57120,6,0,L|215:185,1,125.999996154785,4|0,3:2|0:0,0:0:0:0:
364,79,57339,6,0,L|284:162,1,115.50000352478,4|0,3:2|0:0,0:0:0:0:
296,332,57558,6,0,L|267:231,1,105,4|0,3:2|0:0,0:0:0:0:
124,159,57777,6,0,L|215:182,1,94.499997116089,4|0,3:2|0:0,0:0:0:0:
350,109,57996,6,0,L|287:164,1,84,4|0,3:2|0:0,0:0:0:0:
277,304,58215,38,0,L|263:232,1,73.4999977569581,4|0,3:2|0:0,0:0:0:0:
157,158,58434,6,0,L|216:178,1,62.9999980773926,4|0,3:2|0:0,0:0:0:0:
267,138,61718,86,0,B|297:75|245:25|133:133|227:204|261:113,1,210,4|0,3:2|0:0,0:0:0:0:
253,129,62156,102,0,B|284:166|269:207|269:207|284:237,1,105.000004005432,4|0,3:2|0:0,0:0:0:0:
357,212,62375,2,0,B|365:259|331:287|331:287|329:321,1,105.000004005432
463,157,62594,2,0,P|360:163|277:225,1,210.000008010865,8|0,0:0|0:0,0:0:0:0:
162,267,62923,1,0,0:0:0:0:
323,294,63032,5,0,3:0:0:0:
110,383,63142,1,0,0:0:0:0:
323,294,63251,1,0,3:0:0:0:
110,383,63361,1,0,0:0:0:0:
162,267,63470,102,0,B|120:261|173:284|188:314|185:351,1,105.000004005432,8|0,0:0|0:0,0:0:0:0:
47,113,63689,1,2,0:0:0:0:
218,211,63799,1,2,0:0:0:0:
47,113,63908,2,0,B|32:137|32:137|42:197|167:184,1,157.500006008148,4|0,3:2|0:0,0:0:0:0:
139,186,64127,6,0,B|70:207|70:207|65:225|49:240,1,105.000004005432
193,116,64346,2,0,B|122:99|122:99|109:112|88:117,1,105.000004005432,8|0,0:0|0:0,0:0:0:0:
203,239,64565,101,2,0:0:0:0:
257,62,64675,1,2,0:0:0:0:
203,239,64784,2,0,B|262:233|238:193|294:186,1,105.000004005432,4|0,3:2|0:0,0:0:0:0:
317,313,65003,2,0,B|365:278|324:255|369:221,1,105.000004005432,0|0,3:0|0:0,0:0:0:0:
224,81,65222,6,0,B|243:189|329:126|370:238,1,210.000008010865,8|2,0:0|0:0,0:0:0:0:
492,173,65551,1,2,0:0:0:0:
364,223,65660,102,0,B|364:206|323:190|354:167|405:203|364:264,1,105.000004005432,4|0,3:2|0:0,0:0:0:0:
348,74,65879,1,0,0:0:0:0:
281,253,65988,1,0,0:0:0:0:
348,74,66098,1,8,0:0:0:0:
281,253,66207,1,0,0:0:0:0:
259,142,66317,6,0,B|152:165|152:165|126:173|137:210,1,157.500006008148
135,204,66536,2,0,P|178:161|156:103,1,105.000004005432,4|0,3:2|0:0,0:0:0:0:
23,27,66755,101,2,3:0:0:0:
4,231,66864,1,2,0:0:0:0:
23,27,66974,2,0,B|31:57|50:69|50:69|39:88|47:119,1,105.000004005432,10|0,0:0|0:0,0:0:0:0:
184,288,67193,5,2,0:0:0:0:
133,75,67302,1,2,0:0:0:0:
184,288,67412,2,0,B|167:260|173:238|173:238|151:232|135:204,1,105.000004005432,2|0,3:2|0:0,0:0:0:0:
225,97,67631,101,2,3:2:0:0:
490,18,67740,1,2,0:0:0:0:
225,97,67850,2,0,B|256:89|276:101|276:101|287:81|318:73,1,105.000004005432,10|0,0:0|0:0,0:0:0:0:
105,149,68069,5,2,0:0:0:0:
404,230,68178,1,2,0:0:0:0:
105,149,68288,2,0,B|136:158|156:146|156:146|167:166|198:174,1,105.000004005432,2|8,3:2|0:0,0:0:0:0:
318,72,68507,2,0,B|335:100|356:106|356:106|351:128|367:156,1,105.000004005432,2|0,0:0|3:0,0:0:0:0:
452,162,68726,101,8,3:2:0:0:
287,288,68835,5,2,3:0:0:0:
183,148,68945,101,2,3:0:0:0:
70,219,69054,5,2,3:0:0:0:
244,221,69164,102,0,B|255:201|280:198|280:198|272:175|237:182|240:217,1,105.000004005432,4|0,3:2|0:0,0:0:0:0:
244,221,69492,5,0,3:0:0:0:
281,307,69602,2,0,B|261:311|278:210|243:220,1,105.000004005432,12|0,3:2|0:0,0:0:0:0:
344,221,69821,101,0,0:0:0:0:
166,328,69930,1,0,0:0:0:0:
347,358,70040,1,0,3:0:0:0:
166,328,70149,1,0,0:0:0:0:
423,301,70259,6,0,B|431:280|447:267|447:267|452:227|410:203,1,105.000004005432,0|0,3:0|0:0,0:0:0:0:
509,189,70478,2,0,B|497:168|496:148|496:148|469:119|423:137,1,105.000004005432,8|0,0:0|0:0,0:0:0:0:
332,69,70697,101,2,0:0:0:0:
489,33,70806,1,2,0:0:0:0:
332,69,70915,2,0,B|331:102|331:102|356:24|425:13,1,157.500006008148,6|0,3:2|0:0,0:0:0:0:
412,15,71134,6,0,B|403:42|403:42|424:78|411:120,1,105.000004005432
318,112,71353,2,0,B|322:139|322:139|359:160|368:203,1,105.000004005432,8|0,0:0|0:0,0:0:0:0:
200,213,71572,101,2,0:0:0:0:
397,274,71682,1,2,0:0:0:0:
200,213,71791,2,0,B|174:221|192:139|253:153,1,105.000004005432,4|0,3:2|0:0,0:0:0:0:
123,259,72010,2,0,B|110:283|65:212|118:179,1,105.000004005432,0|0,3:0|0:0,0:0:0:0:
277,283,72229,6,0,P|242:226|84:190,1,210.000008010865,8|2,0:0|0:0,0:0:0:0:
21,286,72558,1,2,0:0:0:0:
216,335,72667,102,0,B|225:373|278:371|278:371|321:345,1,105.000004005432,4|0,3:2|0:0,0:0:0:0:
118,292,72886,2,0,B|89:318|117:363|117:363|161:387,1,105.000004005432,0|0,3:0|0:0,0:0:0:0:
372,252,73105,5,8,3:2:0:0:
142,191,73215,1,0,3:0:0:0:
168,98,73324,101,0,3:0:0:0:
318,37,73434,1,0,3:0:0:0:
469,131,73543,6,0,B|451:122|445:105|445:105|374:84,1,105.000004005432,4|0,3:2|0:0,0:0:0:0:
335,147,73762,2,0,B|315:149|300:139|300:139|168:180,1,157.500006008148,4|0,3:2|0:0,0:0:0:0:
184,174,73981,102,0,B|160:129|160:129|174:142|185:144|185:144|180:160|195:190,3,105.000004005432
402,197,74419,102,0,B|379:221|352:229|352:229|316:383,2,210.000008010865,6|10|2,3:2|0:0|3:2,0:0:0:0:
512,43,75076,1,8,0:0:0:0:
457,249,75186,1,0,0:0:0:0:
428,14,75295,22,0,B|451:38|478:46|478:46|514:200,1,210.000008010865,2|8,3:2|0:0,0:0:0:0:
330,129,75624,2,0,L|343:10,1,105.000004005432,2|0,3:2|0:0,0:0:0:0:
399,187,75843,1,0,3:0:0:0:
202,274,75952,2,0,L|189:155,1,105.000004005432,8|0,0:0|0:0,0:0:0:0:
418,100,76171,86,0,B|410:54|367:56|367:56|202:130,2,210.000008010865,2|10|2,3:2|0:2|3:2,0:0:0:0:
46,143,76828,1,8,0:0:0:0:
199,173,76938,1,0,0:0:0:0:
0,209,77047,22,0,B|6:172|40:174|40:174|169:232,1,157.500006008148,2|0,3:2|0:0,0:0:0:0:
129,214,77266,1,8,0:0:0:0:
101,29,77375,2,0,L|137:146,1,105.000004005432,2|0,3:2|0:0,0:0:0:0:
318,251,77594,1,0,3:0:0:0:
313,66,77704,2,0,L|277:183,1,105.000004005432,8|0,0:0|0:0,0:0:0:0:
103,303,77923,86,0,B|67:287|67:287|32:152|32:152|67:171,2,210.000008010865,2|10|2,3:2|0:0|3:2,0:0:0:0:
313,371,78580,1,8,0:0:0:0:
201,257,78689,1,0,0:0:0:0:
287,189,78799,22,0,B|251:205|251:205|216:340|216:340|251:321,1,210.000008010865,2|8,3:2|0:0,0:0:0:0:
450,251,79127,2,0,L|326:235,1,105.000004005432,2|0,3:2|0:0,0:0:0:0:
313,371,79346,1,0,3:0:0:0:
201,257,79456,2,0,L|180:122,1,105.000004005432,8|0,0:0|0:0,0:0:0:0:
418,65,79675,86,0,B|459:111|512:97|512:97|459:111|447:171,2,210.000008010865,2|10|2,3:2|0:2|3:2,0:0:0:0:
248,216,80332,1,8,0:0:0:0:
390,299,80441,1,0,0:0:0:0:
286,364,80551,22,0,B|327:318|380:332|380:332|327:318|315:258,1,210.000008010865,2|8,3:2|0:0,0:0:0:0:
220,319,80879,85,2,3:2:0:0:
57,376,80988,2,0,P|12:332|68:296,3,105.000004005432,0|0|8|0,3:0|3:0|0:0|3:0,0:0:0:0:
112,298,81426,22,0,B|137:315|137:315|208:280|280:289|280:289|299:257,2,210.000008010865,6|10|6,3:2|0:2|3:2,0:0:0:0:
113,136,82083,1,8,0:0:0:0:
11,247,82193,1,0,0:0:0:0:
134,220,82302,86,0,P|143:131|170:48,1,157.500006008148,6|0,3:2|0:0,0:0:0:0:
162,66,82521,2,0,P|137:39|88:44,1,52.5000020027161,8|0,0:0|0:0,0:0:0:0:
0,138,82631,2,0,P|13:192|77:211,1,105.000004005432,2|4,3:2|0:0,0:0:0:0:
243,71,82850,21,0,3:0:0:0:
351,149,82959,2,0,B|398:102|465:118|465:118|444:162,1,157.500006008148,8|0,0:0|0:0,0:0:0:0:
389,221,83178,86,0,B|355:143|447:162|371:13,2,210.000008010865,6|10|6,3:2|0:2|3:2,0:0:0:0:
505,357,83835,1,8,0:0:0:0:
293,269,83945,1,0,0:0:0:0:
219,363,84054,22,0,P|303:320|385:303,1,157.500006008148,6|0,3:2|0:0,0:0:0:0:
363,305,84273,2,0,P|356:333|351:369,1,52.5000020027161,8|0,0:0|0:0,0:0:0:0:
507,279,84383,1,2,3:2:0:0:
326,175,84492,85,4,0:0:0:0:
477,83,84602,1,0,3:0:0:0:
449,195,84711,22,0,P|422:194|369:234,1,52.5000020027161,8|0,0:0|0:0,0:0:0:0:
323,161,84821,2,0,P|303:179|294:245,1,52.5000020027161
295,213,84930,86,0,P|231:218|206:88,2,210.000008010865,6|10|6,3:2|0:0|3:2,0:0:0:0:
215,17,85587,1,8,0:0:0:0:
66,114,85697,1,0,0:0:0:0:
269,124,85806,22,0,P|243:195|220:304,1,157.500006008148,6|0,3:2|0:0,0:0:0:0:
224,274,86025,2,0,P|212:249|180:209,1,52.5000020027161,8|0,0:0|0:0,0:0:0:0:
299,374,86134,2,0,P|314:302|305:251,1,105.000004005432,2|4,3:2|0:0,0:0:0:0:
389,258,86353,85,0,3:0:0:0:
200,214,86463,2,0,P|132:212|117:300,1,157.500006008148,8|0,0:0|0:0,0:0:0:0:
168,342,86682,22,0,B|148:307|148:307|95:329|11:306|-4:249,2,210.000008010865,6|10|6,3:2|0:2|3:2,0:0:0:0:
324,193,87339,1,8,0:0:0:0:
239,381,87448,1,0,0:0:0:0:
109,287,87558,86,0,P|95:221|62:124,1,157.500006008148,4|0,3:2|0:0,0:0:0:0:
66,135,87777,2,0,P|36:125|9:104,1,52.5000020027161,0|0,3:0|0:0,0:0:0:0:
256,136,87886,2,0,P|193:195|158:201,1,105.000004005432,8|0,3:2|0:0,0:0:0:0:
218,44,88105,22,0,P|191:77|197:113,1,52.5000020027161,0|0,3:0|0:0,0:0:0:0:
388,86,88215,86,0,P|372:45|338:33,1,52.5000020027161,8|0,0:0|0:0,0:0:0:0:
265,213,88324,22,0,P|307:219|335:196,1,52.5000020027161,8|0,0:0|0:0,0:0:0:0:
336,145,88434,54,0,P|369:220|369:327,1,146.999995513916,6|0,3:2|0:0,0:0:0:0:
375,284,88653,1,10,0:0:0:0:
307,352,88762,1,0,0:0:0:0:
212,367,88871,1,2,3:2:0:0:
127,323,88981,1,0,0:0:0:0:
85,236,89090,1,8,0:0:0:0:
103,141,89200,1,0,0:0:0:0:
225,117,89310,54,0,P|197:130|168:170,1,48.9999985046387,2|0,3:2|0:0,0:0:0:0:
97,112,89419,2,0,P|86:140|94:189,1,48.9999985046387
20,301,89529,54,0,P|79:251|130:246,1,97.9999970092774,8|2,0:0|3:2,0:0:0:0:
310,123,89748,2,0,P|381:155|411:210,1,97.9999970092774,0|0,0:0|3:0,0:0:0:0:
475,208,89967,53,8,0:0:0:0:
441,286,90076,1,0,0:0:0:0:
488,224,90186,2,0,P|490:156|440:76,1,146.999995513916,2|0,3:2|0:0,0:0:0:0:
453,87,90405,53,10,0:0:0:0:
412,174,90514,1,0,0:0:0:0:
325,213,90623,1,2,3:2:0:0:
233,184,90733,2,0,P|161:201|116:240,1,97.9999970092774,0|8,0:0|0:0,0:0:0:0:
343,83,90952,2,0,P|303:43|232:24,1,97.9999970092774,0|2,0:0|3:2,0:0:0:0:
254,30,91171,54,0,P|269:64|269:93,1,48.9999985046387
98,37,91280,54,0,P|119:7|145:-7,1,48.9999985046387,8|0,0:0|0:0,0:0:0:0:
183,169,91390,54,0,P|146:164|120:150,1,48.9999985046387,2|0,3:2|0:0,0:0:0:0:
179,56,91499,53,0,0:0:0:0:
123,119,91609,1,0,3:0:0:0:
46,102,91718,2,0,P|16:156|18:209,1,97.9999970092774,8|0,0:0|0:0,0:0:0:0:
262,149,91937,54,0,P|275:225|345:303,1,146.999995513916,6|0,3:2|0:0,0:0:0:0:
314,280,92156,1,10,0:0:0:0:
499,155,92266,2,0,P|428:130|409:97,1,97.9999970092774,0|2,0:0|3:2,0:0:0:0:
389,318,92485,53,0,0:0:0:0:
315,206,92594,1,8,0:0:0:0:
248,319,92704,1,0,0:0:0:0:
401,328,92813,54,0,P|404:263|425:209,1,97.9999970092774,2|0,3:2|0:0,0:0:0:0:
229,237,93032,2,0,P|220:178|240:114,1,97.9999970092774,8|2,0:0|3:2,0:0:0:0:
92,366,93251,2,0,P|63:318|59:255,1,97.9999970092774,0|0,0:0|3:0,0:0:0:0:
22,46,93470,53,8,0:0:0:0:
105,23,93580,1,0,0:0:0:0:
156,94,93689,2,0,P|206:90|289:17,1,146.999995513916,2|0,3:2|0:0,0:0:0:0:
280,32,93908,53,10,0:0:0:0:
258,126,94017,1,0,0:0:0:0:
298,213,94126,1,2,3:2:0:0:
383,258,94236,1,0,0:0:0:0:
478,240,94345,1,8,0:0:0:0:
478,240,94565,54,0,L|454:126,1,112,2|0,3:2|0:0,0:0:0:0:
455,131,94894,1,0,3:0:0:0:
455,131,94948,1,0,3:0:0:0:
455,131,95003,1,0,3:0:0:0:
261,360,95222,1,0,3:0:0:0:
505,224,95441,54,0,P|451:187|341:170,1,146.999995513916,6|0,3:2|0:0,0:0:0:0:
372,168,95660,53,10,0:0:0:0:
405,85,95770,1,0,0:0:0:0:
326,37,95879,2,0,P|291:90|289:156,1,97.9999970092774,2|0,3:2|0:0,0:0:0:0:
119,28,96098,53,8,0:0:0:0:
57,166,96207,1,0,0:0:0:0:
177,261,96317,2,0,P|245:228|344:241,1,146.999995513916,2|0,3:2|0:0,0:0:0:0:
314,230,96536,2,0,P|266:273|255:341,1,97.9999970092774,8|2,0:0|3:2,0:0:0:0:
512,272,96755,53,0,0:0:0:0:
493,356,96864,1,0,3:0:0:0:
406,358,96974,2,0,P|386:304|394:245,1,97.9999970092774,8|0,0:0|0:0,0:0:0:0:
77,288,97193,54,0,P|85:211|146:116,1,146.999995513916,2|0,3:2|0:0,0:0:0:0:
115,149,97412,1,10,0:0:0:0:
154,237,97521,1,0,0:0:0:0:
237,286,97630,1,2,3:2:0:0:
333,277,97740,1,0,0:0:0:0:
405,213,97849,1,8,0:0:0:0:
427,119,97959,1,0,0:0:0:0:
335,23,98069,54,0,P|337:47|349:68,1,48.9999985046387,2|0,3:2|0:0,0:0:0:0:
294,125,98178,2,0,P|313:140|336:147,1,48.9999985046387
443,101,98288,54,0,P|440:125|428:146,1,48.9999985046387,8|0,0:0|0:0,0:0:0:0:
484,203,98397,2,0,P|464:218|441:225,1,48.9999985046387,2|0,3:2|0:0,0:0:0:0:
320,237,98507,54,0,P|356:308|365:370,1,97.9999970092774,0|0,0:0|3:0,0:0:0:0:
59,292,98726,2,0,P|34:367|-3:417,1,97.9999970092774,8|0,0:0|0:0,0:0:0:0:
237,212,98945,54,0,P|206:149|111:81,1,146.999995513916,6|0,3:2|0:0,0:0:0:0:
149,98,99164,53,10,0:0:0:0:
173,9,99273,1,0,0:0:0:0:
77,37,99383,2,0,P|43:91|39:158,1,97.9999970092774,2|0,3:2|0:0,0:0:0:0:
335,210,99602,53,8,0:0:0:0:
229,124,99711,1,0,0:0:0:0:
157,243,99821,2,0,P|157:299|178:344,1,97.9999970092774,2|0,3:2|0:0,0:0:0:0:
421,130,100040,53,8,0:0:0:0:
307,245,100149,1,2,3:2:0:0:
418,362,100259,2,0,P|468:383|518:383,1,97.9999970092774,0|0,0:0|3:0,0:0:0:0:
499,97,100478,54,0,P|448:174|364:217,1,146.999995513916,8|0,0:0|0:0,0:0:0:0:
403,203,100697,54,0,P|419:142|404:72,1,97.9999970092774,2|0,3:2|0:0,0:0:0:0:
296,137,100915,2,0,P|278:75|230:22,1,97.9999970092774,10|0,0:0|0:0,0:0:0:0:
28,283,101134,54,0,P|12:221|27:151,1,97.9999970092774,2|0,3:2|0:0,0:0:0:0:
135,216,101352,2,0,P|152:154|200:101,1,97.9999970092774,8|0,0:0|0:0,0:0:0:0:
327,308,101572,54,0,P|256:280|175:278,1,146.999995513916,6|0,3:2|0:0,0:0:0:0:
186,276,101791,1,8,0:0:0:0:
274,142,101901,2,0,P|351:200|383:270,1,146.999995513916,6|0,3:2|0:0,0:0:0:0:
374,242,102120,1,0,3:0:0:0:
414,157,102229,54,0,P|389:156|365:161,1,48.9999985046387,12|0,0:0|0:0,0:0:0:0:
506,132,102339,2,0,P|489:114|468:101,1,48.9999985046387,8|0,0:0|0:0,0:0:0:0:
492,22,102448,22,0,B|401:5|418:88|325:52,1,167.999994873047,4|8,3:2|0:0,0:0:0:0:
250,176,102777,1,0,0:0:0:0:
241,17,102886,2,0,P|255:68|271:112,1,83.9999974365235,0|0,3:0|3:0,0:0:0:0:
187,123,103105,2,0,P|173:72|157:28,1,83.9999974365235,8|0,0:0|3:0,0:0:0:0:
0,55,103324,69,2,3:3:0:0:
97,9,103434,5,2,3:3:0:0:
0,55,103543,101,10,3:3:0:0:
107,65,103653,5,2,3:3:0:0:
0,55,103762,101,2,3:3:0:0:
88,117,103872,5,2,3:3:0:0:
0,55,103981,101,10,3:3:0:0:
45,152,104091,5,2,3:3:0:0:
0,55,104200,22,0,B|91:38|74:121|167:85,1,167.999994873047,4|8,3:2|0:0,0:0:0:0:
320,160,104529,1,0,0:0:0:0:
229,36,104638,2,0,P|244:92|248:139,1,83.9999974365235,0|0,3:0|3:0,0:0:0:0:
379,102,104857,2,0,P|364:46|360:-1,1,83.9999974365235,8|0,0:0|3:0,0:0:0:0:
454,256,105076,69,2,3:3:0:0:
500,159,105186,5,2,3:3:0:0:
454,256,105295,101,10,3:3:0:0:
444,149,105405,5,2,3:3:0:0:
324,172,105514,101,2,3:3:0:0:
370,269,105624,5,2,3:3:0:0:
324,172,105733,101,10,3:3:0:0:
314,279,105843,5,2,3:3:0:0:
324,172,105952,22,0,B|326:219|326:219|273:300|273:300|277:345,1,167.999994873047,4|8,3:2|0:0,0:0:0:0:
198,256,106280,1,0,0:0:0:0:
114,377,106390,2,0,L|129:272,1,83.9999974365235,0|0,3:0|3:0,0:0:0:0:
40,280,106609,2,0,L|25:385,1,83.9999974365235,8|0,0:0|3:0,0:0:0:0:
221,179,106828,69,2,3:3:0:0:
267,276,106938,5,2,3:3:0:0:
221,179,107047,101,10,3:3:0:0:
211,286,107157,5,2,3:3:0:0:
221,179,107266,101,2,3:3:0:0:
159,267,107376,5,2,3:3:0:0:
221,179,107485,101,10,3:3:0:0:
124,224,107595,5,2,3:3:0:0:
221,179,107704,22,0,B|218:226|218:226|271:307|271:307|267:352,1,167.999994873047,4|8,3:2|0:0,0:0:0:0:
291,137,108032,1,0,0:0:0:0:
409,232,108142,2,0,L|318:205,1,83.9999974365235,0|0,3:0|3:0,0:0:0:0:
356,87,108361,2,0,L|447:114,1,83.9999974365235,8|0,0:0|3:0,0:0:0:0:
215,157,108580,69,2,3:3:0:0:
278,24,108690,5,2,3:3:0:0:
215,157,108799,101,10,3:3:0:0:
201,10,108909,5,2,3:3:0:0:
92,51,109018,101,2,3:3:0:0:
133,138,109128,5,2,3:3:0:0:
92,51,109237,101,10,3:3:0:0:
82,147,109347,5,2,3:3:0:0:
92,51,109456,22,0,P|194:52|240:80,1,125.999996154785,4|0,3:2|0:0,0:0:0:0:
213,61,109675,2,0,P|212:113|246:160,1,83.9999974365235,8|0,0:0|0:0,0:0:0:0:
309,180,109894,69,0,3:0:0:0:
391,93,110003,5,0,3:0:0:0:
309,180,110113,101,8,0:0:0:0:
424,163,110222,5,0,3:0:0:0:
309,180,110332,22,0,P|261:231|248:296,1,125.999996154785,4|0,3:2|0:0,0:0:0:0:
247,283,110551,2,0,P|296:294|343:274,1,83.9999974365235,8|0,0:0|0:0,0:0:0:0:
203,377,110770,69,0,3:0:0:0:
183,235,110879,5,0,3:0:0:0:
203,377,110988,101,8,0:0:0:0:
111,276,111098,5,0,3:0:0:0:
203,377,111207,22,0,P|186:313|211:236,1,125.999996154785,4|0,3:2|0:0,0:0:0:0:
199,255,111426,2,0,P|252:232|268:187,1,83.9999974365235,8|0,0:0|0:0,0:0:0:0:
43,129,111645,69,0,3:0:0:0:
190,152,111755,5,0,3:0:0:0:
43,129,111864,101,8,0:0:0:0:
174,71,111974,5,0,3:0:0:0:
43,129,112083,22,0,P|89:80|104:17,1,125.999996154785,4|0,3:2|0:0,0:0:0:0:
103,24,112302,2,0,P|54:9|7:22,1,83.9999974365235,8|0,0:0|0:0,0:0:0:0:
226,144,112521,69,0,3:0:0:0:
268,30,112631,5,0,3:0:0:0:
226,144,112740,101,8,0:0:0:0:
324,85,112850,5,0,3:0:0:0:
226,144,112959,22,0,P|308:171|334:214,1,125.999996154785,4|0,3:2|0:0,0:0:0:0:
328,200,113178,2,0,P|368:167|374:126,1,83.9999974365235,8|0,0:0|3:0,0:0:0:0:
494,51,113397,69,0,3:0:0:0:
365,12,113507,5,0,3:0:0:0:
494,51,113616,22,0,P|459:123|465:193,1,125.999996154785,8|0,0:0|0:0,0:0:0:0:
508,232,113835,69,4,3:2:0:0:
334,281,113945,5,0,0:0:0:0:
508,232,114054,22,0,P|464:293|429:297,1,83.9999974365235,8|0,0:0|3:0,0:0:0:0:
281,366,114273,102,0,P|259:313|222:284,1,83.9999974365235,0|0,3:0|3:0,0:0:0:0:
336,236,114492,2,0,P|358:289|395:318,1,83.9999974365235,8|0,0:0|0:0,0:0:0:0:
236,18,114711,6,0,B|238:50|256:71|256:71|231:192,1,167.999994873047,4|8,3:2|0:0,0:0:0:0:
233,179,115040,1,8,0:0:0:0:
158,247,115149,2,0,B|156:215|138:194|138:194|163:73,1,167.999994873047,4|8,3:2|0:0,0:0:0:0:
425,195,115587,102,0,L|512:174,1,83.9999974365235,4|8,3:2|0:0,0:0:0:0:
425,195,115806,1,8,0:0:0:0:
365,136,115915,1,8,0:0:0:0:
346,217,116025,1,0,3:0:0:0:
143,41,116244,1,0,3:0:0:0:
56,293,116463,1,4,3:2:0:0:
325,202,119091,6,0,P|316:155|279:142,10,70
97,60,122594,102,0,L|81:203,1,140,0|0,3:0|0:0,0:0:0:0:
81,199,122923,1,0,3:0:0:0:
81,199,122978,1,0,3:0:0:0:
81,199,123032,1,12,0:0:0:0:
378,37,123251,1,0,3:0:0:0:
52,125,123470,102,0,L|136:104,1,70,4|0,3:2|0:0,0:0:0:0:
158,267,123689,2,0,L|242:288,1,70,4|0,3:2|0:0,0:0:0:0:
466,331,123908,5,8,3:2:0:0:
466,331,124018,1,0,3:2:0:0:
466,331,124127,1,0,3:2:0:0:
466,331,124237,1,0,3:2:0:0:
306,384,124346,102,0,L|296:290,1,70,4|0,3:2|0:0,0:0:0:0:
416,270,124565,2,0,L|426:176,1,70,4|0,3:2|0:0,0:0:0:0:
440,73,124784,5,8,3:2:0:0:
440,73,124894,1,0,3:2:0:0:
440,73,125003,1,0,3:2:0:0:
440,73,125113,1,0,3:2:0:0:
263,16,125222,102,0,L|280:96,1,70,4|0,3:2|0:0,0:0:0:0:
23,154,125441,2,0,L|6:234,1,70,4|0,3:2|0:0,0:0:0:0:
121,312,125660,5,8,3:2:0:0:
121,312,125770,1,0,3:2:0:0:
121,312,125879,1,0,3:2:0:0:
121,312,125988,1,0,3:2:0:0:
86,111,126098,102,0,L|159:93,1,70,4|0,3:2|0:0,0:0:0:0:
205,335,126317,2,0,L|278:353,1,70,4|0,3:2|0:0,0:0:0:0:
484,265,126536,5,8,3:2:0:0:
484,265,126645,1,0,3:2:0:0:
484,265,126755,1,0,3:2:0:0:
484,265,126864,1,0,3:2:0:0:
346,104,126974,102,0,L|330:225,1,105,4|0,3:2|0:0,0:0:0:0:
241,193,127193,2,0,L|250:274,1,70,4|0,3:2|0:0,0:0:0:0:
114,31,127412,5,8,3:2:0:0:
114,31,127521,1,0,3:2:0:0:
114,31,127631,1,0,3:2:0:0:
114,31,127740,1,0,3:2:0:0:
2,134,127850,102,0,L|90:147,1,70,4|0,3:2|0:0,0:0:0:0:
114,345,128069,2,0,L|202:332,1,70,4|0,3:2|0:0,0:0:0:0:
357,305,128288,5,8,3:2:0:0:
357,305,128397,1,0,3:2:0:0:
357,305,128507,1,0,3:2:0:0:
357,305,128616,1,0,3:2:0:0:
399,156,128726,102,0,L|377:36,1,105,4|0,3:2|0:0,0:0:0:0:
477,220,128945,2,0,L|492:138,1,70,4|0,3:2|0:0,0:0:0:0:
298,9,129164,5,8,3:2:0:0:
282,112,129273,1,0,3:2:0:0:
267,216,129383,1,0,3:2:0:0:
252,320,129492,1,0,3:2:0:0:
0,22,129602,101,4,3:2:0:0:
60,81,129748,5,8,0:0:0:0:
84,0,129894,101,8,0:0:0:0:
142,61,130040,5,0,3:0:0:0:
433,346,130478,102,0,P|446:267|479:191,1,125.999996154785,4|0,3:2|0:0,0:0:0:0:
461,224,130697,2,0,P|382:211|306:178,1,125.999996154785,8|0,0:0|0:0,0:0:0:0:
272,236,130915,2,0,P|204:240|163:272,1,83.9999974365235,0|0,3:0|0:0,0:0:0:0:
131,303,131134,1,8,0:0:0:0:
131,303,131244,1,0,0:0:0:0:
46,270,131353,6,0,P|23:235|14:194,1,83.9999974365235,0|0,3:0|0:0,0:0:0:0:
167,137,131572,1,8,0:0:0:0:
167,137,131682,2,0,P|189:171|198:212,1,83.9999974365235,0|0,3:0|0:0,0:0:0:0:
227,296,131901,1,0,3:0:0:0:
337,365,132010,2,0,P|395:331|435:262,1,125.999996154785,8|0,0:0|0:0,0:0:0:0:
427,283,132229,102,0,B|367:270|348:214|348:214|329:235|295:233,1,168,4|0,3:2|0:0,0:0:0:0:
347,21,132448,6,0,B|334:80|278:99|278:99|299:118|297:152,1,168,4|0,3:2|0:0,0:0:0:0:
85,101,132667,102,0,B|144:113|163:169|163:169|182:148|216:150,1,168,4|0,3:2|0:0,0:0:0:0:
165,363,132886,6,0,B|177:303|233:284|233:284|212:265|214:231,1,168,4|0,3:2|0:0,0:0:0:0:
332,124,133981,102,0,B|286:83|300:30|300:30|286:83|226:95,1,210.000008010865,2|0,0:0|0:0,0:0:0:0:
278,290,134856,2,0,B|336:271|374:310|374:310|336:271|355:213,1,210.000008010865,2|0,0:0|0:0,0:0:0:0:
160,160,135732,2,0,B|148:220|95:234|95:234|148:220|188:266,1,210.000008010865,2|0,0:0|0:0,0:0:0:0:
283,11,137484,102,0,B|243:46|267:89|244:95|229:87|229:87|221:101|198:107|197:58|145:48,1,210.000008010865,2|0,0:0|0:0,0:0:0:0:
400,305,138360,2,0,B|389:252|340:252|347:229|361:220|361:220|353:206|359:183|402:206|437:167,1,210.000008010865,2|0,0:0|0:0,0:0:0:0:
87,259,139236,2,0,B|137:276|163:234|179:251|179:268|179:268|196:268|213:285|171:310|188:360,1,210.000008010865,2|0,0:0|0:0,0:0:0:0:
437,190,140441,5,0,3:0:0:0:
437,190,140496,1,0,3:0:0:0:
437,190,140551,2,0,L|300:169,1,125.999996154785,4|0,3:2|0:0,0:0:0:0:
281,97,140988,38,0,B|250:34|250:34|171:60,1,140,4|0,0:0|0:0,0:0:0:0:
105,83,141317,1,0,3:0:0:0:
105,83,141426,1,8,0:0:0:0:
28,304,141645,2,0,L|113:314,1,70,0|8,3:0|0:0,0:0:0:0:
179,318,141864,69,4,0:2:0:0:
179,318,141974,1,0,0:0:0:0:
272,180,142083,1,0,3:0:0:0:
272,180,142193,1,0,3:0:0:0:
344,337,142302,2,0,P|407:324|405:237,1,140,8|0,0:0|3:0,0:0:0:0:
334,244,142631,1,8,0:0:0:0:
272,180,142740,38,0,L|286:28,1,140,4|0,0:0|3:0,0:0:0:0:
365,12,143069,1,0,3:0:0:0:
365,12,143178,1,8,0:0:0:0:
496,223,143397,1,8,0:0:0:0:
438,164,143507,1,8,0:0:0:0:
417,241,143616,70,0,L|403:332,3,70,0|8|0|0,3:0|0:0|3:0|3:0,0:0:0:0:
362,377,144054,2,0,B|317:321|317:321|241:344,1,140,8|0,0:0|3:0,0:0:0:0:
191,287,144383,1,0,3:0:0:0:
131,384,144492,38,0,L|49:369,1,70,4|0,0:0|0:0,0:0:0:0:
108,217,145806,70,0,B|99:192|110:175|110:175|89:169|74:140,1,83.9999974365235,4|0,3:0|0:0,0:0:0:0:
189,107,146025,2,0,B|197:131|187:149|187:149|207:154|222:183,1,83.9999974365235,4|0,3:0|0:0,0:0:0:0:
389,334,146244,102,0,B|421:308|432:228|382:226,1,125.999996154785,4|0,3:2|0:0,0:0:0:0:
292,250,146463,2,0,B|296:208|247:144|210:178,1,125.999996154785,12|0,0:0|0:0,0:0:0:0:
453,73,146682,2,0,P|390:88|294:192,1,188.999994232178,4|0,3:2|0:0,0:0:0:0:
302,172,146901,6,0,P|307:136|292:98,1,62.9999980773926,14|0,0:0|0:0,0:0:0:0:
390,227,147010,2,0,P|418:204|435:167,1,62.9999980773926,2|0,0:0|0:0,0:0:0:0:
372,82,147120,101,6,3:2:0:0:
193,125,147229,1,0,0:0:0:0:
372,82,147339,6,0,B|334:69|322:34|322:34|202:-2,1,188.999994232178,12|0,0:0|0:0,0:0:0:0:
211,0,147558,2,0,B|226:53|226:53|260:67|272:112,1,125.999996154785,4|0,3:2|0:0,0:0:0:0:
105,183,147777,102,0,P|66:135|77:109,1,62.9999980773926,14|0,0:0|0:0,0:0:0:0:
207,202,147886,2,0,P|159:241|133:230,1,62.9999980773926,2|0,0:0|0:0,0:0:0:0:
66,140,147996,6,0,B|70:242|0:207|3:318,1,188.999994232178,6|0,3:2|0:0,0:0:0:0:
3,311,148215,102,0,B|70:278|53:332|129:295,1,125.999996154785,12|0,0:0|0:0,0:0:0:0:
309,377,148434,2,0,B|332:305|358:356|386:276,1,125.999996154785,4|0,3:2|0:0,0:0:0:0:
167,229,148653,6,0,P|192:251|198:299,1,62.9999980773926,14|0,0:0|0:0,0:0:0:0:
302,203,148762,2,0,P|312:234|293:279,1,62.9999980773926,2|0,0:0|0:0,0:0:0:0:
309,377,148872,102,0,B|287:283|287:283|246:251|194:281,1,188.999994232178,6|0,3:2|0:0,0:0:0:0:
200,278,149091,2,0,P|198:343|263:334,1,125.999996154785,12|0,0:0|0:0,0:0:0:0:
253,131,149310,5,4,3:2:0:0:
314,297,149419,1,0,0:0:0:0:
444,177,149529,102,0,P|420:161|354:162,1,62.9999980773926,14|0,0:0|0:0,0:0:0:0:
316,194,149638,2,0,P|287:199|241:247,1,62.9999980773926,2|0,0:0|0:0,0:0:0:0:
378,246,149748,6,0,P|354:171|392:54,1,188.999994232178,6|0,3:2|0:0,0:0:0:0:
382,67,149967,101,12,0:0:0:0:
494,109,150076,1,0,0:0:0:0:
486,239,150186,1,4,3:2:0:0:
296,292,150295,1,0,0:0:0:0:
161,120,150405,6,0,B|148:95|116:80|116:80|261:105,1,188.999994232178,12|0,3:2|0:0,0:0:0:0:
241,101,150624,2,0,B|267:83|267:83|276:29|216:0,1,125.999996154785,4|0,3:2|0:0,0:0:0:0:
399,22,150843,101,14,0:0:0:0:
500,82,150952,1,2,0:0:0:0:
447,186,151061,2,0,B|416:193|400:229|400:229|408:190|389:172,1,125.999996154785,6|0,3:2|0:0,0:0:0:0:
321,96,151280,5,14,0:0:0:0:
309,287,151390,1,2,0:0:0:0:
122,321,151499,2,0,B|117:289|82:271|82:271|121:282|140:265,1,125.999996154785,6|0,3:2|0:0,0:0:0:0:
45,43,151718,101,14,0:0:0:0:
242,91,151828,1,2,0:0:0:0:
219,293,151937,2,0,B|223:324|258:342|258:342|219:331|200:348,1,125.999996154785,6|0,3:2|0:0,0:0:0:0:
359,366,152156,5,14,0:0:0:0:
293,156,152266,1,2,0:0:0:0:
469,23,152375,2,0,B|498:35|531:13|531:13|502:41|508:67,1,125.999996154785,6|0,3:2|0:0,0:0:0:0:
368,191,152594,2,0,B|380:220|418:228|418:228|378:228|364:249,1,125.999996154785,14|0,0:0|0:0,0:0:0:0:
320,67,152813,101,2,3:0:0:0:
199,43,152923,5,2,3:0:0:0:
67,128,153032,101,2,3:0:0:0:
30,349,153142,5,2,3:0:0:0:
293,156,153251,102,0,B|262:187|262:187|261:250|341:267,1,125.999996154785,4|0,3:2|0:0,0:0:0:0:
301,253,153580,5,0,3:0:0:0:
335,90,153689,2,0,B|269:59|269:59|192:86|197:172,1,188.999994232178,4|0,3:2|0:0,0:0:0:0:
197,142,153908,2,0,P|151:101|175:25,1,125.999996154785,14|2,0:0|0:0,0:0:0:0:
320,0,154127,102,0,P|289:16|276:57,1,62.9999980773926,6|0,3:2|0:0,0:0:0:0:
351,79,154237,2,0,P|340:112|360:150,1,62.9999980773926
440,199,154346,6,0,B|470:173|449:125|449:125|437:191|404:157|396:236,1,188.999994232178,12|0,0:0|0:0,0:0:0:0:
398,218,154565,2,0,B|421:277|456:249|470:320,1,125.999996154785,4|0,3:2|0:0,0:0:0:0:
289,191,154784,102,0,P|255:215|248:264,1,62.9999980773926,14|0,0:0|0:0,0:0:0:0:
101,257,154894,2,0,P|104:298|143:329,1,62.9999980773926,2|0,0:0|0:0,0:0:0:0:
326,359,155003,6,0,P|276:299|153:258,1,188.999994232178,6|0,3:2|0:0,0:0:0:0:
174,258,155222,2,0,B|222:279|224:333|224:333|182:352,1,125.999996154785,12|0,0:0|0:0,0:0:0:0:
24,304,155441,102,0,B|-15:279|-15:279|-9:186|98:165,1,188.999994232178,4|0,3:2|0:0,0:0:0:0:
66,173,155660,6,0,P|88:206|91:253,1,62.9999980773926,14|0,0:2|0:0,0:0:0:0:
262,161,155770,2,0,P|264:199|243:242,1,62.9999980773926,2|0,0:0|0:0,0:0:0:0:
420,312,155879,2,0,B|448:328|455:354|455:354|490:345|490:345|481:309|481:309|454:317|426:300,1,188.999994232178,6|0,3:2|0:0,0:0:0:0:
342,337,156098,102,0,P|307:307|320:244,1,62.9999980773926,14|0,0:0|0:0,0:0:0:0:
170,227,156207,2,0,P|166:181|220:145,1,62.9999980773926,2|0,0:0|0:0,0:0:0:0:
245,130,156317,5,4,3:2:0:0:
346,221,156426,1,0,3:0:0:0:
202,334,156536,1,12,3:2:0:0:
113,114,156645,1,0,3:0:0:0:
400,69,156755,102,0,B|395:134|418:158|418:158|387:170|365:232,1,188.999994232178,4|0,3:2|0:0,0:0:0:0:
317,50,156974,2,0,B|295:112|264:124|264:124|287:148|283:214,1,188.999994232178,4|0,3:2|0:0,0:0:0:0:
213,262,157193,5,8,3:2:0:0:
112,22,157302,1,8,3:2:0:0:
375,146,157412,101,8,3:2:0:0:
290,360,157521,1,8,3:2:0:0:
0,192,157631,6,0,L|64:176,1,62.9999980773926,4|0,3:2|0:0,0:0:0:0:
512,192,157850,2,0,L|448:208,1,62.9999980773926,4|0,3:2|0:0,0:0:0:0:
344,172,158507,6,0,L|390:0,1,168,6|0,3:2|0:0,0:0:0:0:
369,253,158726,6,0,L|495:379,1,168,10|0,0:0|0:0,0:0:0:0:
285,234,158945,6,0,L|172:264,1,112,2|0,3:2|0:0,0:0:0:0:
66,172,159164,6,0,L|47:89,1,56,8|0,0:0|0:0,0:0:0:0:
50,103,159273,1,0,0:0:0:0:
147,182,159383,2,0,L|166:33,1,112,0|0,3:0|0:0,0:0:0:0:
327,254,159602,5,8,0:0:0:0:
290,140,159711,2,0,L|353:265,1,112,0|0,3:0|0:0,0:0:0:0:
499,342,159930,5,0,3:0:0:0:
402,381,160040,2,0,L|539:349,1,112,8|0,0:0|0:0,0:0:0:0:
273,329,160259,2,0,L|446:218,1,168,0|0,3:2|0:0,0:0:0:0:
489,264,160478,38,0,L|514:147,1,112,10|0,0:2|0:0,0:0:0:0:
429,135,160697,2,0,L|403:13,1,112,2|0,3:2|0:0,0:0:0:0:
378,74,160915,2,0,L|280:-13,1,112,10|0,0:2|3:0,0:0:0:0:
218,38,161134,6,0,L|94:4,1,112,2|0,3:2|0:0,0:0:0:0:
87,84,161353,2,0,L|-38:108,1,112,10|0,0:2|3:0,0:0:0:0:
34,275,161572,2,0,L|-8:405,1,112,2|0,0:2|3:0,0:0:0:0:
373,317,161791,2,0,L|331:110,1,168,10|0,0:2|0:0,0:0:0:0:
227,248,162010,6,0,L|264:118,1,112,6|0,3:2|0:0,0:0:0:0:
239,345,162229,6,0,L|303:297,1,56,10|0,0:0|0:0,0:0:0:0:
164,173,162339,2,0,L|165:104,1,56,2|0,0:0|0:0,0:0:0:0:
32,8,162448,2,0,L|84:156,1,112,2|0,3:2|0:0,0:0:0:0:
230,72,162667,6,0,L|293:109,1,56,8|0,0:0|0:0,0:0:0:0:
290,108,162777,1,0,0:0:0:0:
393,326,162886,2,0,L|522:298,1,112,0|0,3:0|0:0,0:0:0:0:
318,195,163105,5,8,0:0:0:0:
383,106,163215,2,0,L|328:224,1,112,0|0,3:0|0:0,0:0:0:0:
83,371,163434,37,0,3:0:0:0:
110,272,163543,2,0,L|98:420,1,112,8|0,0:0|0:0,0:0:0:0:
158,177,163762,6,0,L|-10:217,1,168,4|0,3:2|0:0,0:0:0:0:
188,104,163981,2,0,L|142:-4,1,112,8|0,0:0|0:0,0:0:0:0:
348,330,164200,6,0,L|516:370,1,168,0|0,3:0|0:0,0:0:0:0:
318,257,164419,2,0,L|364:149,1,112,8|0,0:0|3:0,0:0:0:0:
30,326,164638,6,0,L|170:279,1,112,0|0,3:0|0:0,0:0:0:0:
230,253,164857,2,0,L|246:186,1,56,8|0,0:0|0:0,0:0:0:0:
242,179,164967,2,0,L|223:114,1,56,0|0,3:0|0:0,0:0:0:0:
265,90,165076,2,0,L|330:67,1,56
396,42,165186,2,0,L|385:137,1,56,0|0,3:0|0:0,0:0:0:0:
512,11,165295,2,0,L|455:144,1,112,8|0,0:0|0:0,0:0:0:0:
461,251,165514,6,0,L|241:198,1,224,6|8,3:2|0:0,0:0:0:0:
44,264,165843,2,0,L|113:291,1,56,2|0,0:0|0:0,0:0:0:0:
242,179,165952,2,0,L|111:225,1,112,0|0,3:0|0:0,0:0:0:0:
343,354,166171,6,0,L|397:223,1,112,10|0,0:0|0:0,0:0:0:0:
266,327,166390,38,0,L|289:75,1,224,6|8,3:2|0:0,0:0:0:0:
434,58,166718,2,0,L|466:-6,1,56,2|0,3:2|0:0,0:0:0:0:
310,116,166828,2,0,L|274:-18,1,112,0|0,0:0|3:0,0:0:0:0:
105,81,167047,6,0,L|1:10,1,112,10|0,0:0|0:0,0:0:0:0:
181,41,167266,6,0,L|245:290,1,224,6|8,3:2|0:0,0:0:0:0:
164,357,167594,2,0,L|225:383,1,56,2|0,0:0|0:0,0:0:0:0:
197,247,167704,2,0,L|296:340,1,112,0|0,3:0|0:0,0:0:0:0:
458,384,167923,6,0,L|424:250,1,112,10|0,0:0|3:0,0:0:0:0:
512,275,168142,6,0,L|295:197,1,224,2|8,3:2|0:0,0:0:0:0:
184,205,168470,2,0,L|202:138,1,56,2|0,3:2|0:0,0:0:0:0:
289,240,168580,2,0,L|273:105,1,112,0|0,0:0|3:0,0:0:0:0:
8,229,168799,6,0,L|121:172,1,112,10|0,0:0|0:0,0:0:0:0:
238,44,169018,38,0,L|176:250,1,168,4|0,3:2|0:0,0:0:0:0:
310,81,169237,6,0,L|289:293,1,168,8|0,0:0|0:0,0:0:0:0:
382,52,169456,6,0,L|409:182,1,112,0|0,3:0|0:0,0:0:0:0:
510,122,169675,6,0,L|497:197,1,56,8|0,0:0|0:0,0:0:0:0:
499,191,169784,1,0,0:0:0:0:
378,240,169894,2,0,L|412:382,1,112,0|0,3:0|0:0,0:0:0:0:
144,263,170113,5,8,0:0:0:0:
183,143,170222,2,0,L|162:285,1,112,0|0,3:0|0:0,0:0:0:0:
116,11,170441,5,0,3:0:0:0:
11,61,170551,2,0,L|139:27,1,112,8|0,0:0|0:0,0:0:0:0:
507,174,170770,38,0,L|439:-28,1,168,0|0,3:2|0:0,0:0:0:0:
495,251,170988,2,0,L|417:351,1,112,8|0,0:0|0:0,0:0:0:0:
51,163,171207,6,0,L|200:191,1,112,4|0,3:2|0:0,0:0:0:0:
363,213,171426,2,0,L|441:195,1,56,8|0,0:0|0:0,0:0:0:0:
433,197,171536,1,0,3:0:0:0:
283,25,171645,5,8,0:0:0:0:
195,47,171755,1,0,3:0:0:0:
205,353,171864,5,0,3:0:0:0:
117,375,171974,2,0,L|91:236,1,125.999996154785,0|0,3:0|0:0,0:0:0:0:
93,251,172521,86,0,P|135:256|174:271,1,83.9999974365235,4|0,3:2|0:0,0:0:0:0:
206,185,172740,2,0,P|164:179|125:164,1,83.9999974365235,8|0,0:0|0:0,0:0:0:0:
316,368,172959,69,2,3:0:0:0:
230,323,173069,5,2,3:0:0:0:
316,368,173178,101,10,3:0:0:0:
264,286,173288,5,2,3:0:0:0:
316,368,173397,101,2,3:0:0:0:
311,270,173507,5,2,3:0:0:0:
316,368,173616,101,10,3:0:0:0:
361,282,173726,5,2,3:0:0:0:
316,368,173835,101,2,3:0:0:0:
398,316,173945,5,2,3:0:0:0:
316,368,174054,101,10,3:0:0:0:
414,363,174164,5,2,3:0:0:0:
315,368,174273,22,0,P|309:326|296:286,1,83.9999974365235,4|0,3:2|0:0,0:0:0:0:
487,244,174492,2,0,P|493:285|506:325,1,83.9999974365235,8|0,0:0|0:0,0:0:0:0:
405,42,174711,69,2,3:0:0:0:
491,87,174821,5,2,3:0:0:0:
405,42,174930,101,10,3:0:0:0:
457,124,175040,5,2,3:0:0:0:
405,42,175149,101,2,3:0:0:0:
410,140,175259,5,2,3:0:0:0:
405,42,175368,101,10,3:0:0:0:
360,128,175478,5,2,3:0:0:0:
405,42,175587,101,2,3:0:0:0:
323,94,175697,5,2,3:0:0:0:
405,42,175806,101,10,3:0:0:0:
307,47,175916,5,2,3:0:0:0:
405,42,176025,22,0,P|428:93|435:136,1,83.9999974365235,4|0,3:2|0:0,0:0:0:0:
350,148,176244,2,0,P|327:97|320:54,1,83.9999974365235,8|0,0:0|0:0,0:0:0:0:
77,105,176463,69,2,3:0:0:0:
122,191,176573,5,2,3:0:0:0:
77,105,176682,101,10,3:0:0:0:
159,157,176792,5,2,3:0:0:0:
77,105,176901,101,2,3:0:0:0:
175,110,177011,5,2,3:0:0:0:
77,105,177120,101,10,3:0:0:0:
163,60,177230,5,2,3:0:0:0:
77,105,177339,101,2,3:0:0:0:
129,23,177449,5,2,3:0:0:0:
77,105,177558,101,10,3:0:0:0:
82,7,177668,5,2,3:0:0:0:
77,105,177777,22,0,P|138:85|178:84,1,83.9999974365235,4|0,3:2|0:0,0:0:0:0:
207,311,177996,2,0,P|146:331|106:332,1,83.9999974365235,8|0,0:0|0:0,0:0:0:0:
465,243,178215,69,2,3:0:0:0:
420,157,178325,5,2,3:0:0:0:
465,243,178434,101,10,3:0:0:0:
383,191,178544,5,2,3:0:0:0:
465,243,178653,101,2,3:0:0:0:
367,238,178763,5,2,3:0:0:0:
465,243,178872,6,0,P|450:266|444:303,1,41.9999987182618,10|0,3:2|0:0,0:0:0:0:
237,206,179091,6,0,P|235:233|248:268,1,41.9999987182618,2|0,3:2|0:0,0:0:0:0:
21,287,179310,102,0,P|33:311|62:335,1,41.9999987182618,10|0,3:2|0:0,0:0:0:0:
54,325,179529,6,0,B|23:232|84:263|56:144,1,167.999994873047,4|8,3:2|0:0,0:0:0:0:
158,35,179857,1,0,0:0:0:0:
129,113,179967,2,0,P|169:152|190:196,1,83.9999974365235,0|0,3:0|3:0,0:0:0:0:
292,95,180186,2,0,P|252:56|231:12,1,83.9999974365235,8|0,0:0|3:0,0:0:0:0:
353,222,180405,69,2,3:3:0:0:
365,138,180514,5,2,3:3:0:0:
353,222,180624,101,10,3:3:0:0:
405,155,180733,5,2,3:3:0:0:
353,222,180842,101,2,3:3:0:0:
431,189,180951,5,2,3:3:0:0:
353,222,181061,101,10,3:3:0:0:
437,232,181170,5,2,3:3:0:0:
353,222,181280,22,0,B|255:216|300:267|178:270,1,167.999994873047,4|8,3:2|0:0,0:0:0:0:
35,103,181609,1,0,0:0:0:0:
27,261,181718,2,0,P|40:206|66:165,1,83.9999974365235,0|0,3:0|3:0,0:0:0:0:
130,208,181937,2,0,P|117:263|91:304,1,83.9999974365235,8|0,0:0|3:0,0:0:0:0:
255,361,182156,69,2,3:3:0:0:
178,324,182265,5,2,3:3:0:0:
255,361,182375,101,10,3:3:0:0:
206,291,182484,5,2,3:3:0:0:
238,216,182594,101,2,3:3:0:0:
287,286,182705,5,2,3:3:0:0:
238,216,182813,101,10,3:3:0:0:
315,253,182923,5,2,3:3:0:0:
238,216,183032,22,0,B|263:231|263:231|282:346|282:346|321:359,1,167.999994873047,4|8,3:2|0:0,0:0:0:0:
452,375,183361,1,0,0:0:0:0:
354,287,183470,2,0,L|451:300,1,83.9999974365235,0|0,3:0|3:0,0:0:0:0:
448,220,183689,2,0,L|364:208,1,83.9999974365235,8|0,0:0|3:0,0:0:0:0:
278,65,183908,69,2,3:3:0:0:
201,102,184017,5,2,3:3:0:0:
278,65,184127,101,10,3:3:0:0:
229,135,184236,5,2,3:3:0:0:
278,65,184345,101,2,3:3:0:0:
269,150,184456,5,2,3:3:0:0:
278,65,184564,101,10,3:3:0:0:
312,143,184675,5,2,3:3:0:0:
278,65,184784,22,0,B|265:48|265:48|150:70|150:70|127:51,1,167.999994873047,4|8,3:2|0:0,0:0:0:0:
48,60,185113,1,0,0:0:0:0:
170,223,185222,2,0,L|185:119,1,83.9999974365235,0|0,3:0|3:0,0:0:0:0:
101,128,185441,2,0,L|89:211,1,83.9999974365235,8|0,0:0|3:0,0:0:0:0:
377,212,185660,69,2,3:3:0:0:
293,227,185769,5,2,3:3:0:0:
377,212,185879,101,10,3:3:0:0:
311,266,185988,5,2,3:3:0:0:
244,157,186098,101,2,3:3:0:0:
328,142,186207,5,2,3:3:0:0:
244,157,186317,101,10,3:3:0:0:
310,103,186426,5,2,3:3:0:0:
244,157,186536,22,0,B|232:145|232:145|269:73|360:80,1,167.999994873047,4|8,3:2|0:0,0:0:0:0:
492,170,186864,1,0,0:0:0:0:
366,265,186974,2,0,P|334:206|289:175,1,83.9999974365235,0|0,3:0|3:0,0:0:0:0:
265,376,187193,2,0,P|284:311|274:257,1,83.9999974365235,8|0,0:0|3:0,0:0:0:0:
169,121,187412,102,0,B|157:109|157:109|85:146|92:237,1,167.999994873047,4|8,3:2|0:0,0:0:0:0:
189,320,187740,1,0,0:0:0:0:
267,176,187850,2,0,P|201:191|160:227,1,83.9999974365235,0|0,3:0|3:0,0:0:0:0:
474,115,188069,2,0,P|416:79|362:75,1,83.9999974365235,8|0,0:0|3:0,0:0:0:0:
388,279,188288,6,0,B|404:279|404:279|429:201|360:142,1,167.999994873047,4|8,3:2|0:0,0:0:0:0:
129,262,188616,1,0,0:0:0:0:
91,115,188726,2,0,P|139:161|158:212,1,83.9999974365235,0|0,3:0|3:0,0:0:0:0:
299,19,188945,2,0,P|300:86|277:135,1,83.9999974365235,8|0,0:0|3:0,0:0:0:0:
65,28,189164,102,0,B|50:19|50:19|-9:73|20:159,1,167.999994873047,4|8,3:2|0:0,0:0:0:0:
265,248,189492,1,0,3:0:0:0:
441,156,189602,2,0,P|392:202|373:253,1,83.9999974365235,0|0,3:0|3:0,0:0:0:0:
205,102,189821,2,0,P|203:169|226:218,1,83.9999974365235,8|0,0:0|3:0,0:0:0:0:
484,384,190040,101,4,3:2:0:0:
460,266,190149,1,0,3:0:0:0:
372,333,190259,2,0,P|419:340|470:358,1,83.9999974365235,8|0,0:0|0:0,0:0:0:0:
359,103,190478,101,4,3:2:0:0:
133,147,190587,1,0,3:0:0:0:
247,356,190697,2,0,P|291:312|337:294,1,83.9999974365235,8|0,0:0|0:0,0:0:0:0:
39,350,190915,5,4,3:2:0:0:
93,286,191024,1,0,3:0:0:0:
172,344,191134,1,8,3:2:0:0:
207,227,191243,1,0,3:0:0:0:
359,293,191353,1,4,3:2:0:0:
261,108,191462,1,0,3:0:0:0:
489,105,191572,2,0,P|507:47|508:9,1,83.9999974365235,8|0,3:2|0:0,0:0:0:0:
160,295,191791,102,0,P|99:289|105:183,1,167.999994873047,4|8,3:2|0:0,0:0:0:0:
87,197,192120,1,0,3:0:0:0:
356,337,192229,6,0,P|415:329|425:251,1,125.999996154785,4|0,3:2|0:0,0:0:0:0:
434,272,192448,1,8,0:0:0:0:
251,13,192667,101,4,3:2:0:0:
274,94,192777,1,8,0:0:0:0:
251,13,192886,1,8,0:0:0:0:
219,384,193105,6,0,L|202:290,1,83.9999974365235,4|0,3:2|0:0,0:0:0:0:
280,287,193324,2,0,L|297:381,1,83.9999974365235,4|0,3:2|0:0,0:0:0:0:
251,13,193543,102,0,B|285:144|185:93|226:232,1,224,2|0,3:2|0:0,0:0:0:0:
