osu file format v14

[General]
AudioFilename: audio.mp3
AudioLeadIn: 0
PreviewTime: 61750
Countdown: 0
SampleSet: Soft
StackLeniency: 0.3
Mode: 0
LetterboxInBreaks: 0
WidescreenStoryboard: 1

[Editor]
Bookmarks: 30,16971,28265,39559,50853,62147,84735,96029,107324,118618,129912,141206,161324,183559,186382
DistanceSpacing: 1.1
BeatDivisor: 4
GridSize: 16
TimelineZoom: 1.4

[Metadata]
Title:phony
TitleUnicode:フォニイ
Artist:Will Stetson
ArtistUnicode:Will Stetson
Creator:Astronic
Version:extra
Source:
Tags:gibee games jiebi jschlatt stan english rock pop male cover tsumiki ツミキ 可不 KAFU vocalsynth still wetson blastthekidd blast honne
BeatmapID:3647296
BeatmapSetID:1727697

[Difficulty]
HPDrainRate:5
CircleSize:4
OverallDifficulty:8.8
ApproachRate:9.2
SliderMultiplier:1.6
SliderTickRate:1

[Events]
//Background and Video events
0,0,"bg.jpg",0,0
//Break Periods
//Storyboard Layer 0 (Background)
//Storyboard Layer 1 (Fail)
//Storyboard Layer 2 (Pass)
//Storyboard Layer 3 (Foreground)
//Storyboard Layer 4 (Overlay)
//Storyboard Sound Samples

[TimingPoints]
30,352.941176470588,4,2,0,50,1,0
1088,-100,4,2,0,30,0,0
3824,-100,4,2,0,5,0,0
3912,-100,4,2,0,30,0,0
4177,-100,4,2,0,5,0,0
4265,-100,4,2,0,30,0,0
5588,-100,4,2,0,5,0,0
5677,-100,4,2,0,30,0,0
9471,-100,4,2,0,5,0,0
9559,-100,4,2,0,30,0,0
9824,-100,4,2,0,5,0,0
9912,-100,4,2,0,30,0,0
10265,-100,4,2,0,40,0,0
10529,-100,4,2,0,40,0,0
10618,-100,4,2,0,40,0,0
11235,-100,4,2,0,5,0,0
11324,-100,4,2,1,50,0,0
11588,-100,4,2,1,5,0,0
11677,-100,4,2,1,53,0,0
11941,-100,4,2,1,5,0,0
12029,-90.9090909090909,4,2,1,56,0,0
12294,-90.9090909090909,4,2,1,5,0,0
12382,-90.9090909090909,4,2,1,59,0,0
12647,-90.9090909090909,4,2,1,5,0,0
12735,-100,4,2,1,62,0,0
13000,-100,4,2,1,5,0,0
13088,-83.3333333333333,4,2,1,65,0,0
13353,-83.3333333333333,4,2,1,5,0,0
13441,-83.3333333333333,4,2,1,68,0,0
13706,-83.3333333333333,4,2,1,5,0,0
13794,-76.9230769230769,4,2,1,71,0,0
14059,-76.9230769230769,4,2,1,5,0,0
14147,-76.9230769230769,4,2,1,74,0,0
14235,-76.9230769230769,4,2,1,5,0,0
14324,-76.9230769230769,4,2,1,74,0,0
14412,-76.9230769230769,4,2,1,5,0,0
14500,-100,4,2,1,77,0,0
14588,-100,4,2,1,5,0,0
14677,-100,4,2,1,77,0,0
14765,-100,4,2,1,5,0,0
14853,-100,4,2,1,80,0,0
15206,-100,4,2,1,90,0,0
15559,-100,4,2,2,60,0,0
16971,-100,4,2,3,75,0,0
19706,-100,4,2,3,5,0,0
19794,-100,4,2,3,75,0,0
22088,-100,4,2,1,75,0,0
22177,-100,4,2,1,75,0,0
22265,-200,4,2,1,75,0,0
22529,-200,4,2,1,75,0,0
22618,-100,4,2,3,75,0,0
25353,-100,4,2,3,5,0,0
25441,-100,4,2,3,75,0,0
27647,-100,4,2,3,5,0,0
28088,-100,4,2,3,75,0,0
28265,-100,4,2,3,50,0,0
33912,-100,4,2,3,55,0,0
34529,-100,4,2,3,5,0,0
34618,-100,4,2,3,55,0,0
35235,-100,4,2,3,5,0,0
35324,-100,4,2,3,55,0,0
35941,-100,4,2,3,5,0,0
36029,-100,4,2,3,55,0,0
36647,-100,4,2,3,5,0,0
36735,-100,4,2,3,55,0,0
39559,-90.9090909090909,4,2,3,65,0,0
41588,-90.9090909090909,4,2,3,5,0,0
41677,-90.9090909090909,4,2,3,65,0,0
44412,-90.9090909090909,4,2,3,5,0,0
44500,-90.9090909090909,4,2,3,65,0,0
47588,-90.9090909090909,4,2,3,5,0,0
47677,-90.9090909090909,4,2,3,65,0,0
49000,-90.9090909090909,4,2,3,5,0,0
49088,-90.9090909090909,4,2,3,65,0,0
49177,-90.9090909090909,4,2,3,5,0,0
49265,-90.9090909090909,4,2,3,65,0,0
50500,-100,4,2,1,75,0,0
50677,-100,4,2,1,55,0,0
50721,-100,4,2,1,60,0,0
50765,-100,4,2,1,65,0,0
50809,-100,4,2,1,70,0,0
50853,-86.9565217391304,4,2,1,75,0,0
51118,-86.9565217391304,4,2,1,5,0,0
51206,-86.9565217391304,4,2,1,75,0,0
51471,-86.9565217391304,4,2,1,5,0,0
51559,-86.9565217391304,4,2,1,75,0,0
51647,-86.9565217391304,4,2,1,5,0,0
51735,-86.9565217391304,4,2,1,75,0,0
52000,-86.9565217391304,4,2,1,5,0,0
52088,-86.9565217391304,4,2,1,75,0,0
52177,-86.9565217391304,4,2,1,5,0,0
52265,-86.9565217391304,4,2,1,75,0,0
52882,-86.9565217391304,4,2,1,5,0,0
52971,-86.9565217391304,4,2,1,75,0,0
53059,-86.9565217391304,4,2,1,5,0,0
53147,-86.9565217391304,4,2,1,75,0,0
53941,-86.9565217391304,4,2,1,5,0,0
54029,-86.9565217391304,4,2,1,75,0,0
54294,-86.9565217391304,4,2,1,5,0,0
54382,-86.9565217391304,4,2,1,75,0,0
54471,-86.9565217391304,4,2,1,5,0,0
54559,-86.9565217391304,4,2,1,75,0,0
55177,-86.9565217391304,4,2,1,5,0,0
55265,-86.9565217391304,4,2,1,75,0,0
55529,-86.9565217391304,4,2,1,5,0,0
55618,-86.9565217391304,4,2,1,75,0,0
55706,-86.9565217391304,4,2,1,5,0,0
55794,-86.9565217391304,4,2,1,75,0,0
55882,-86.9565217391304,4,2,1,5,0,0
55971,-86.9565217391304,4,2,1,75,0,0
56324,-86.9565217391304,4,2,1,60,0,0
56368,-86.9565217391304,4,2,1,65,0,0
56412,-86.9565217391304,4,2,1,70,0,0
56456,-86.9565217391304,4,2,1,75,0,0
56500,-86.9565217391304,4,2,1,80,0,0
56765,-86.9565217391304,4,2,1,5,0,0
56853,-86.9565217391304,4,2,1,80,0,0
57118,-86.9565217391304,4,2,1,5,0,0
57206,-86.9565217391304,4,2,1,80,0,0
57294,-86.9565217391304,4,2,1,5,0,0
57382,-86.9565217391304,4,2,1,80,0,0
57647,-86.9565217391304,4,2,1,5,0,0
57735,-86.9565217391304,4,2,1,80,0,0
57824,-86.9565217391304,4,2,1,5,0,0
57912,-86.9565217391304,4,2,1,80,0,0
58177,-86.9565217391304,4,2,1,5,0,0
58265,-86.9565217391304,4,2,1,80,0,0
58882,-86.9565217391304,4,2,1,5,0,0
58971,-86.9565217391304,4,2,1,80,0,0
59235,-86.9565217391304,4,2,1,5,0,0
59324,-86.9565217391304,4,2,1,80,0,0
59765,-86.9565217391304,4,2,1,5,0,0
59853,-86.9565217391304,4,2,1,80,0,0
59941,-86.9565217391304,4,2,1,5,0,0
60029,-86.9565217391304,4,2,1,80,0,0
60471,-86.9565217391304,4,2,1,5,0,0
60559,-86.9565217391304,4,2,1,80,0,0
61000,-86.9565217391304,4,2,1,5,0,0
61088,-55.5555555555556,4,2,1,80,0,0
61177,-55.5555555555556,4,2,1,5,0,0
61265,-41.6666666666667,4,2,1,80,0,0
61353,-41.6666666666667,4,2,1,5,0,0
61441,-33.3333333333333,4,2,1,80,0,0
61529,-33.3333333333333,4,2,1,5,0,0
61706,-33.3333333333333,4,2,1,5,0,0
61794,-333.333333333333,4,2,1,80,0,0
62059,-333.333333333333,4,2,1,5,0,0
62147,-33.3333333333333,4,2,4,85,0,1
62412,-33.3333333333333,4,2,4,5,0,1
62500,-50,4,2,4,85,0,1
62765,-50,4,2,4,5,0,1
62853,-66.6666666666667,4,2,4,85,0,1
64177,-66.6666666666667,4,2,4,5,0,1
64265,-66.6666666666667,4,2,4,85,0,1
64529,-66.6666666666667,4,2,4,5,0,1
64618,-66.6666666666667,4,2,4,85,0,1
64706,-66.6666666666667,4,2,4,5,0,1
64794,-66.6666666666667,4,2,4,85,0,1
64882,-66.6666666666667,4,2,4,5,0,1
64971,-33.3333333333333,4,2,4,85,0,1
65235,-33.3333333333333,4,2,4,5,0,1
65324,-66.6666666666667,4,2,4,85,0,1
65412,-66.6666666666667,4,2,4,5,0,1
65500,-66.6666666666667,4,2,4,85,0,1
66382,-50,4,2,4,85,0,1
67088,-66.6666666666667,4,2,4,85,0,1
67882,-66.6666666666667,4,2,4,5,0,1
67971,-66.6666666666667,4,2,4,85,0,1
68059,-66.6666666666667,4,2,4,5,0,1
68147,-66.6666666666667,4,2,4,85,0,1
68235,-66.6666666666667,4,2,4,5,0,1
68324,-66.6666666666667,4,2,4,85,0,1
68412,-66.6666666666667,4,2,4,5,0,1
68500,-66.6666666666667,4,2,4,85,0,1
68941,-66.6666666666667,4,2,4,5,0,1
69029,-66.6666666666667,4,2,4,85,0,1
69294,-66.6666666666667,4,2,4,5,0,1
69382,-66.6666666666667,4,2,4,85,0,1
69471,-66.6666666666667,4,2,4,5,0,1
69559,-66.6666666666667,4,2,4,85,0,1
69912,-33.3333333333333,4,2,4,85,0,1
70177,-33.3333333333333,4,2,4,5,0,1
70265,-33.3333333333333,4,2,4,85,0,1
70529,-33.3333333333333,4,2,4,5,0,1
70618,-50,4,2,4,85,0,1
71853,-66.6666666666667,4,2,4,85,0,1
73177,-66.6666666666667,4,2,4,5,0,1
73265,-66.6666666666667,4,2,4,85,0,1
73353,-66.6666666666667,4,2,4,5,0,1
73441,-33.3333333333333,4,2,4,85,0,1
73706,-33.3333333333333,4,2,4,5,0,1
73794,-50,4,2,4,85,0,1
74059,-50,4,2,4,5,0,1
74147,-50,4,2,4,85,0,1
74853,-66.6666666666667,4,2,4,85,0,1
75471,-66.6666666666667,4,2,4,5,0,1
75559,-66.6666666666667,4,2,4,85,0,1
75824,-66.6666666666667,4,2,4,5,0,1
75912,-66.6666666666667,4,2,4,85,0,1
76000,-66.6666666666667,4,2,4,5,0,1
76088,-66.6666666666667,4,2,4,85,0,1
76440,-66.6666666666667,4,2,4,5,0,1
76618,-50,4,2,4,85,0,1
76706,-50,4,2,4,5,0,1
76794,-50,4,2,4,85,0,1
77324,-40,4,2,4,85,0,1
77412,-40,4,2,4,5,0,1
77500,-40,4,2,4,85,0,1
77852,-40,4,2,4,5,0,1
78029,-66.6666666666667,4,2,4,85,0,1
78294,-66.6666666666667,4,2,4,5,0,1
78382,-66.6666666666667,4,2,4,85,0,1
78471,-66.6666666666667,4,2,4,5,0,1
78559,-66.6666666666667,4,2,4,85,0,1
78647,-66.6666666666667,4,2,4,5,0,1
78735,-66.6666666666667,4,2,4,85,0,1
78824,-66.6666666666667,4,2,4,5,0,1
78912,-66.6666666666667,4,2,4,85,0,1
79000,-66.6666666666667,4,2,4,5,0,1
79088,-50,4,2,4,85,0,1
79353,-50,4,2,4,5,0,1
79441,-66.6666666666667,4,2,4,85,0,1
79706,-66.6666666666667,4,2,4,5,0,1
79794,-66.6666666666667,4,2,4,85,0,1
80059,-66.6666666666667,4,2,4,5,0,1
80147,-66.6666666666667,4,2,4,85,0,1
82177,-66.6666666666667,4,2,4,5,0,1
82265,-66.6666666666667,4,2,4,85,0,1
82529,-66.6666666666667,4,2,4,5,0,1
82618,-66.6666666666667,4,2,4,85,0,1
82882,-66.6666666666667,4,2,4,5,0,1
82971,-66.6666666666667,4,2,4,85,0,1
83235,-66.6666666666667,4,2,4,5,0,1
83324,-66.6666666666667,4,2,4,85,0,1
83588,-66.6666666666667,4,2,4,5,0,1
83677,-66.6666666666667,4,2,4,85,0,1
83941,-66.6666666666667,4,2,4,5,0,1
84029,-66.6666666666667,4,2,4,85,0,1
84382,-100,4,2,4,85,0,1
84559,-100,4,2,1,75,0,1
84735,-100,4,2,3,70,0,0
86588,-100,4,2,2,70,0,0
86677,-100,4,2,2,5,0,0
86765,-100,4,2,4,70,0,0
86853,-100,4,2,3,70,0,0
86941,-100,4,2,4,70,0,0
87029,-100,4,2,3,70,0,0
87382,-100,4,2,2,70,0,0
87471,-100,4,2,3,70,0,0
89677,-100,4,2,4,70,0,0
89853,-66.6666666666667,4,2,1,70,0,0
89941,-66.6666666666667,4,2,1,5,0,0
90029,-100,4,2,1,70,0,0
90206,-100,4,2,1,5,0,0
90294,-100,4,2,1,70,0,0
90382,-100,4,2,3,70,0,0
92235,-100,4,2,2,70,0,0
92412,-100,4,2,4,70,0,0
92500,-100,4,2,3,70,0,0
92588,-100,4,2,4,70,0,0
92676,-100,4,2,3,70,0,0
93029,-100,4,2,2,70,0,0
93118,-100,4,2,3,70,0,0
93471,-100,4,2,1,70,0,0
93559,-100,4,2,3,70,0,0
94794,-100,4,2,4,70,0,0
94882,-100,4,2,3,70,0,0
95324,-100,4,2,4,70,0,0
95500,-100,4,2,1,70,0,0
95677,-100,4,2,2,70,0,0
96029,-100,4,2,1,50,0,0
105912,-100,4,2,2,40,0,0
106088,-100,4,2,2,60,0,0
107324,-83.3333333333333,4,2,3,65,0,0
110941,-83.3333333333333,4,2,3,5,0,0
111029,-83.3333333333333,4,2,3,65,0,0
111647,-83.3333333333333,4,2,3,5,0,0
111735,-83.3333333333333,4,2,3,65,0,0
112529,-83.3333333333333,4,2,3,5,0,0
112618,-83.3333333333333,4,2,3,65,0,0
112882,-83.3333333333333,4,2,3,5,0,0
112971,-83.3333333333333,4,2,3,65,0,0
114471,-83.3333333333333,4,2,3,5,0,0
114559,-83.3333333333333,4,2,3,65,0,0
116588,-83.3333333333333,4,2,3,5,0,0
116677,-83.3333333333333,4,2,3,65,0,0
116941,-83.3333333333333,4,2,3,5,0,0
117029,-66.6666666666667,4,2,3,65,0,0
117206,-66.6666666666667,4,2,3,70,0,0
117294,-83.3333333333333,4,2,3,5,0,0
117382,-66.6666666666667,4,2,3,70,0,0
118441,-66.6666666666667,4,2,4,75,0,0
118618,-200,4,2,1,50,0,0
118882,-200,4,2,1,5,0,0
118971,-200,4,2,1,75,0,0
119059,-200,4,2,1,5,0,0
119147,-200,4,2,1,75,0,0
119235,-200,4,2,1,5,0,0
119324,-200,4,2,1,75,0,0
119412,-200,4,2,1,5,0,0
119500,-200,4,2,1,75,0,0
119765,-200,4,2,1,5,0,0
119853,-200,4,2,1,75,0,0
119941,-200,4,2,1,5,0,0
120029,-83.3333333333333,4,2,1,75,0,0
120294,-83.3333333333333,4,2,1,5,0,0
120382,-83.3333333333333,4,2,1,75,0,0
120647,-83.3333333333333,4,2,1,5,0,0
120735,-83.3333333333333,4,2,1,75,0,0
121000,-83.3333333333333,4,2,1,5,0,0
121088,-83.3333333333333,4,2,1,75,0,0
121353,-83.3333333333333,4,2,1,5,0,0
121441,-83.3333333333333,4,2,1,75,0,0
121706,-83.3333333333333,4,2,1,5,0,0
121794,-83.3333333333333,4,2,1,75,0,0
121882,-83.3333333333333,4,2,1,5,0,0
121971,-83.3333333333333,4,2,1,75,0,0
122059,-83.3333333333333,4,2,1,5,0,0
122147,-83.3333333333333,4,2,1,75,0,0
122941,-83.3333333333333,4,2,1,5,0,0
123029,-83.3333333333333,4,2,1,75,0,0
123294,-83.3333333333333,4,2,1,5,0,0
123382,-83.3333333333333,4,2,1,75,0,0
123471,-83.3333333333333,4,2,1,5,0,0
123559,-83.3333333333333,4,2,1,75,0,0
123647,-83.3333333333333,4,2,1,5,0,0
123735,-83.3333333333333,4,2,1,75,0,0
124089,-83.3333333333333,4,2,1,60,0,0
124133,-83.3333333333333,4,2,1,65,0,0
124177,-83.3333333333333,4,2,1,70,0,0
124221,-83.3333333333333,4,2,1,75,0,0
124265,-83.3333333333333,4,2,1,80,0,0
124529,-83.3333333333333,4,2,1,5,0,0
124618,-83.3333333333333,4,2,1,80,0,0
124706,-83.3333333333333,4,2,1,5,0,0
124794,-83.3333333333333,4,2,1,80,0,0
124882,-83.3333333333333,4,2,1,5,0,0
124971,-83.3333333333333,4,2,1,80,0,0
125059,-83.3333333333333,4,2,1,5,0,0
125147,-83.3333333333333,4,2,1,80,0,0
125412,-83.3333333333333,4,2,1,5,0,0
125500,-83.3333333333333,4,2,1,80,0,0
125588,-83.3333333333333,4,2,1,5,0,0
125677,-83.3333333333333,4,2,1,80,0,0
125941,-83.3333333333333,4,2,1,5,0,0
126029,-83.3333333333333,4,2,1,80,0,0
126294,-83.3333333333333,4,2,1,5,0,0
126382,-83.3333333333333,4,2,1,80,0,0
126647,-83.3333333333333,4,2,1,5,0,0
126735,-83.3333333333333,4,2,1,80,0,0
127000,-83.3333333333333,4,2,1,5,0,0
127088,-83.3333333333333,4,2,1,80,0,0
127353,-83.3333333333333,4,2,1,5,0,0
127441,-83.3333333333333,4,2,1,80,0,0
127529,-83.3333333333333,4,2,1,5,0,0
127618,-83.3333333333333,4,2,1,80,0,0
127706,-83.3333333333333,4,2,1,5,0,0
127794,-83.3333333333333,4,2,1,80,0,0
128235,-83.3333333333333,4,2,1,5,0,0
128324,-83.3333333333333,4,2,1,80,0,0
128412,-83.3333333333333,4,2,1,5,0,0
128500,-83.3333333333333,4,2,1,80,0,0
128677,-83.3333333333333,4,2,2,80,0,0
128853,-83.3333333333333,4,2,1,80,0,0
129030,-83.3333333333333,4,2,2,80,0,0
129206,-83.3333333333333,4,2,1,80,0,0
129471,-83.3333333333333,4,2,1,5,0,0
129559,-200,4,2,5,80,0,0
129824,-200,4,2,5,5,0,0
129912,-83.3333333333333,4,2,5,80,0,0
130177,-83.3333333333333,4,2,5,5,0,0
130265,-83.3333333333333,4,2,5,80,0,0
130353,-83.3333333333333,4,2,5,5,0,0
130441,-83.3333333333333,4,2,5,80,0,0
130529,-83.3333333333333,4,2,5,5,0,0
130618,-83.3333333333333,4,2,5,80,0,0
130706,-83.3333333333333,4,2,5,5,0,0
130794,-83.3333333333333,4,2,5,80,0,0
131059,-83.3333333333333,4,2,5,5,0,0
131147,-83.3333333333333,4,2,5,80,0,0
131235,-83.3333333333333,4,2,5,5,0,0
131324,-83.3333333333333,4,2,5,80,0,0
131412,-83.3333333333333,4,2,5,5,0,0
131500,-83.3333333333333,4,2,5,80,0,0
131765,-83.3333333333333,4,2,5,5,0,0
131853,-83.3333333333333,4,2,5,80,0,0
131941,-83.3333333333333,4,2,5,5,0,0
132029,-83.3333333333333,4,2,5,80,0,0
135118,-83.3333333333333,4,2,5,5,0,0
135206,-166.666666666667,4,2,5,80,0,0
135471,-166.666666666667,4,2,5,5,0,0
135559,-66.6666666666667,4,2,5,80,0,0
135824,-66.6666666666667,4,2,5,5,0,0
135912,-66.6666666666667,4,2,5,80,0,0
136088,-83.3333333333333,4,2,5,80,0,0
137059,-83.3333333333333,4,2,5,5,0,0
137147,-83.3333333333333,4,2,5,80,0,0
140059,-83.3333333333333,4,2,5,5,0,0
140147,-55.5555555555556,4,2,5,80,0,0
140235,-55.5555555555556,4,2,5,5,0,0
140324,-41.6666666666667,4,2,5,80,0,0
140412,-41.6666666666667,4,2,5,5,0,0
140500,-33.3333333333333,4,2,5,80,0,0
140765,-33.3333333333333,4,2,5,5,0,0
140853,-100,4,2,1,65,0,0
141118,-100,4,2,1,5,0,0
141206,-100,4,2,1,50,0,0
143677,-100,4,2,1,45,0,0
144029,-100,4,2,1,40,0,0
144382,-100,4,2,1,35,0,0
144735,-100,4,2,1,30,0,0
145088,-100,4,2,1,25,0,0
145441,-100,4,2,1,20,0,0
145794,-100,4,2,1,15,0,0
146147,-100,4,2,1,25,0,0
146500,-100,4,2,1,50,0,0
148882,-100,4,2,1,5,0,0
148971,-100,4,2,1,50,0,0
149324,-100,4,2,1,45,0,0
149676,-100,4,2,1,40,0,0
150029,-100,4,2,1,35,0,0
150382,-100,4,2,1,30,0,0
150735,-100,4,2,1,25,0,0
151088,-100,4,2,1,20,0,0
151441,-100,4,2,1,15,0,0
151794,-100,4,2,1,25,0,0
152147,-100,4,2,1,50,0,0
152765,-100,4,2,1,5,0,0
152853,-100,4,2,1,50,0,0
155588,-100,4,2,1,5,0,0
155677,-100,4,2,1,50,0,0
157353,-100,4,2,1,5,0,0
157441,-100,4,2,1,50,0,0
158412,-100,4,2,1,5,0,0
158500,-100,4,2,1,50,0,0
158765,-100,4,2,1,5,0,0
158853,-100,4,2,1,60,0,0
159118,-100,4,2,1,5,0,0
159206,-100,4,2,1,60,0,0
159471,-100,4,2,1,5,0,0
159559,-100,4,2,1,70,0,0
160265,-100,4,2,1,80,0,0
160971,-333.333333333333,4,2,1,100,0,0
161235,-333.333333333333,4,2,1,5,0,0
161324,-33.3333333333333,4,2,4,90,0,1
161588,-33.3333333333333,4,2,4,5,0,1
161677,-50,4,2,4,90,0,1
163000,-50,4,2,4,5,0,1
163088,-50,4,2,4,90,0,1
163353,-50,4,2,4,5,0,1
163441,-50,4,2,4,90,0,1
163529,-50,4,2,4,5,0,1
163618,-50,4,2,4,90,0,1
163706,-50,4,2,4,5,0,1
163794,-50,4,2,4,90,0,1
164059,-50,4,2,4,5,0,1
164138,-50,4,2,4,90,0,1
164147,-50,4,2,4,90,0,1
164235,-50,4,2,4,5,0,1
164324,-50,4,2,4,90,0,1
166706,-50,4,2,4,5,0,1
166794,-50,4,2,4,90,0,1
166882,-50,4,2,4,5,0,1
166971,-50,4,2,4,90,0,1
167059,-50,4,2,4,5,0,1
167147,-50,4,2,4,90,0,1
167235,-50,4,2,4,5,0,1
167324,-50,4,2,4,90,0,1
167588,-50,4,2,4,5,0,1
167677,-50,4,2,4,90,0,1
167765,-50,4,2,4,5,0,1
167853,-50,4,2,4,90,0,1
168118,-50,4,2,4,5,0,1
168206,-50,4,2,4,90,0,1
168294,-50,4,2,4,5,0,1
168382,-50,4,2,4,90,0,1
168647,-50,4,2,4,5,0,1
168735,-33.3333333333333,4,2,4,90,0,1
169000,-33.3333333333333,4,2,4,5,0,1
169088,-33.3333333333333,4,2,4,90,0,1
169353,-33.3333333333333,4,2,4,5,0,1
169441,-33.3333333333333,4,2,4,90,0,1
170677,-50,4,2,4,90,0,1
172000,-50,4,2,4,5,0,1
172088,-50,4,2,4,90,0,1
172177,-50,4,2,4,5,0,1
172265,-33.3333333333333,4,2,4,90,0,1
172529,-33.3333333333333,4,2,4,5,0,1
172618,-50,4,2,4,90,0,1
174294,-50,4,2,4,5,0,1
174382,-50,4,2,4,90,0,1
174647,-50,4,2,4,5,0,1
174735,-50,4,2,4,90,0,1
174824,-50,4,2,4,5,0,1
174912,-33.3333333333333,4,2,4,90,0,1
175264,-33.3333333333333,4,2,4,5,0,1
175441,-50,4,2,4,90,0,1
175529,-50,4,2,4,5,0,1
175618,-28.5714285714286,4,2,4,90,0,1
176147,-50,4,2,4,90,0,1
176235,-50,4,2,4,5,0,1
176324,-25,4,2,4,90,0,1
176676,-25,4,2,4,5,0,1
176853,-50,4,2,4,90,0,1
177118,-50,4,2,4,5,0,1
177206,-50,4,2,4,90,0,1
177294,-50,4,2,4,5,0,1
177382,-50,4,2,4,90,0,1
177471,-50,4,2,4,5,0,1
177559,-50,4,2,4,90,0,1
177647,-50,4,2,4,5,0,1
177735,-50,4,2,4,90,0,1
177824,-50,4,2,4,5,0,1
177912,-33.3333333333333,4,2,4,90,0,1
178177,-33.3333333333333,4,2,4,5,0,1
178265,-50,4,2,4,90,0,1
178529,-50,4,2,4,5,0,1
178618,-50,4,2,4,90,0,1
178882,-50,4,2,4,5,0,1
178971,-50,4,2,4,90,0,1
180647,-50,4,2,4,5,0,1
180735,-66.6666666666667,4,2,4,90,0,1
183559,-100,4,2,1,45,0,0
185941,-100,4,2,1,5,0,0
186029,-100,4,2,1,45,0,0
186294,-100,4,2,1,5,0,0
186382,-100,4,2,1,45,0,0
186471,-100,4,2,1,45,0,0

[Colours]
Combo1 : 255,203,145
Combo2 : 45,150,255
Combo3 : 128,64,0

[HitObjects]
208,176,1088,5,2,0:2:0:0:
224,192,1441,2,0,L|304:176,1,80,2|0,3:2|0:0,0:0:0:0:
398,287,1794,2,0,L|320:272,1,80,2|2,0:2|3:2,0:0:0:0:
208,176,2147,2,0,L|368:144,1,160,2|2,3:2|0:2,0:0:0:0:
448,200,2677,1,2,3:2:0:0:
488,28,2853,6,0,P|448:20|408:32,1,80,2|0,0:2|3:0,0:0:0:0:
388,48,3118,1,0,0:0:0:0:
388,48,3206,2,0,L|308:64,1,80,2|0,0:2|3:0,0:0:0:0:
208,176,3559,2,0,L|128:160,1,80,2|0,3:2|0:0,0:0:0:0:
16,35,3912,2,0,B|43:64|43:64|32:144,1,120,2|0,3:2|0:0,0:0:0:0:
16,160,4265,2,0,L|32:240,1,80,2|0,3:2|0:0,0:0:0:0:
64,256,4529,1,0,0:0:0:0:
64,256,4618,2,0,L|48:336,1,80,2|0,0:2|3:2,0:0:0:0:
252,312,4971,1,2,3:2:0:0:
164,264,5147,1,2,0:2:0:0:
248,238,5324,2,0,P|291:277|299:345,1,120,2|0,0:2|0:0,0:0:0:0:
348,352,5677,6,0,L|444:336,1,80,2|0,0:2|3:0,0:0:0:0:
464,332,5941,1,0,0:0:0:0:
464,332,6029,1,0,0:2:0:0:
436,240,6206,1,2,3:2:0:0:
412,144,6382,1,2,3:2:0:0:
508,172,6559,1,2,0:2:0:0:
392,48,6735,2,0,P|344:72|316:112,1,80,2|2,3:2|0:2,0:0:0:0:
192,148,7088,6,0,P|232:84|208:0,1,160,2|2,3:2|0:2,0:0:0:0:
136,68,7618,1,2,3:2:0:0:
256,224,7794,2,0,L|336:208,1,80,2|0,3:2|0:0,0:0:0:0:
192,148,8147,2,0,L|112:164,1,80,2|2,0:2|3:2,0:0:0:0:
40,316,8500,6,0,P|83:339|131:331,1,80,2|0,0:2|3:0,0:0:0:0:
144,328,8765,1,0,0:0:0:0:
144,328,8853,2,0,L|160:248,1,80,2|0,0:2|3:0,0:0:0:0:
364,204,9206,2,0,L|348:284,1,80,2|0,3:2|0:0,0:0:0:0:
244,312,9559,2,0,L|272:184,1,120,2|0,3:2|0:0,0:0:0:0:
276,156,9912,2,0,P|240:160|196:136,1,80,2|0,3:2|0:0,0:0:0:0:
138,41,10265,2,0,L|256:64,1,120,2|0,0:2|0:0,0:0:0:0:
296,76,10618,1,2,3:2:0:0:
112,136,10794,1,2,0:2:0:0:
244,312,10971,2,0,L|368:288,1,120,2|0,0:2|0:0,0:0:0:0:
388,284,11324,6,0,L|372:364,1,80,4|0,1:2|0:0,0:0:0:0:
484,272,11677,2,0,L|468:350,1,80,4|0,1:2|0:0,0:0:0:0:
442,197,12029,2,0,L|458:110,1,88.000002685547,4|0,1:2|0:0,0:0:0:0:
336,210,12382,2,0,L|352:123,1,88.000002685547,4|0,1:2|0:0,0:0:0:0:
423,4,12735,2,0,P|379:26|330:35,1,80,4|0,1:2|0:0,0:0:0:0:
265,133,13088,2,0,P|216:118|176:88,1,95.9999970703126,4|0,1:2|0:0,0:0:0:0:
113,16,13441,2,0,P|85:57|79:106,1,95.9999970703126,4|0,1:2|0:0,0:0:0:0:
54,322,13794,2,0,P|25:278|15:227,1,103.999995239258,4|0,1:2|0:0,0:0:0:0:
116,240,14147,5,6,1:2:0:0:
180,168,14324,1,2,1:2:0:0:
16,228,14500,1,6,1:2:0:0:
140,80,14677,1,2,1:2:0:0:
54,322,14853,1,6,1:2:0:0:
73,323,14941,1,2,1:2:0:0:
93,325,15029,1,2,1:2:0:0:
113,327,15117,1,2,1:2:0:0:
133,329,15205,1,6,1:2:0:0:
153,331,15294,1,2,1:2:0:0:
173,333,15382,1,2,1:2:0:0:
193,335,15470,1,2,1:2:0:0:
213,337,15558,1,2,0:2:0:0:
320,352,15735,1,8,0:2:0:0:
320,352,15824,1,8,3:2:0:0:
320,352,15912,2,0,L|336:288,3,40,10|8|8|8,1:2|3:2|3:2|3:2,0:0:0:0:
424,280,16265,2,0,L|433:318,3,40,10|8|8|8,1:2|3:2|3:2|3:2,0:0:0:0:
352,216,16618,2,0,L|368:152,3,40,10|10|10|10,1:2|1:2|1:2|1:2,0:0:0:0:
452,316,16971,6,0,B|440:272|440:272|476:140,1,160,6|8,1:1|0:1,0:0:0:0:
360,56,17500,1,2,0:1:0:0:
252,128,17677,2,0,B|324:116|300:164|380:152,2,120,2|0|2,1:0|0:0|0:1,0:0:0:0:
104,176,18382,1,0,1:0:0:0:
160,96,18559,1,2,0:1:0:0:
264,224,18735,1,8,0:1:0:0:
174,261,18912,1,2,1:1:0:0:
174,261,19000,1,0,1:0:0:0:
174,261,19088,1,2,1:1:0:0:
252,128,19265,1,0,1:0:0:0:
250,322,19441,2,0,P|214:349|135:347,1,120,10|0,0:1|0:0,0:0:0:0:
112,336,19794,5,2,1:1:0:0:
272,232,19971,1,0,0:0:0:0:
272,232,20059,1,0,0:0:0:0:
272,232,20147,1,8,0:1:0:0:
104,176,20324,1,2,0:1:0:0:
296,240,20500,2,0,P|331:271|336:364,2,120,2|0|2,1:0|0:0|0:1,0:0:0:0:
440,112,21206,1,0,1:0:0:0:
416,212,21382,1,2,0:1:0:0:
416,212,21471,1,0,1:0:0:0:
416,212,21559,1,8,0:1:0:0:
376,32,21735,1,2,0:1:0:0:
252,128,21912,1,2,1:1:0:0:
160,96,22088,2,2,L|96:112,1,40,10|0,0:2|0:0,0:1:0:0:
256,152,22265,6,2,L|320:168,1,60,14|0,0:2|0:0,0:1:0:0:
332,172,22618,5,6,1:1:0:0:
120,212,22794,1,0,0:0:0:0:
300,272,22971,1,8,0:1:0:0:
192,296,23147,1,2,0:1:0:0:
328,367,23324,2,0,P|377:335|396:279,2,120,2|0|2,1:0|0:0|0:1,0:0:0:0:
300,272,24029,1,0,1:0:0:0:
496,288,24206,1,2,0:1:0:0:
352,180,24382,1,8,0:1:0:0:
460,196,24559,1,2,0:1:0:0:
460,196,24647,1,0,1:0:0:0:
460,196,24736,1,2,1:1:0:0:
396,279,24912,1,0,1:0:0:0:
252,176,25088,2,0,P|272:124|336:80,1,120,10|0,0:1|0:0,0:0:0:0:
360,80,25441,5,2,1:1:0:0:
156,144,25618,1,0,0:0:0:0:
156,144,25706,1,0,0:0:0:0:
156,144,25794,1,8,0:1:0:0:
200,52,25971,1,2,0:1:0:0:
242,191,26147,2,0,P|199:233|130:239,2,120,2|0|2,1:0|0:0|0:1,0:0:0:0:
200,52,26853,1,0,1:0:0:0:
56,112,27029,1,2,0:1:0:0:
56,112,27118,1,0,0:0:0:0:
56,112,27206,1,0,1:1:0:0:
156,144,27382,1,0,0:2:0:0:
44,244,27559,2,0,L|60:180,1,40,0|0,1:1|0:0,0:0:0:0:
53,205,28088,1,2,0:2:0:0:
184,312,28265,6,0,L|28:344,1,160,6|2,1:2|0:2,0:0:0:0:
282,366,28794,1,2,3:2:0:0:
284,352,28971,2,0,L|300:272,1,80,2|0,3:2|0:0,0:0:0:0:
328,128,29324,1,2,0:2:0:0:
248,188,29500,1,2,3:2:0:0:
328,32,29677,2,0,P|360:36|404:72,1,80,2|0,0:2|3:0,0:0:0:0:
424,88,29941,1,0,0:0:0:0:
424,88,30029,2,0,L|408:168,1,80,2|0,0:2|3:0,0:0:0:0:
388,261,30382,1,2,3:2:0:0:
248,188,30559,2,0,L|328:172,2,80,2|2|2,0:3|3:3|0:3,0:0:0:0:
120,324,31088,6,0,P|76:304|47:258,1,80,2|0,3:2|0:0,0:0:0:0:
154,150,31441,2,0,L|139:229,1,80,2|0,0:2|3:2,0:0:0:0:
48,184,31794,1,2,3:2:0:0:
69,89,31971,1,2,0:2:0:0:
154,150,32147,2,0,L|139:229,1,80,2|2,0:2|3:2,0:0:0:0:
313,321,32500,2,0,P|310:250|243:192,1,160,2|0,0:2|0:2,0:0:0:0:
352,88,33029,1,2,3:2:0:0:
462,199,33206,2,0,L|383:183,1,80,2|2,3:2|0:2,0:0:0:0:
288,168,33559,1,2,3:2:0:0:
366,90,33735,1,2,0:2:0:0:
204,16,33912,6,0,P|236:40|260:96,1,80,2|0,1:2|0:0,0:0:0:0:
242,268,34265,1,2,0:2:0:0:
383,183,34441,1,2,1:2:0:0:
228,276,34618,2,0,L|132:292,1,80,2|0,1:2|0:0,0:0:0:0:
153,143,34971,1,2,0:2:0:0:
297,201,35147,1,2,1:2:0:0:
244,124,35324,1,2,0:2:0:0:
264,292,35500,1,0,1:0:0:0:
264,292,35588,1,0,0:0:0:0:
264,292,35677,1,2,0:2:0:0:
383,183,35853,1,0,1:0:0:0:
478,262,36029,2,0,L|398:278,1,80,2|0,1:2|0:0,0:0:0:0:
272,320,36382,2,0,L|144:296,1,120,2|0,3:2|0:0,0:0:0:0:
128,292,36735,6,0,P|96:260|84:216,1,80,2|0,1:2|0:0,0:0:0:0:
92,200,37000,1,0,0:0:0:0:
92,200,37088,1,2,0:2:0:0:
58,99,37265,1,0,1:2:0:0:
188,208,37441,1,2,1:2:0:0:
152,112,37618,1,2,0:2:0:0:
330,141,37794,1,2,0:2:0:0:
233,299,37971,1,0,1:0:0:0:
233,299,38059,1,8,0:1:0:0:
233,299,38147,1,2,1:2:0:0:
320,244,38324,2,0,L|376:260,2,40,8|0|0,0:1|0:0|1:0,0:0:0:0:
452,280,38677,1,2,0:2:0:0:
320,348,38853,1,10,1:1:0:0:
233,299,39029,1,2,0:2:0:0:
144,328,39206,1,10,1:1:0:0:
113,322,39294,1,8,1:1:0:0:
84,316,39382,1,10,1:1:0:0:
55,309,39470,1,8,1:1:0:0:
26,304,39558,5,6,1:2:0:0:
160,228,39735,1,2,0:2:0:0:
48,121,39912,2,0,L|64:208,1,88.000002685547,10|2,0:2|0:2,0:0:0:0:
244,168,40265,1,2,1:2:0:0:
152,124,40441,1,2,0:2:0:0:
348,16,40618,1,10,0:2:0:0:
417,135,40794,2,0,L|326:119,1,88.000002685547,2|0,0:2|0:0,0:0:0:0:
328,220,41147,1,2,0:2:0:0:
511,117,41324,2,0,B|520:196|472:172|488:252,1,132.00000402832,10|0,0:2|0:0,0:0:0:0:
496,264,41677,2,0,P|456:244|401:247,1,88.000002685547,2|0,1:2|1:0,0:0:0:0:
256,292,42029,1,8,0:1:0:0:
356,316,42206,1,2,0:2:0:0:
308,124,42382,5,2,1:2:0:0:
232,192,42559,1,2,0:2:0:0:
122,73,42735,2,0,L|208:92,1,88.000002685547,10|0,0:2|0:2,0:0:0:0:
408,136,43088,1,2,1:2:0:0:
232,192,43265,1,2,0:2:0:0:
376,44,43441,1,10,0:2:0:0:
374,260,43618,2,0,B|351:210|351:210|219:190,1,176.000005371094,2|2,0:2|0:2,0:0:0:0:
33,267,44147,2,0,P|97:235|156:246,1,132.00000402832,10|0,0:2|0:0,0:0:0:0:
176,260,44500,2,0,P|140:188|203:108,1,176.000005371094,2|10,1:2|0:1,0:0:0:0:
272,300,45029,1,2,0:2:0:0:
364,104,45206,5,6,1:2:0:0:
231,191,45382,1,2,0:2:0:0:
391,86,45559,2,0,L|371:176,1,88.000002685547,10|2,0:2|0:2,0:0:0:0:
472,272,45912,1,2,1:2:0:0:
376,288,46088,1,2,0:2:0:0:
476,172,46265,1,10,0:2:0:0:
436,364,46441,2,0,P|360:384|283:319,1,176.000005371094,2|2,0:2|0:2,0:0:0:0:
140,180,46971,2,0,L|123:269,1,88.000002685547,10|0,0:2|0:0,0:0:0:0:
224,128,47324,2,0,P|196:100|96:93,1,132.00000402832,2|0,1:2|0:0,0:0:0:0:
88,96,47677,1,10,0:1:0:0:
140,180,47853,1,2,0:2:0:0:
268,28,48029,5,2,1:2:0:0:
328,112,48206,1,2,0:2:0:0:
88,96,48382,2,0,L|182:79,1,88.000002685547,10|0,0:2|0:2,0:0:0:0:
288,200,48735,1,2,1:2:0:0:
368,16,48912,1,14,0:2:0:0:
188,176,49088,1,14,0:2:0:0:
424,88,49265,2,0,P|426:114|390:184,1,88.000002685547,2|0,0:2|1:0,0:0:0:0:
210,271,49618,1,2,0:2:0:0:
170,271,49706,1,0,0:0:0:0:
133,256,49794,1,10,0:2:0:0:
105,228,49882,1,0,0:0:0:0:
89,192,49970,1,0,0:0:0:0:
90,152,50059,1,0,0:0:0:0:
105,115,50147,2,0,L|203:133,1,88.000002685547,2|0,1:2|0:0,0:0:0:0:
240,48,50500,6,0,P|244:39|237:43,6,20,2|0|0|0|2|2|2,0:2|0:0|0:0|0:0|0:2|0:2|0:2,0:0:0:0:
228,24,50853,6,0,B|216:92|216:92|220:100|220:100|208:180,1,138.000002632141,4|0,1:0|0:0,0:0:0:0:
208,188,51206,1,10,0:2:0:0:
320,104,51382,1,2,1:2:0:0:
272,268,51559,1,2,1:2:0:0:
344,352,51735,1,2,0:2:0:0:
344,352,51824,1,2,1:2:0:0:
344,352,51912,1,10,0:2:0:0:
168,280,52088,1,2,1:2:0:0:
344,132,52265,2,0,L|360:228,1,92.0000017547608,2|0,0:2|1:2,0:0:0:0:
256,28,52618,2,0,L|240:124,1,92.0000017547608,10|0,0:2|1:0,0:0:0:0:
212,292,52971,1,2,1:2:0:0:
144,112,53147,1,8,0:2:0:0:
92,196,53324,2,0,P|140:210|188:200,1,92.0000017547608,10|0,0:1|1:0,0:0:0:0:
396,332,53677,6,0,P|344:328|308:248,1,138.000002632141,2|0,1:2|0:0,0:0:0:0:
351,169,54029,1,10,0:2:0:0:
492,296,54206,1,2,1:2:0:0:
463,117,54382,2,0,L|448:208,1,92.0000017547608,2|8,1:2|0:3,0:0:0:0:
428,232,54647,1,0,1:2:0:0:
428,232,54735,1,10,0:2:0:0:
348,61,54912,2,0,B|376:29|376:29|348:181,1,184.000003509522,2|2,1:2|1:2,0:0:0:0:
176,232,55441,1,10,0:2:0:0:
260,112,55618,1,2,1:2:0:0:
320,304,55794,1,2,1:2:0:0:
160,132,55971,1,10,0:1:0:0:
81,197,56147,6,0,P|71:198|80:194,6,23.0000004386902,10|0|0|0|2|2|2,0:1|0:0|0:0|0:0|0:2|0:2|0:2,0:0:0:0:
72,216,56500,6,0,L|232:240,1,138.000002632141,6|0,1:2|0:0,0:0:0:0:
228,240,56853,1,10,1:2:0:0:
350,168,57029,1,2,0:2:0:0:
412,348,57206,1,2,1:2:0:0:
424,248,57382,1,2,0:2:0:0:
424,248,57471,1,2,0:2:0:0:
424,248,57559,1,10,1:2:0:0:
244,336,57735,1,2,0:2:0:0:
316,188,57912,2,0,P|336:132|312:56,1,138.000002632141,2|0,1:2|0:0,0:0:0:0:
296,40,58265,2,0,L|392:56,1,92.0000017547608,10|0,1:2|0:0,0:0:0:0:
232,124,58618,1,2,1:2:0:0:
112,24,58794,1,8,0:1:0:0:
0,180,58971,2,0,P|40:136|136:124,1,138.000002632141,10|0,1:2|0:0,0:0:0:0:
136,124,59324,6,0,L|120:220,1,92.0000017547608,2|0,1:2|0:0,0:0:0:0:
204,352,59677,1,10,1:2:0:0:
40,268,59853,1,2,0:2:0:0:
302,267,60029,2,0,L|212:252,1,92.0000017547608,2|0,1:2|0:0,0:0:0:0:
400,284,60382,1,10,1:2:0:0:
324,88,60559,2,0,P|292:128|288:168,1,92.0000017547608,2|0,1:2|0:0,0:0:0:0:
500,312,60912,6,0,L|516:248,1,46.0000008773804,10|0,1:2|0:0,0:0:0:0:
420,120,61088,6,0,L|436:200,1,71.9999978027344,10|0,1:2|0:0,0:0:0:0:
304,360,61265,6,0,L|320:264,1,95.9999970703126,10|0,1:2|0:0,0:0:0:0:
184,128,61441,6,0,B|288:96|368:160|336:192|416:264|528:224,1,360.000013732911,10|0,1:2|0:0,0:0:0:0:
240,232,61794,6,0,P|228:240|236:224,1,35.9999989013672,2|0,0:2|0:0,0:0:0:0:
508,229,62147,6,0,B|417:256|336:192|368:160|288:96|184:128,1,360.000013732911,6|0,1:2|0:0,0:0:0:0:
464,120,62500,6,0,P|368:152|352:304,1,240,10|0,1:2|0:0,0:0:0:0:
368,352,62853,1,2,1:2:0:0:
448,233,63029,1,2,0:2:0:0:
184,128,63206,1,10,1:2:0:0:
224,224,63382,1,2,0:2:0:0:
146,36,63559,2,0,P|103:67|86:152,1,120.000004577637,0|2,1:0|0:2,0:0:0:0:
161,302,63912,2,0,P|209:323|291:295,1,120.000004577637,10|0,1:2|0:0,0:0:0:0:
361,98,64265,2,0,L|169:130,1,180.000006866455,2|0,1:2|0:0,0:0:0:0:
102,140,64618,1,10,0:2:0:0:
310,211,64794,1,2,0:2:0:0:
312,0,64971,6,0,P|448:26|405:202,1,360.000013732911,2|0,1:2|0:0,0:0:0:0:
327,229,65324,1,10,1:2:0:0:
183,127,65500,2,0,L|311:107,1,120.000004577637,2|0,0:2|1:0,0:0:0:0:
397,302,65853,2,0,P|357:324|271:313,1,120.000004577637,2|8,0:2|1:2,0:0:0:0:
98,180,66206,1,2,0:2:0:0:
172,352,66382,2,0,L|220:32,1,320,0|8,1:0|1:2,0:0:0:0:
244,32,67088,1,2,1:2:0:0:
327,229,67265,1,2,0:2:0:0:
98,180,67441,1,10,1:2:0:0:
288,132,67618,1,2,0:2:0:0:
124,336,67794,5,6,1:2:0:0:
184,116,67971,1,2,0:2:0:0:
228,352,68147,5,10,1:2:0:0:
288,132,68324,1,2,0:2:0:0:
419,264,68500,6,0,P|385:308|312:326,1,120.000004577637,2|0,1:2|0:0,0:0:0:0:
52,268,68853,5,10,1:2:0:0:
327,229,69029,1,2,1:2:0:0:
13,171,69206,5,2,1:2:0:0:
288,132,69382,1,2,1:2:0:0:
124,336,69559,6,0,P|148:287|136:220,1,120.000004577637,10|0,1:2|0:0,0:0:0:0:
16,80,69912,6,0,B|112:132|200:84|180:40|272:-4|372:36,1,360.000013732911,2|0,1:2|0:0,0:0:0:0:
352,16,70265,2,0,B|270:-17|178:26|198:70|110:118|14:66,1,360.000013732911,10|0,1:2|0:0,0:0:0:0:
96,0,70618,6,0,P|119:105|149:343,1,320,2|8,1:2|1:2,0:0:0:0:
32,192,71147,1,2,0:2:0:0:
184,0,71324,2,0,P|217:157|236:316,1,320,2|8,1:2|1:2,0:0:0:0:
304,64,71853,5,2,0:2:0:0:
368,136,72029,2,0,P|348:188|336:272,1,120.000004577637,2|2,1:2|0:2,0:0:0:0:
404,40,72382,1,8,1:2:0:0:
448,216,72559,5,2,0:2:0:0:
336,352,72735,2,0,L|208:336,1,120.000004577637,0|2,1:2|0:2,0:0:0:0:
24,216,73088,1,10,1:2:0:0:
228,240,73265,1,2,0:2:0:0:
12,360,73441,6,0,P|72:316|104:48,1,360.000013732911,6|0,1:2|0:0,0:0:0:0:
200,16,73794,6,0,P|240:120|376:180,1,240,8|0,1:2|0:0,0:0:0:0:
432,192,74147,1,2,1:2:0:0:
244,244,74324,1,2,0:2:0:0:
468,288,74500,1,10,1:2:0:0:
416,376,74677,1,2,0:2:0:0:
348,178,74853,2,0,P|387:121|459:113,1,120.000004577637,2|2,1:2|0:2,0:0:0:0:
368,280,75206,2,0,L|240:264,1,120.000004577637,10|0,1:2|0:0,0:0:0:0:
8,336,75559,2,0,P|96:352|168:296,1,180.000006866455,2|0,1:2|0:0,0:0:0:0:
176,216,75912,6,0,L|168:152,1,60.0000022888184,10|0,0:2|0:0,0:0:0:0:
232,96,76088,2,0,L|200:336,1,240.000009155274,2|0,0:2|0:0,0:0:0:0:
320,176,76618,6,0,L|336:272,1,80,10|0,1:2|0:0,0:0:0:0:
352,352,76794,2,0,L|392:32,1,320,2|0,0:2|0:2,0:0:0:0:
512,276,77324,6,0,L|495:178,1,100,10|0,1:2|0:0,0:0:0:0:
483,94,77500,2,0,B|387:54|275:122|315:166|216:240|99:202,1,400,2|0,0:2|0:0,0:0:0:0:
24,192,78029,6,0,P|72:124|184:128,1,180.000006866455,10|0,1:2|0:0,0:0:0:0:
232,164,78382,1,2,1:2:0:0:
60,280,78559,1,2,0:2:0:0:
296,360,78735,1,10,1:2:0:0:
260,264,78912,1,2,0:2:0:0:
464,160,79088,6,0,P|400:192|256:128,1,240,6|0,1:2|0:0,0:0:0:0:
224,32,79441,2,0,P|291:33|353:99,1,120.000004577637,10|0,1:2|0:0,0:0:0:0:
180,207,79794,2,0,P|147:148|173:61,1,120.000004577637,2|0,1:2|0:0,0:0:0:0:
354,158,80147,2,0,P|319:215|231:236,1,120.000004577637,10|0,1:2|1:2,0:0:0:0:
8,336,80500,2,0,B|2:264|56:228|56:228|64:164|8:108,2,240.000009155274,2|10|2,1:2|1:2|1:2,0:0:0:0:
107,312,81382,1,0,0:0:0:0:
208,324,81559,2,0,L|336:340,1,120.000004577637,10|0,1:2|0:0,0:0:0:0:
488,336,81912,6,0,P|431:318|398:270,1,120.000004577637,2|0,1:1|0:0,0:0:0:0:
285,141,82265,2,0,P|236:175|220:232,1,120.000004577637,8|0,1:2|0:0,0:0:0:0:
326,337,82618,2,0,P|299:286|309:228,1,120.000004577637,2|0,1:1|0:0,0:0:0:0:
218,71,82971,2,0,P|269:43|327:54,1,120.000004577637,10|0,1:2|0:0,0:0:0:0:
285,142,83324,2,0,L|45:110,1,240.000009155274,2|10,1:1|1:2,0:0:0:0:
48,96,84029,1,2,1:1:0:0:
32,192,84206,1,2,1:1:0:0:
16,292,84382,2,0,L|72:276,3,40,2|2|8|8,0:2|0:2|0:3|0:3,0:0:0:0:
104,316,84735,5,4,1:1:0:0:
104,316,84824,2,0,L|168:332,1,40,0|2,0:0|0:1,0:0:0:0:
240,352,85000,1,0,0:0:0:0:
240,352,85088,1,8,0:2:0:0:
328,292,85265,1,2,0:3:0:0:
328,292,85353,1,2,0:3:0:0:
328,292,85441,1,2,1:1:0:0:
428,312,85618,1,2,0:2:0:0:
428,312,85706,1,2,0:2:0:0:
435,272,85794,1,8,0:2:0:0:
443,233,85882,1,2,0:2:0:0:
451,194,85970,1,2,0:1:0:0:
459,155,86058,1,2,0:1:0:0:
432,64,86235,1,0,0:0:0:0:
432,64,86324,1,2,0:3:0:0:
432,64,86412,2,0,L|480:48,2,40,2|8|2,0:3|0:2|0:1,0:0:0:0:
336,112,86765,1,2,0:1:0:0:
256,48,86941,1,2,0:1:0:0:
256,48,87029,1,2,0:2:0:0:
168,92,87206,1,10,0:2:0:0:
84,140,87382,1,2,0:1:0:0:
84,140,87471,1,2,0:1:0:0:
248,152,87647,5,2,0:1:0:0:
243,191,87735,1,2,0:3:0:0:
238,231,87823,1,2,0:2:0:0:
233,271,87911,1,8,0:2:0:0:
308,352,88088,1,2,0:2:0:0:
308,352,88177,1,2,0:2:0:0:
308,352,88265,1,0,1:0:0:0:
397,353,88441,1,2,0:2:0:0:
394,314,88529,1,2,0:2:0:0:
375,279,88617,1,8,0:2:0:0:
344,254,88705,1,0,0:0:0:0:
306,244,88793,1,2,0:2:0:0:
266,250,88882,1,2,0:1:0:0:
233,271,88970,1,0,1:0:0:0:
168,348,89147,1,2,0:2:0:0:
128,340,89235,1,2,0:1:0:0:
89,332,89323,1,10,0:2:0:0:
48,240,89500,1,2,0:2:0:0:
104,156,89677,1,2,1:1:0:0:
56,68,89853,6,0,P|58:46|63:65,1,60.0000022888184,8|0,0:1|0:0,0:0:0:0:
208,120,90029,6,0,P|205:148|200:120,1,80,14|0,0:2|0:0,0:0:0:0:
252,32,90294,5,2,0:1:0:0:
344,72,90471,1,0,0:0:0:0:
436,24,90647,1,0,0:0:0:0:
436,24,90735,2,0,L|448:80,1,40,8|0,0:2|0:0,0:0:0:0:
464,168,90912,1,2,0:3:0:0:
464,168,91000,1,2,0:3:0:0:
464,168,91088,1,2,1:1:0:0:
480,268,91265,1,2,0:2:0:0:
480,268,91353,2,0,P|456:270|424:285,1,40,2|8,0:2|0:2,0:0:0:0:
372,344,91529,1,2,0:2:0:0:
372,344,91618,1,2,0:1:0:0:
372,344,91706,1,2,0:1:0:0:
284,240,91882,2,0,L|348:256,2,40,0|2|2,0:0|0:3|0:3,0:0:0:0:
204,300,92235,1,2,0:1:0:0:
164,307,92323,1,2,0:1:0:0:
125,315,92411,1,2,0:1:0:0:
196,204,92588,1,2,0:1:0:0:
196,204,92677,1,2,0:2:0:0:
172,104,92853,1,10,0:2:0:0:
96,36,93029,1,2,0:1:0:0:
96,36,93118,1,2,0:1:0:0:
272,80,93294,5,2,0:1:0:0:
311,72,93382,1,2,0:3:0:0:
350,64,93470,1,2,0:1:0:0:
389,56,93559,2,0,L|401:8,1,40,8|0,0:2|0:0,0:0:0:0:
336,172,93735,1,2,0:2:0:0:
336,172,93824,2,0,L|345:210,1,40,2|0,0:2|1:0,0:0:0:0:
456,132,94088,1,2,0:2:0:0:
450,171,94176,1,2,0:2:0:0:
445,211,94264,1,8,0:2:0:0:
440,250,94352,1,2,0:2:0:0:
434,290,94440,1,2,0:2:0:0:
429,330,94529,1,2,0:1:0:0:
424,369,94617,1,0,1:0:0:0:
336,304,94794,1,2,0:1:0:0:
296,311,94882,1,2,0:2:0:0:
257,319,94970,1,2,1:2:0:0:
160,340,95147,1,2,0:2:0:0:
80,256,95324,2,0,L|64:320,2,40,2|2|8,1:2|0:1|0:3,0:0:0:0:
191,237,95677,1,2,3:2:0:0:
156,136,95853,1,0,3:2:0:0:
293,37,96029,6,0,P|283:75|256:104,1,80,6|2,1:2|0:2,0:0:0:0:
121,39,96382,2,0,L|200:24,1,80,10|2,0:2|0:2,0:0:0:0:
376,100,96735,1,2,1:2:0:0:
444,28,96912,2,0,P|468:64|472:116,1,80,2|10,0:2|0:2,0:0:0:0:
308,181,97265,2,0,P|272:111|313:16,1,160,2|2,0:2|0:2,0:0:0:0:
480,224,97794,2,0,L|400:208,1,80,10|2,0:2|0:2,0:0:0:0:
272,94,98147,2,0,L|112:126,1,160,2|8,1:2|0:2,0:0:0:0:
208,208,98677,1,2,0:2:0:0:
96,312,98853,6,0,L|112:232,1,80,2|2,1:2|0:2,0:0:0:0:
284,272,99206,2,0,P|244:300|204:304,1,80,10|0,0:2|0:2,0:0:0:0:
81,130,99559,1,2,1:2:0:0:
208,208,99735,1,2,0:2:0:0:
68,133,99912,1,10,0:2:0:0:
184,112,100088,2,0,P|158:57|50:30,1,160,2|2,0:2|0:2,0:0:0:0:
111,233,100618,2,0,L|95:313,1,80,10|8,0:2|0:3,0:0:0:0:
220,357,100971,2,0,B|190:314|190:314|213:177,1,160,2|8,1:2|0:2,0:0:0:0:
312,188,101500,1,2,0:2:0:0:
374,303,101677,6,0,L|296:288,1,80,6|2,1:2|0:2,0:0:0:0:
244,112,102029,2,0,P|284:91|350:94,1,80,10|2,0:2|0:2,0:0:0:0:
480,133,102382,1,2,1:2:0:0:
312,188,102559,1,2,0:2:0:0:
310,200,102735,1,10,0:2:0:0:
368,360,102912,2,0,L|416:200,1,160,2|2,0:2|0:2,0:0:0:0:
488,32,103441,2,0,P|440:48|392:40,1,80,10|0,0:2|0:0,0:0:0:0:
224,0,103794,2,0,B|256:48|256:48|220:160,1,160,2|8,1:2|0:2,0:0:0:0:
192,236,104324,1,2,0:2:0:0:
65,83,104500,6,0,L|144:68,1,80,2|2,1:2|0:2,0:0:0:0:
312,188,104853,1,10,0:2:0:0:
120,172,105029,1,0,0:2:0:0:
336,92,105206,1,2,1:2:0:0:
192,236,105382,1,2,0:2:0:0:
276,296,105559,1,10,0:2:0:0:
224,128,105735,2,0,P|224:52|300:-16,1,160,2|8,0:2|1:2,0:0:0:0:
492,123,106265,1,8,1:2:0:0:
452,115,106353,1,8,3:2:0:0:
413,107,106441,1,0,3:2:0:0:
374,99,106529,1,8,1:2:0:0:
335,91,106618,2,0,L|351:139,3,40,2|0|0|0,3:2|3:0|3:0|3:0,0:0:0:0:
408,208,106971,2,0,L|392:256,3,40,10|8|8|8,1:2|0:2|0:2|0:2,0:0:0:0:
460,320,107324,6,0,P|412:344|300:276,1,191.999994140625,6|8,1:2|0:2,0:0:0:0:
212,328,107853,1,2,0:2:0:0:
80,200,108029,2,0,L|176:216,1,95.9999970703126,2|0,1:2|0:0,0:0:0:0:
213,230,108294,1,2,0:2:0:0:
213,230,108382,1,8,0:2:0:0:
104,104,108559,2,0,P|40:108|4:144,1,95.9999970703126,2|0,0:2|1:0,0:0:0:0:
204,128,108912,1,2,0:2:0:0:
116,308,109088,1,10,0:2:0:0:
80,200,109265,1,2,0:2:0:0:
300,152,109441,1,2,1:2:0:0:
213,230,109618,1,2,0:2:0:0:
280,56,109794,2,0,P|328:56|380:104,1,95.9999970703126,10|2,0:2|0:2,0:0:0:0:
488,240,110147,5,2,1:2:0:0:
300,152,110324,1,2,0:2:0:0:
452,140,110500,1,10,0:2:0:0:
220,268,110677,2,0,L|364:252,1,143.999995605469,2|0,0:2|0:0,0:0:0:0:
390,249,111029,1,2,0:2:0:0:
272,360,111206,1,10,0:2:0:0:
124,280,111382,2,0,P|136:216|212:172,1,143.999995605469,2|0,0:2|0:0,0:0:0:0:
224,172,111735,1,2,0:2:0:0:
372,352,111912,1,10,0:2:0:0:
220,268,112088,1,2,0:2:0:0:
464,312,112265,2,0,P|489:252|443:170,1,143.999995605469,2|0,1:2|0:0,0:0:0:0:
432,168,112618,2,0,L|456:16,1,143.999995605469,10|0,0:2|0:0,0:0:0:0:
459,2,112971,6,0,B|420:32|368:8|368:8|300:16|288:80,1,191.999994140625,6|8,1:2|0:2,0:0:0:0:
332,152,113500,1,2,0:2:0:0:
192,32,113677,2,0,P|192:84|228:140,1,95.9999970703126,2|0,1:2|0:0,0:0:0:0:
240,148,113941,1,2,0:2:0:0:
240,148,114029,1,8,0:2:0:0:
4,212,114206,2,0,P|20:144|92:96,1,143.999995605469,2|0,0:2|0:0,0:0:0:0:
104,92,114559,1,2,0:2:0:0:
240,148,114735,2,0,L|336:132,1,95.9999970703126,10|2,0:2|0:2,0:0:0:0:
448,48,115088,1,2,1:2:0:0:
400,208,115265,1,2,0:2:0:0:
348,32,115441,1,10,0:2:0:0:
480,144,115618,1,2,0:2:0:0:
240,148,115794,5,2,1:2:0:0:
496,244,115971,1,2,0:2:0:0:
304,272,116147,1,10,0:2:0:0:
483,342,116324,2,0,P|418:300|400:240,1,143.999995605469,2|0,0:2|0:0,0:0:0:0:
404,212,116677,1,14,0:2:0:0:
404,212,116765,1,8,0:1:0:0:
404,212,116853,1,10,0:2:0:0:
220,328,117029,2,0,B|180:343|122:312|143:291|100:263|52:276,1,180.000006866455,14|0,0:2|0:0,0:0:0:0:
24,280,117382,2,0,P|44:268|92:264,1,60.0000022888184,14|0,0:2|0:0,0:0:0:0:
208,235,117559,5,2,1:2:0:0:
64,369,117735,1,10,0:2:0:0:
270,155,117912,5,2,1:2:0:0:
48,184,118088,1,10,0:1:0:0:
328,72,118265,5,14,0:1:0:0:
220,328,118441,1,10,0:2:0:0:
140,88,118618,6,0,L|156:152,1,60,2|0,1:2|0:0,0:0:0:0:
228,28,118971,5,14,1:2:0:0:
180,236,119147,1,2,0:2:0:0:
40,76,119324,1,2,1:2:0:0:
270,155,119500,1,2,0:2:0:0:
270,155,119588,1,2,0:2:0:0:
270,155,119677,1,10,1:2:0:0:
420,40,119853,1,2,0:2:0:0:
480,232,120029,2,0,P|416:200|336:224,1,143.999995605469,2|0,1:2|0:0,0:0:0:0:
320,240,120382,2,0,L|336:336,1,95.9999970703126,10|0,1:2|0:0,0:0:0:0:
248,164,120735,2,0,B|216:212|216:212|232:324,1,143.999995605469,2|0,1:2|0:0,0:0:0:0:
232,328,121088,2,0,P|172:320|136:284,1,95.9999970703126,10|0,1:2|0:0,0:0:0:0:
40,184,121441,6,0,P|24:112|56:52,1,143.999995605469,2|0,1:2|0:0,0:0:0:0:
76,36,121794,1,10,1:2:0:0:
248,164,121971,1,2,0:2:0:0:
179,5,122147,2,0,L|164:100,1,95.9999970703126,2|0,1:2|0:0,0:0:0:0:
161,136,122412,1,0,0:0:0:0:
161,136,122500,1,10,1:2:0:0:
128,304,122677,2,0,L|288:288,1,143.999995605469,2|0,0:2|0:0,0:0:0:0:
302,287,123029,1,2,0:2:0:0:
464,160,123206,1,10,1:2:0:0:
416,272,123382,1,2,0:2:0:0:
400,80,123559,2,0,P|384:32|320:0,1,95.9999970703126,2|8,1:2|0:2,0:0:0:0:
306,91,123912,6,0,P|316:93|310:88,6,23.9999992675781,10|0|0|0|2|2|2,1:1|0:0|0:0|0:0|0:2|0:2|0:2,0:0:0:0:
208,112,124265,6,0,L|64:84,1,143.999995605469,6|0,1:2|0:0,0:0:0:0:
40,80,124618,1,10,1:2:0:0:
238,16,124794,1,2,0:2:0:0:
180,212,124971,1,2,1:2:0:0:
88,184,125147,1,2,0:2:0:0:
88,184,125235,1,2,0:2:0:0:
88,184,125324,1,10,1:2:0:0:
306,91,125500,1,2,0:2:0:0:
209,306,125677,2,0,P|257:274|273:182,1,143.999995605469,2|0,1:2|0:0,0:0:0:0:
304,192,126029,2,0,L|400:208,1,95.9999970703126,10|0,1:2|0:0,0:0:0:0:
180,212,126382,2,0,L|36:196,1,143.999995605469,2|0,1:2|0:0,0:0:0:0:
8,189,126735,2,0,P|0:136|24:88,1,95.9999970703126,10|0,1:1|0:0,0:0:0:0:
276,193,127088,6,0,P|264:262|236:293,1,95.9999970703126,2|0,1:2|0:0,0:0:0:0:
56,296,127441,1,10,1:2:0:0:
207,119,127618,1,2,0:2:0:0:
160,336,127794,2,0,L|144:240,1,95.9999970703126,2|0,1:2|0:0,0:0:0:0:
123,65,128147,1,10,1:2:0:0:
91,159,128324,1,2,0:2:0:0:
128,48,128500,1,0,1:0:0:0:
276,193,128677,1,2,0:2:0:0:
337,116,128853,2,0,P|297:96|237:104,2,95.9999970703126,2|2|2,1:2|0:2|1:2,0:0:0:0:
360,112,129559,6,0,L|424:100,1,60,2|0,0:3|0:0,0:0:0:0:
480,44,129912,6,0,B|448:84|448:84|468:184,1,143.999995605469,6|0,1:0|0:0,0:0:0:0:
488,272,130265,1,10,0:2:0:0:
372,212,130441,1,2,3:1:0:0:
308,287,130618,1,2,1:1:0:0:
224,245,130794,1,2,3:2:0:0:
224,245,130882,1,2,0:1:0:0:
224,245,130971,1,10,0:2:0:0:
128,276,131147,1,2,3:1:0:0:
224,48,131324,2,0,L|239:142,1,95.9999970703126,2|2,1:2|3:1,0:0:0:0:
148,176,131677,1,10,0:2:0:0:
328,80,131853,1,2,3:1:0:0:
128,16,132029,1,2,1:1:0:0:
224,48,132206,2,0,L|229:80,2,31.9999990234375,2|2|2,3:2|0:2|0:2,0:0:0:0:
197,62,132382,2,0,P|160:91|90:88,1,95.9999970703126,10|2,0:1|3:2,0:0:0:0:
208,339,132735,6,0,L|224:243,1,95.9999970703126,2|2,1:1|3:1,0:0:0:0:
404,144,133088,1,10,0:2:0:0:
424,244,133265,1,2,3:1:0:0:
324,216,133441,1,2,1:2:0:0:
448,344,133618,1,2,3:1:0:0:
448,344,133706,1,2,0:1:0:0:
448,344,133794,1,10,0:2:0:0:
497,177,133971,2,0,P|500:124|452:56,1,95.9999970703126,2|0,3:1|1:0,0:0:0:0:
304,120,134324,1,2,3:1:0:0:
424,244,134500,1,10,0:2:0:0:
348,312,134677,1,2,3:1:0:0:
273,219,134853,1,2,1:1:0:0:
277,227,135029,6,0,L|341:211,1,47.9999985351563,8|0,0:2|0:0,0:0:0:0:
248,320,135206,6,0,L|168:296,1,71.9999978027344,10|0,0:1|0:0,0:0:0:0:
48,272,135559,6,0,B|76:281|80:317|80:317|115:213|28:233|62:122,1,240.000009155274,2|8,1:2|0:2,0:0:0:0:
208,44,136088,1,2,0:1:0:0:
277,130,136265,2,0,L|165:154,1,95.9999970703126,2|0,1:1|3:0,0:0:0:0:
156,160,136529,1,2,0:1:0:0:
156,160,136618,1,8,0:2:0:0:
26,51,136794,2,0,P|79:49|136:85,1,95.9999970703126,2|0,3:1|0:0,0:0:0:0:
236,232,137147,1,2,3:1:0:0:
304,32,137324,1,10,0:1:0:0:
372,108,137500,1,2,0:1:0:0:
156,160,137677,1,2,1:1:0:0:
336,228,137853,2,0,L|352:180,2,31.9999990234375,2|2|2,3:2|0:2|0:2,0:0:0:0:
348,236,138029,2,0,L|364:332,1,95.9999970703126,10|2,0:1|3:2,0:0:0:0:
277,130,138382,5,2,1:1:0:0:
440,184,138559,1,2,3:1:0:0:
243,218,138735,1,10,0:2:0:0:
356,13,138912,2,0,L|372:109,1,95.9999970703126,2|0,3:1|1:0,0:0:0:0:
400,280,139265,1,2,3:1:0:0:
468,88,139441,1,10,1:1:0:0:
300,304,139618,2,0,P|322:348|375:380,1,95.9999970703126,2|0,1:1|0:0,0:0:0:0:
243,218,139971,6,0,L|179:234,1,47.9999985351563,2|0,1:2|0:0,0:0:0:0:
112,184,140147,6,0,L|181:201,1,71.9999978027344,2|0,1:1|0:0,0:0:0:0:
284,96,140324,6,0,L|191:119,1,95.9999970703126,2|0,1:2|0:0,0:0:0:0:
80,40,140500,6,0,P|200:172|144:344,1,360.000013732911,2|0,1:1|0:0,0:0:0:0:
80,387,140853,6,0,P|63:338|96:260,1,120,2|0,0:2|0:0,0:0:0:0:
155,332,141206,6,0,L|315:364,2,160,10|10|10,1:2|1:2|1:2,0:0:0:0:
202,243,142088,1,2,0:2:0:0:
304,260,142265,2,0,L|288:180,1,80,10|2,1:2|3:2,0:0:0:0:
426,99,142618,2,0,P|414:135|373:174,1,80,10|2,1:2|0:0,0:0:0:0:
248,73,142971,2,0,L|327:89,1,80,10|0,1:2|0:0,0:0:0:0:
460,291,143324,2,0,L|300:259,1,160,10|10,1:2|1:2,0:0:0:0:
202,243,143853,1,0,0:0:0:0:
385,165,144029,6,0,B|501:187|501:187|473:155,2,160,10|10|10,1:2|1:2|1:2,0:0:0:0:
303,259,144912,2,0,L|287:179,1,80,0|10,3:0|1:2,0:0:0:0:
236,336,145265,1,0,3:0:0:0:
78,170,145441,2,0,P|119:229|210:240,2,160,10|8|8,1:2|1:2|1:2,0:0:0:0:
110,75,146324,1,0,0:0:0:0:
250,132,146500,2,0,L|170:148,1,80,10|0,1:2|0:0,0:0:0:0:
236,336,146853,6,0,L|392:304,2,160,10|10|10,1:2|1:2|1:2,0:0:0:0:
301,222,147735,1,2,0:2:0:0:
488,283,147912,1,10,1:2:0:0:
399,203,148088,1,2,3:2:0:0:
512,104,148265,2,0,L|496:184,1,80,10|2,1:2|0:0,0:0:0:0:
301,222,148618,2,0,P|309:166|369:110,1,120,10|0,1:2|0:0,0:0:0:0:
376,108,148971,2,0,B|336:120|288:100|308:76|256:52|212:68,1,160,10|10,1:2|1:2,0:0:0:0:
132,84,149500,1,0,0:0:0:0:
364,12,149677,6,0,P|416:18|472:118,3,160,10|10|10|10,1:2|1:2|1:2|1:2,0:0:0:0:
473,101,150912,1,0,3:0:0:0:
332,288,151088,2,0,P|440:293|474:262,3,160,10|8|8|10,1:2|1:2|1:2|1:2,0:0:0:0:
294,195,152324,1,2,0:2:0:0:
168,364,152500,6,0,B|188:276|188:276|168:232,1,120,10|0,1:2|0:0,0:0:0:0:
160,224,152853,2,0,L|80:240,1,80,10|0,1:2|0:0,0:0:0:0:
16,164,153206,1,10,1:2:0:0:
64,80,153382,1,2,0:2:0:0:
64,80,153471,1,0,3:1:0:0:
64,80,153559,1,10,1:2:0:0:
216,128,153735,1,2,3:2:0:0:
81,239,153912,2,0,L|65:319,1,80,10|2,1:2|0:0,0:0:0:0:
188,216,154265,2,0,L|172:136,1,80,10|0,1:2|3:0,0:0:0:0:
280,280,154618,2,0,L|296:184,1,80,10|0,1:2|0:0,0:0:0:0:
320,192,154882,1,8,0:1:0:0:
320,192,154971,1,2,1:2:0:0:
412,152,155147,1,2,3:2:0:0:
368,328,155324,6,0,P|328:368|248:372,1,120,10|0,1:2|0:0,0:0:0:0:
240,368,155677,1,10,1:2:0:0:
92,236,155853,1,2,0:2:0:0:
32,324,156029,2,0,L|112:340,1,80,10|0,1:2|3:0,0:0:0:0:
140,348,156294,1,0,3:1:0:0:
140,348,156382,1,10,1:2:0:0:
320,192,156559,1,2,0:2:0:0:
72,132,156735,2,0,L|88:212,1,80,10|0,1:2|0:0,0:0:0:0:
220,56,157088,2,0,P|176:52|140:68,1,80,8|0,1:2|0:0,0:0:0:0:
288,208,157441,1,10,1:2:0:0:
308,108,157618,1,2,0:2:0:0:
108,160,157794,1,10,1:2:0:0:
184,232,157971,1,2,0:2:0:0:
388,176,158147,6,0,P|388:240|340:296,1,120,6|0,1:2|0:0,0:0:0:0:
336,296,158500,2,0,L|416:312,1,80,2|0,1:2|0:0,0:0:0:0:
232,328,158853,2,0,L|104:308,1,120,6|0,1:2|0:0,0:0:0:0:
92,304,159206,2,0,P|80:268|48:236,1,80,2|0,1:2|0:0,0:0:0:0:
8,152,159559,1,6,1:1:0:0:
184,232,159735,1,0,1:2:0:0:
208,28,159912,1,0,1:2:0:0:
108,160,160088,1,0,1:2:0:0:
304,68,160265,1,2,1:1:0:0:
299,107,160353,1,0,1:2:0:0:
294,147,160441,1,0,1:2:0:0:
290,186,160529,1,0,1:2:0:0:
285,226,160618,2,0,L|333:210,3,40,2|0|0|0,1:2|1:2|1:2|1:2,0:0:0:0:
512,288,160971,6,0,L|477:299,1,35.9999989013672,2|0,0:2|0:0,0:0:0:0:
372,384,161324,6,0,P|404:248|466:12,1,360.000013732911,14|0,1:2|0:0,0:0:0:0:
322,213,161677,1,2,1:2:0:0:
371,32,161853,1,2,0:2:0:0:
505,202,162029,1,10,1:2:0:0:
304,312,162206,1,2,0:2:0:0:
436,120,162382,1,0,1:0:0:0:
272,48,162559,1,2,0:2:0:0:
322,213,162735,2,0,P|260:148|100:132,1,240,10|0,1:2|0:0,0:0:0:0:
32,204,163088,2,0,P|72:228|192:204,1,160,2|0,1:2|0:0,0:0:0:0:
368,48,163441,1,10,0:2:0:0:
116,126,163618,1,2,0:2:0:0:
332,360,163794,6,0,B|296:316|296:316|348:128,1,240,2|0,1:2|0:0,0:0:0:0:
368,48,164147,1,10,1:2:0:0:
224,196,164324,2,0,L|192:36,1,160,2|0,0:2|1:0,0:0:0:0:
416,288,164677,2,0,L|460:116,1,160,2|8,0:2|1:2,0:0:0:0:
244,288,165029,1,2,0:2:0:0:
440,144,165206,2,0,B|360:184|280:140|316:112|220:56|136:96,1,320,0|8,1:0|1:2,0:0:0:0:
132,80,165912,1,2,1:2:0:0:
384,48,166088,1,2,0:2:0:0:
116,176,166265,1,10,1:2:0:0:
264,276,166441,1,2,0:2:0:0:
216,28,166618,5,6,1:2:0:0:
280,272,166794,1,2,0:2:0:0:
300,12,166971,5,10,1:2:0:0:
364,256,167147,1,2,0:2:0:0:
132,80,167324,6,0,P|80:88|20:192,1,160,2|0,1:2|0:0,0:0:0:0:
208,364,167677,5,10,1:2:0:0:
324,104,167853,1,2,1:2:0:0:
112,324,168029,5,2,1:2:0:0:
228,64,168205,1,2,1:2:0:0:
364,256,168382,6,0,L|204:240,1,160,10|0,1:2|0:0,0:0:0:0:
328,35,168735,6,0,B|328:136|432:160|432:160|504:240|445:326,1,360.000013732911,2|0,1:2|0:0,0:0:0:0:
460,316,169088,2,0,B|518:229|446:149|446:149|342:125|343:25,1,360.000013732911,10|0,1:2|0:0,0:0:0:0:
453,40,169441,6,0,B|164:12|164:12|138:10|138:10|106:8|58:44|85:98|134:101|134:101|160:103|160:103,1,480.000018310548,2|8,1:2|1:2,0:0:0:0:
243,117,169971,1,2,0:2:0:0:
34,194,170147,6,0,B|323:222|323:222|349:224|349:224|381:226|429:190|402:136|353:133|353:133|327:131|327:131,1,480.000018310548,2|8,1:2|1:2,0:0:0:0:
304,320,170677,5,2,0:2:0:0:
208,368,170853,2,0,L|192:208,1,160,2|2,1:2|0:2,0:0:0:0:
316,328,171206,1,8,1:2:0:0:
104,300,171382,5,2,0:2:0:0:
288,160,171559,2,0,L|304:320,1,160,0|2,1:2|0:2,0:0:0:0:
192,208,171912,1,10,1:2:0:0:
396,264,172088,1,2,0:2:0:0:
94,179,172265,6,0,B|198:211|282:147|246:123|350:63|438:95,1,360.000013732911,6|0,1:2|0:0,0:0:0:0:
456,188,172618,6,0,L|440:28,1,160,8|0,1:2|0:0,0:0:0:0:
160,80,172971,1,2,1:2:0:0:
360,184,173147,1,2,0:2:0:0:
240,24,173324,1,10,1:2:0:0:
360,89,173500,1,2,0:2:0:0:
140,92,173677,1,2,1:2:0:0:
368,208,173853,1,2,0:2:0:0:
64,240,174029,2,0,P|156:212|288:288,1,240,10|0,1:2|0:0,0:0:0:0:
288,368,174382,2,0,L|272:208,1,160,2|0,1:2|0:0,0:0:0:0:
456,248,174735,6,0,P|432:284|384:308,1,80,10|0,0:2|0:0,0:0:0:0:
448,154,174912,2,0,P|406:319|284:152,1,480.000018310548,2|0,0:2|0:0,0:0:0:0:
164,64,175441,6,0,P|199:96|203:147,1,80,10|0,1:2|0:0,0:0:0:0:
75,23,175618,2,0,P|236:164|7:187,1,560.000005340576,2|0,0:2|0:2,0:0:0:0:
434,238,176147,6,0,L|354:225,1,80,10|0,1:2|0:0,0:0:0:0:
8,108,176324,2,0,B|192:144|192:144|187:135|187:135|192:144|192:144|249:154|277:160|217:227|256:234|256:234|341:252|341:252|348:260|348:260|341:252|341:252|409:263|409:263|418:270|418:270|410:264|410:264|521:281,1,640,2|0,0:2|0:0,0:0:0:0:
236,329,176853,6,0,P|160:293|146:190,1,160,10|0,1:2|0:0,0:0:0:0:
164,40,177206,1,2,1:2:0:0:
240,224,177382,1,2,0:2:0:0:
387,56,177559,1,10,1:2:0:0:
252,212,177735,1,2,0:2:0:0:
264,8,177912,6,0,P|304:92|396:356,1,360.000013732911,6|0,1:2|0:0,0:0:0:0:
460,232,178265,6,0,P|476:156|506:63,1,160,10|0,1:2|0:0,0:0:0:0:
332,192,178618,2,0,P|358:267|382:346,1,160,2|0,1:2|0:0,0:0:0:0:
212,276,178971,2,0,P|228:200|258:107,1,160,10|0,1:2|1:2,0:0:0:0:
88,220,179324,2,0,P|114:295|138:374,1,160,2|0,1:2|1:2,0:0:0:0:
8,152,179677,2,0,P|74:118|164:148,1,160,10|0,1:2|0:0,0:0:0:0:
168,288,180029,2,0,P|102:322|12:292,1,160,2|0,1:2|0:0,0:0:0:0:
228,204,180382,2,0,P|340:232|472:280,1,240,10|0,1:2|0:0,0:0:0:0:
504,344,180735,6,0,L|488:204,1,120.000004577637,2|0,1:1|0:0,0:0:0:0:
472,32,181088,1,8,1:2:0:0:
324,132,181265,1,0,0:2:0:0:
208,80,181441,1,0,1:1:0:0:
120,124,181618,1,0,0:0:0:0:
232,68,181794,1,10,1:2:0:0:
46,61,181971,2,0,P|21:123|39:176,1,120.000004577637,2|0,0:1|1:1,0:0:0:0:
148,260,182324,1,0,0:2:0:0:
320,152,182500,1,10,1:2:0:0:
300,320,182677,1,2,1:2:0:0:
300,320,182765,1,0,1:0:0:0:
300,320,182853,1,2,1:2:0:0:
476,352,183029,1,2,1:1:0:0:
508,184,183206,1,2,1:2:0:0:
316,308,183382,1,0,1:2:0:0:
408,64,183559,6,0,L|424:160,1,80,2|0,3:2|0:0,0:0:0:0:
416,168,183824,1,0,0:0:0:0:
416,168,183912,1,2,0:2:0:0:
308,56,184088,1,0,3:0:0:0:
160,96,184265,2,0,L|64:80,1,80,2|0,3:2|0:0,0:0:0:0:
64,64,184529,1,0,3:0:0:0:
64,64,184618,2,0,L|80:144,1,80,2|0,0:2|3:0,0:0:0:0:
16,304,184971,2,0,L|96:288,1,80,2|0,0:2|3:0,0:0:0:0:
112,272,185235,1,0,0:0:0:0:
112,272,185324,1,2,0:2:0:0:
256,368,185500,1,0,3:0:0:0:
224,208,185677,2,0,L|208:288,1,80,2|0,3:2|0:0,0:0:0:0:
148,144,186029,2,0,P|192:116|280:128,1,120,2|0,3:2|0:0,0:0:0:0:
284,132,186382,6,2,P|299:131|285:135,1,40,2|0,3:2|0:0,0:1:0:0:
