osu file format v14

[General]
AudioFilename: audio.mp3
AudioLeadIn: 0
PreviewTime: 48376
Countdown: 1
SampleSet: None
StackLeniency: 0.2
Mode: 0
LetterboxInBreaks: 0
WidescreenStoryboard: 0

[Editor]
Bookmarks: 776,48776,67976
DistanceSpacing: 1.1
BeatDivisor: 3
GridSize: 8
TimelineZoom: 1.8

[Metadata]
Title:no title but its a fifteen part swing feel arrangement
TitleUnicode:no title but its a fifteen part swing feel arrangement
Artist:Will Stetson
ArtistUnicode:Will Stetson
Creator:Shogud
Version:vink
Source:
Tags:
BeatmapID:1377178
BeatmapSetID:649834

[Difficulty]
HPDrainRate:4
CircleSize:4
OverallDifficulty:9.5
ApproachRate:9.8
SliderMultiplier:2
SliderTickRate:1

[Events]
//Background and Video events
0,0,"Lemur.jpg",0,0
//Break Periods
//Storyboard Layer 0 (Background)
//Storyboard Layer 1 (Fail)
//Storyboard Layer 2 (Pass)
//Storyboard Layer 3 (Foreground)
//Storyboard Sound Samples

[TimingPoints]
776,300,4,1,0,100,1,0
776,-100,4,1,0,100,0,0
48776,-80,4,1,0,100,0,0

[HitObjects]
184,104,776,5,0,0:0:0:0:
192,112,1226,5,0,0:0:0:0:
200,120,1576,5,0,0:0:0:0:
128,224,1676,1,0,0:0:0:0:
120,144,1876,5,0,0:0:0:0:
272,256,1976,1,0,0:0:0:0:
280,264,2426,5,0,0:0:0:0:
288,272,2726,6,0,P|344:272|288:264,1,166.666666666667
296,280,3076,5,0,0:0:0:0:
336,152,3176,1,0,0:0:0:0:
344,160,3626,5,0,0:0:0:0:
352,168,3976,5,0,0:0:0:0:
192,136,4076,1,0,0:0:0:0:
208,216,4276,5,0,0:0:0:0:
384,88,4376,1,0,0:0:0:0:
392,96,4826,5,0,0:0:0:0:
400,104,5176,5,0,0:0:0:0:
412,228,5276,1,0,0:0:0:0:
432,304,5376,1,0,0:0:0:0:
355,283,5476,1,0,0:0:0:0:
488,249,5576,5,0,0:0:0:0:
496,256,6026,5,0,0:0:0:0:
504,264,6376,5,0,0:0:0:0:
336,208,6476,1,0,0:0:0:0:
412,228,6676,5,0,0:0:0:0:
224,304,6776,1,0,0:0:0:0:
232,312,7226,5,0,0:0:0:0:
240,320,7526,6,0,P|296:320|240:312,1,166.666666666667
248,328,7876,5,0,0:0:0:0:
168,208,7976,1,0,0:0:0:0:
176,216,8426,5,0,0:0:0:0:
184,224,8726,5,0,0:0:0:0:
288,96,8876,1,0,0:0:0:0:
224,32,9076,5,0,0:0:0:0:
248,288,9176,1,0,0:0:0:0:
320,320,9251,1,0,0:0:0:0:
383,273,9326,1,0,0:0:0:0:
311,242,9476,5,0,0:0:0:0:
320,248,9676,5,0,0:0:0:0:
440,216,9776,1,0,0:0:0:0:
448,224,9976,5,0,0:0:0:0:
408,64,10076,1,0,0:0:0:0:
416,72,10276,5,0,0:0:0:0:
240,120,10376,1,0,0:0:0:0:
248,128,10576,5,0,0:0:0:0:
400,56,10676,1,0,0:0:0:0:
408,64,10876,5,0,0:0:0:0:
232,112,10976,1,0,0:0:0:0:
232,112,11276,5,0,0:0:0:0:
240,120,11476,5,0,0:0:0:0:
80,272,11576,1,0,0:0:0:0:
88,280,11776,5,0,0:0:0:0:
293,179,11876,1,0,0:0:0:0:
357,131,12076,6,0,P|285:99|229:131,1,133.333333333333
208,192,12376,5,0,0:0:0:0:
312,320,12476,1,0,0:0:0:0:
224,336,12676,5,0,0:0:0:0:
357,131,12776,1,0,0:0:0:0:
312,320,12976,5,0,0:0:0:0:
288,80,13076,1,0,0:0:0:0:
168,264,13276,5,0,0:0:0:0:
408,192,13376,1,0,0:0:0:0:
224,336,13576,5,0,0:0:0:0:
288,80,13676,1,0,0:0:0:0:
312,320,13876,5,0,0:0:0:0:
408,192,13976,1,0,0:0:0:0:
168,264,14176,5,0,0:0:0:0:
357,131,14276,1,0,0:0:0:0:
400,288,14476,5,0,0:0:0:0:
80,128,14576,2,0,B|112:112|112:112|224:128,1,133.333333333333
208,128,14876,1,0,0:0:0:0:
216,136,15076,5,0,0:0:0:0:
208,328,15176,1,0,0:0:0:0:
296,336,15376,5,0,0:0:0:0:
128,112,15476,1,0,0:0:0:0:
192,56,15676,5,0,0:0:0:0:
120,320,15776,1,0,0:0:0:0:
176,256,15976,5,0,0:0:0:0:
272,72,16076,1,0,0:0:0:0:
296,152,16276,5,0,0:0:0:0:
96,240,16376,1,0,0:0:0:0:
40,296,16576,5,0,0:0:0:0:
112,32,16676,1,0,0:0:0:0:
128,112,16876,5,0,0:0:0:0:
256,264,16976,1,0,0:0:0:0:
344,280,17176,5,0,0:0:0:0:
352,88,17276,1,0,0:0:0:0:
424,40,17476,5,0,0:0:0:0:
288,344,17576,1,0,0:0:0:0:
368,360,17776,5,0,0:0:0:0:
152,184,17876,1,0,0:0:0:0:
96,240,18076,5,0,0:0:0:0:
344,280,18176,1,0,0:0:0:0:
368,360,18376,5,0,0:0:0:0:
152,184,18476,1,0,0:0:0:0:
96,240,18676,5,0,0:0:0:0:
288,344,18776,1,0,0:0:0:0:
344,280,18976,5,0,0:0:0:0:
40,296,19076,1,0,0:0:0:0:
96,240,19276,5,0,0:0:0:0:
368,360,19376,1,0,0:0:0:0:
288,344,19576,5,0,0:0:0:0:
272,72,19676,2,0,B|244:120|218:133|218:133|228:148|229:176|229:176|200:196|180:231,1,200
180,229,20176,6,0,B|216:224|216:224|254:229,1,66.6666666666667
379,227,20876,2,0,B|315:235|315:235|243:227,1,133.333333333333
240,152,21176,1,0,0:0:0:0:
440,72,21376,5,0,0:0:0:0:
208,80,21476,1,0,0:0:0:0:
416,152,21676,5,0,0:0:0:0:
240,152,21776,1,0,0:0:0:0:
328,32,22076,6,0,B|328:64|312:89|312:89|336:128|336:128|317:170|328:232,1,200
326,220,22576,6,0,P|286:212|254:220,1,66.6666666666667
140,217,23276,2,0,P|204:241|260:217,1,133.333333333333
200,160,23576,1,0,0:0:0:0:
32,8,23776,5,0,0:0:0:0:
264,16,23876,1,0,0:0:0:0:
56,88,24076,5,0,0:0:0:0:
232,88,24176,1,0,0:0:0:0:
40,168,24376,5,0,0:0:0:0:
152,16,24476,2,0,B|145:47|157:75|157:75|127:109|127:109|138:154|117:212,1,200
120,202,24976,5,0,0:0:0:0:
304,312,25076,1,0,0:0:0:0:
208,336,25276,5,0,0:0:0:0:
360,184,25376,1,0,0:0:0:0:
384,264,25576,5,0,0:0:0:0:
280,136,25676,1,0,0:0:0:0:
360,96,25876,5,0,0:0:0:0:
248,256,25976,1,0,0:0:0:0:
192,184,26176,5,0,0:0:0:0:
384,264,26276,1,0,0:0:0:0:
368,344,26476,5,0,0:0:0:0:
280,136,26576,1,0,0:0:0:0:
360,96,26776,5,0,0:0:0:0:
128,256,26876,2,0,B|112:188|112:188|128:120,1,133.333333333333
144,56,27176,1,0,0:0:0:0:
152,64,27376,5,0,0:0:0:0:
320,24,27476,1,0,0:0:0:0:
144,144,27676,5,0,0:0:0:0:
384,112,27776,1,0,0:0:0:0:
224,112,27976,5,0,0:0:0:0:
437,189,28076,1,0,0:0:0:0:
216,192,28276,5,0,0:0:0:0:
408,336,28376,1,0,0:0:0:0:
312,152,28576,5,0,0:0:0:0:
80,344,28676,1,0,0:0:0:0:
144,144,28876,5,0,0:0:0:0:
408,336,28976,1,0,0:0:0:0:
256,96,29176,5,0,0:0:0:0:
256,344,29276,2,0,P|278:320|292:281,1,66.6666666666667
364,257,29476,6,0,P|244:224|212:280,1,200
364,257,29876,1,0,0:0:0:0:
376,152,30076,2,0,P|299:128|238:138,1,133.333333333333
85,255,30376,2,0,P|161:278|222:268,1,133.333333333333
247,135,30676,6,0,P|215:95|223:175,1,200
376,152,31076,1,0,0:0:0:0:
272,32,31276,2,0,P|208:16|136:32,1,133.333333333333
136,240,31576,2,0,P|200:256|272:240,1,133.333333333333
344,240,31876,5,0,0:0:0:0:
80,88,31976,2,0,P|72:128|80:160,1,66.6666666666667
48,224,32176,5,0,0:0:0:0:
200,32,32276,1,0,0:0:0:0:
64,304,32476,5,0,0:0:0:0:
216,112,32576,1,0,0:0:0:0:
120,360,32776,5,0,0:0:0:0:
80,88,32876,1,0,0:0:0:0:
197,345,33076,6,0,P|249:301|257:241,1,133.333333333333
173,263,33376,5,0,0:0:0:0:
280,56,33476,1,0,0:0:0:0:
256,240,33676,5,0,0:0:0:0:
103,64,33776,2,0,L|127:198,1,133.333333333333
385,195,34076,2,0,L|398:123,1,66.6666666666667
440,60,34276,6,0,P|350:65|318:121,1,133.333333333333
248,128,34576,5,0,0:0:0:0:
312,296,34676,1,0,0:0:0:0:
224,312,34876,5,0,0:0:0:0:
326,94,34976,1,0,0:0:0:0:
264,48,35176,5,0,0:0:0:0:
392,320,35276,1,0,0:0:0:0:
176,72,35476,6,0,B|168:112|168:112|200:232,1,133.333333333333
128,248,35776,5,0,0:0:0:0:
360,216,35876,1,0,0:0:0:0:
96,176,36076,5,0,0:0:0:0:
288,176,36176,1,0,0:0:0:0:
120,328,36376,5,0,0:0:0:0:
360,296,36476,1,0,0:0:0:0:
128,248,36676,6,0,B|232:232|232:232|200:264,1,133.333333333333
232,328,36976,1,0,0:0:0:0:
424,224,37076,1,0,0:0:0:0:
440,304,37276,5,0,0:0:0:0:
192,176,37376,1,0,0:0:0:0:
212,251,37576,5,0,0:0:0:0:
392,64,37676,1,0,0:0:0:0:
408,144,37876,5,0,0:0:0:0:
200,56,37976,2,0,P|132:44|64:56,1,133.333333333333
160,256,38276,2,0,P|227:267|296:256,1,133.333333333333
68,54,38576,2,0,B|56:96|56:96|68:206,1,133.333333333333
291,257,38876,2,0,B|303:215|303:215|291:105,1,133.333333333333
143,123,39176,6,0,L|159:255,1,133.333333333333
104,304,39476,1,0,0:0:0:0:
168,352,39676,5,0,0:0:0:0:
336,320,39776,1,0,0:0:0:0:
48,240,39976,5,0,0:0:0:0:
291,257,40076,1,0,0:0:0:0:
72,168,40276,5,0,0:0:0:0:
280,176,40376,2,0,P|304:112|280:56,1,133.333333333333
218,116,40676,1,0,0:0:0:0:
136,88,40876,5,0,0:0:0:0:
128,288,40976,1,0,0:0:0:0:
280,56,41176,5,0,0:0:0:0:
291,257,41276,1,0,0:0:0:0:
200,40,41476,5,0,0:0:0:0:
223,310,41576,2,0,B|255:334|255:334|359:342,1,133.333333333333
416,312,41876,2,0,P|377:272|327:269,1,66.6666666666667
291,257,42076,1,0,0:0:0:0:
488,360,42376,5,0,0:0:0:0:
424,144,42476,1,0,0:0:0:0:
216,224,42676,5,0,0:0:0:0:
400,56,42776,1,0,0:0:0:0:
256,296,42976,5,0,0:0:0:0:
344,120,43076,1,0,0:0:0:0:
176,152,43276,5,0,0:0:0:0:
368,200,43376,2,0,B|384:240|384:240|368:328,1,133.333333333333
144,328,43676,2,0,P|128:240|128:240,1,66.6666666666667
75,142,43876,6,0,P|32:161|80:160,1,133.333333333333
128,88,44176,1,0,0:0:0:0:
232,224,44276,2,0,B|256:240|256:240|384:224,1,133.333333333333
440,96,44576,2,0,B|416:80|416:80|288:96,1,133.333333333333
248,48,44876,1,0,0:0:0:0:
168,40,45076,5,0,0:0:0:0:
232,224,45176,1,0,0:0:0:0:
320,16,45376,5,0,0:0:0:0:
144,248,45476,1,0,0:0:0:0:
248,48,45676,5,0,0:0:0:0:
312,216,45776,2,0,B|304:272|312:312|312:312|304:288|288:272,1,133.333333333333
232,336,46076,2,0,L|161:323,1,66.6666666666667
56,232,46276,6,0,B|40:192|40:192|56:40,1,133.333333333333
96,40,46576,1,0,0:0:0:0:
344,120,46676,1,0,0:0:0:0:
128,112,46876,5,0,0:0:0:0:
352,40,46976,1,0,0:0:0:0:
136,192,47176,5,0,0:0:0:0:
352,200,47276,1,0,0:0:0:0:
104,264,47476,5,0,0:0:0:0:
448,96,47576,1,0,0:0:0:0:
136,192,47776,5,0,0:0:0:0:
448,176,47876,1,0,0:0:0:0:
168,120,48076,5,0,0:0:0:0:
448,256,48176,1,0,0:0:0:0:
208,48,48376,5,0,0:0:0:0:
368,256,48476,2,0,P|312:280|248:256,1,133.333333333333
336,40,48776,6,0,L|305:213,1,166.666666666667
247,255,49076,1,0,0:0:0:0:
112,40,49276,5,0,0:0:0:0:
168,280,49376,1,0,0:0:0:0:
248,24,49576,5,0,0:0:0:0:
88,256,49676,1,0,0:0:0:0:
184,72,49876,5,0,0:0:0:0:
247,255,49976,1,0,0:0:0:0:
192,80,50176,5,0,0:0:0:0:
168,280,50276,1,0,0:0:0:0:
200,88,50476,5,0,0:0:0:0:
88,256,50576,1,0,0:0:0:0:
40,184,50776,5,0,0:0:0:0:
247,255,50876,1,0,0:0:0:0:
168,280,51076,5,0,0:0:0:0:
200,88,51176,2,0,B|242:80|242:80|408:88,1,166.666666666667
424,32,51476,1,0,0:0:0:0:
160,160,51676,5,0,0:0:0:0:
440,168,51776,1,0,0:0:0:0:
112,224,51976,5,0,0:0:0:0:
416,256,52076,1,0,0:0:0:0:
64,288,52276,5,0,0:0:0:0:
376,96,52376,1,0,0:0:0:0:
352,336,52576,5,0,0:0:0:0:
112,80,52676,1,0,0:0:0:0:
136,336,52876,5,0,0:0:0:0:
352,24,52976,1,0,0:0:0:0:
296,272,53176,5,0,0:0:0:0:
200,104,53276,1,0,0:0:0:0:
128,152,53476,5,0,0:0:0:0:
360,208,53576,1,0,0:0:0:0:
376,128,53776,5,0,0:0:0:0:
200,24,53876,1,0,0:0:0:0:
280,24,54076,5,0,0:0:0:0:
56,112,54176,1,0,0:0:0:0:
96,40,54376,5,0,0:0:0:0:
96,232,54476,1,0,0:0:0:0:
24,184,54676,5,0,0:0:0:0:
240,224,54776,1,0,0:0:0:0:
168,160,54976,5,0,0:0:0:0:
256,352,55076,1,0,0:0:0:0:
168,320,55276,5,0,0:0:0:0:
400,296,55376,1,0,0:0:0:0:
344,360,55576,5,0,0:0:0:0:
376,216,55676,1,0,0:0:0:0:
424,136,55876,5,0,0:0:0:0:
208,216,55976,1,0,0:0:0:0:
160,128,56176,5,0,0:0:0:0:
376,216,56276,1,0,0:0:0:0:
336,136,56476,5,0,0:0:0:0:
112,216,56576,1,0,0:0:0:0:
72,136,56776,5,0,0:0:0:0:
296,216,56876,1,0,0:0:0:0:
80,288,57076,5,0,0:0:0:0:
304,56,57176,1,0,0:0:0:0:
200,336,57376,5,0,0:0:0:0:
144,40,57476,1,0,0:0:0:0:
32,200,57676,5,0,0:0:0:0:
448,112,57776,1,0,0:0:0:0:
112,184,57976,5,0,0:0:0:0:
376,128,58076,2,0,B|400:176|400:176|360:232|392:296,1,166.666666666667
464,240,58376,6,0,B|440:238|416:227|416:227|384:232|376:248|376:248|332:232|240:240,1,166.666666666667
280,312,58676,1,0,0:0:0:0:
80,216,58876,5,0,0:0:0:0:
352,272,58976,1,0,0:0:0:0:
80,296,59176,5,0,0:0:0:0:
368,192,59276,1,0,0:0:0:0:
160,192,59476,5,0,0:0:0:0:
280,312,59576,1,0,0:0:0:0:
168,200,59776,5,0,0:0:0:0:
352,272,59876,1,0,0:0:0:0:
176,208,60076,5,0,0:0:0:0:
368,192,60176,1,0,0:0:0:0:
320,128,60376,5,0,0:0:0:0:
280,312,60476,1,0,0:0:0:0:
352,272,60676,5,0,0:0:0:0:
96,224,60776,2,0,B|89:181|112:152|112:152|80:120|96:64,1,166.666666666667
168,96,61076,1,0,0:0:0:0:
160,304,61276,5,0,0:0:0:0:
248,64,61376,1,0,0:0:0:0:
280,352,61576,5,0,0:0:0:0:
328,56,61676,1,0,0:0:0:0:
360,352,61876,5,0,0:0:0:0:
104,80,61976,1,0,0:0:0:0:
120,344,62176,5,0,0:0:0:0:
416,72,62276,1,0,0:0:0:0:
440,344,62476,5,0,0:0:0:0:
168,24,62576,1,0,0:0:0:0:
200,264,62776,5,0,0:0:0:0:
368,160,62876,2,0,B|334:121|334:121|215:100,1,166.666666666667
144,128,63176,1,0,0:0:0:0:
80,192,63376,5,0,0:0:0:0:
272,224,63476,1,0,0:0:0:0:
200,264,63676,5,0,0:0:0:0:
392,128,63776,1,0,0:0:0:0:
328,80,63976,5,0,0:0:0:0:
456,256,64076,1,0,0:0:0:0:
456,176,64276,5,0,0:0:0:0:
224,344,64376,1,0,0:0:0:0:
152,320,64576,5,0,0:0:0:0:
360,304,64676,1,0,0:0:0:0:
304,360,64876,5,0,0:0:0:0:
256,192,64976,1,0,0:0:0:0:
224,264,65176,5,0,0:0:0:0:
344,112,65276,1,0,0:0:0:0:
336,192,65476,5,0,0:0:0:0:
208,64,65576,1,0,0:0:0:0:
152,120,65776,5,0,0:0:0:0:
336,32,65876,1,0,0:0:0:0:
408,64,66076,5,0,0:0:0:0:
128,40,66176,1,0,0:0:0:0:
72,104,66376,5,0,0:0:0:0:
224,264,66476,1,0,0:0:0:0:
296,296,66576,1,0,0:0:0:0:
359,249,66676,1,0,0:0:0:0:
349,170,66776,6,0,B|312:152|312:152|129:170,1,166.666666666667
112,176,67076,1,0,0:0:0:0:
376,72,67276,5,0,0:0:0:0:
120,80,67376,1,0,0:0:0:0:
408,144,67576,5,0,0:0:0:0:
136,280,67676,1,0,0:0:0:0:
296,56,67876,5,0,0:0:0:0:
240,224,67976,1,0,0:0:0:0:
