osu file format v14

[General]
AudioFilename: audio.mp3
AudioLeadIn: 0
PreviewTime: 25349
Countdown: 0
SampleSet: Soft
StackLeniency: 0.7
Mode: 0
LetterboxInBreaks: 0
WidescreenStoryboard: 0

[Editor]
DistanceSpacing: 2.5
BeatDivisor: 4
GridSize: 4
TimelineZoom: 6.599996

[Metadata]
Title:Honesty (Swing Arrangement)
TitleUnicode:Honesty (Swing Arrangement)
Artist:Will Stetson
ArtistUnicode:Will Stetson
Creator:tresza
Version:Easy HONESTYYYYY
Source:
Tags:
BeatmapID:1926969
BeatmapSetID:922743

[Difficulty]
HPDrainRate:6.8
CircleSize:4.7
OverallDifficulty:9
ApproachRate:9.7
SliderMultiplier:1.4
SliderTickRate:1

[Events]
//Background and Video events
0,0,"ekhb2faQr_O4.jpg",0,0
//Break Periods
//Storyboard Layer 0 (Background)
//Storyboard Layer 1 (Fail)
//Storyboard Layer 2 (Pass)
//Storyboard Layer 3 (Foreground)
//Storyboard Sound Samples

[TimingPoints]
1350,333.333333333333,4,2,0,100,1,0
17349,-133.333333333333,4,2,0,100,0,0
24933,-100,4,2,0,100,0,0
25349,-100,4,2,0,100,0,1
25349,-100,4,2,0,100,0,1
73349,-100,4,2,0,100,0,0

[HitObjects]
261,116,1350,5,0,0:0:0:0:
402,236,1933,1,0,0:0:0:0:
192,238,2683,5,0,0:0:0:0:
295,164,3016,1,0,0:0:0:0:
391,71,3350,1,0,0:0:0:0:
180,52,3683,1,0,0:0:0:0:
54,129,4016,6,0,L|82:208,1,70
126,310,4349,2,0,L|165:228,1,70
208,73,4683,2,0,L|256:142,1,70
311,245,5016,1,0,0:0:0:0:
448,77,5183,1,0,0:0:0:0:
267,72,5349,1,0,0:0:0:0:
138,76,5516,6,0,L|139:172,1,70
143,314,5849,2,0,L|233:294,1,70
388,181,6183,2,0,L|333:236,1,70
262,308,6516,1,0,0:0:0:0:
125,246,6683,1,0,0:0:0:0:
253,190,6849,1,0,0:0:0:0:
132,340,7016,1,0,0:0:0:0:
329,319,7183,2,0,P|341:293|334:243,1,70
270,56,7516,2,0,L|195:69,1,70
106,147,7849,2,0,B|103:238|166:355|295:320,1,280
360,283,8683,6,0,P|356:201|347:193,2,70
279,337,9183,1,0,0:0:0:0:
164,209,9349,6,0,L|98:285,1,70
394,252,9683,2,0,L|329:191,1,70
161,221,10016,2,0,B|252:-13|129:92|47:286,1,385
369,184,11099,6,0,P|403:130|335:54,1,175
260,49,11683,1,0,0:0:0:0:
368,177,11849,1,0,0:0:0:0:
392,314,12016,2,0,P|316:236|110:326,1,350
251,323,13016,1,0,0:0:0:0:
389,319,13183,1,0,0:0:0:0:
161,197,13349,6,0,L|96:125,1,70
309,249,13683,2,0,L|230:296,1,70
203,162,14016,2,0,L|285:211,1,70
175,240,14349,2,0,L|122:217,1,35
46,186,14599,6,0,B|171:238|183:244,1,140
214,60,15099,1,0,0:0:0:0:
322,176,15266,2,0,L|431:234,1,105
374,340,15683,2,0,L|233:256,1,140
436,206,16183,2,0,L|466:128,1,70
338,256,16516,2,0,L|305:330,1,70
227,217,16849,1,0,0:0:0:0:
128,79,17016,2,0,L|216:107,1,70
387,97,17349,6,0,P|416:224|344:264,1,210.000008010865
254,270,18183,1,0,0:0:0:0:
139,265,18349,2,0,P|73:186|141:108,1,210.000008010865
187,323,19183,1,0,0:0:0:0:
291,204,19349,1,0,0:0:0:0:
155,70,19516,1,0,0:0:0:0:
376,84,19683,1,0,0:0:0:0:
180,195,19849,1,0,0:0:0:0:
344,42,20016,6,0,B|226:105|226:105|339:192|339:192|234:268|234:268|378:342,1,551.250021028519
363,334,21933,2,0,P|236:348|162:333,1,183.750007009506
137,296,22683,5,0,0:0:0:0:
158,286,22766,1,0,0:0:0:0:
180,277,22849,1,0,0:0:0:0:
202,268,22932,1,0,0:0:0:0:
223,258,23016,1,0,0:0:0:0:
245,249,23099,1,0,0:0:0:0:
267,240,23182,1,0,0:0:0:0:
289,231,23266,1,0,0:0:0:0:
310,221,23349,1,0,0:0:0:0:
332,212,23432,1,0,0:0:0:0:
354,203,23516,1,0,0:0:0:0:
376,193,23599,1,0,0:0:0:0:
397,184,23682,1,0,0:0:0:0:
427,169,23766,5,0,0:0:0:0:
426,139,23849,1,0,0:0:0:0:
403,113,23932,1,0,0:0:0:0:
372,97,24016,1,0,0:0:0:0:
339,85,24099,1,0,0:0:0:0:
305,77,24182,1,0,0:0:0:0:
271,70,24266,1,0,0:0:0:0:
236,64,24349,1,0,0:0:0:0:
201,66,24433,1,0,0:0:0:0:
166,68,24516,1,0,0:0:0:0:
133,79,24599,1,0,0:0:0:0:
103,98,24682,1,0,0:0:0:0:
80,124,24766,1,0,0:0:0:0:
64,155,24849,1,0,0:0:0:0:
57,189,24932,1,0,0:0:0:0:
58,224,25016,5,0,0:0:0:0:
69,257,25099,1,0,0:0:0:0:
87,287,25182,1,0,0:0:0:0:
114,317,25266,1,0,0:0:0:0:
158,327,25349,1,0,0:0:0:0:
203,334,25432,1,0,0:0:0:0:
248,337,25515,1,0,0:0:0:0:
294,334,25599,1,0,0:0:0:0:
338,324,25682,1,0,0:0:0:0:
379,305,25765,1,0,0:0:0:0:
413,275,25849,1,0,0:0:0:0:
436,236,25932,1,0,0:0:0:0:
446,192,26015,1,0,0:0:0:0:
443,147,26099,1,0,0:0:0:0:
425,105,26182,1,0,0:0:0:0:
391,75,26265,1,0,0:0:0:0:
349,59,26349,5,0,0:0:0:0:
303,50,26433,1,0,0:0:0:0:
290,93,26516,1,0,0:0:0:0:
274,136,26599,1,0,0:0:0:0:
251,175,26682,1,0,0:0:0:0:
212,194,26766,1,0,0:0:0:0:
172,174,26849,1,0,0:0:0:0:
139,142,26932,1,0,0:0:0:0:
110,107,27016,1,0,0:0:0:0:
101,57,27099,6,0,L|151:42,3,35
41,180,27433,2,0,L|-9:220,3,35
21,237,27766,5,0,0:0:0:0:
53,268,27849,1,0,0:0:0:0:
97,270,27932,1,0,0:0:0:0:
136,247,28015,1,0,0:0:0:0:
170,216,28099,1,0,0:0:0:0:
202,184,28182,1,0,0:0:0:0:
234,151,28265,1,0,0:0:0:0:
268,121,28349,1,0,0:0:0:0:
305,95,28432,1,0,0:0:0:0:
346,75,28515,1,0,0:0:0:0:
390,64,28599,1,0,0:0:0:0:
434,48,28683,1,0,0:0:0:0:
447,91,28766,1,0,0:0:0:0:
446,136,28849,1,0,0:0:0:0:
434,180,28932,1,0,0:0:0:0:
411,219,29016,1,0,0:0:0:0:
379,250,29099,5,0,0:0:0:0:
337,268,29182,1,0,0:0:0:0:
292,269,29266,1,0,0:0:0:0:
251,251,29349,1,0,0:0:0:0:
219,219,29432,1,0,0:0:0:0:
196,180,29516,1,0,0:0:0:0:
184,138,29599,1,0,0:0:0:0:
163,95,29682,1,0,0:0:0:0:
142,54,29766,1,0,0:0:0:0:
106,30,29849,1,0,0:0:0:0:
143,7,29933,1,0,0:0:0:0:
188,7,30016,1,0,0:0:0:0:
278,83,30099,6,0,L|318:104,3,35
300,173,30433,2,0,L|259:209,3,35
229,273,30766,5,0,0:0:0:0:
192,299,30849,1,0,0:0:0:0:
148,305,30932,1,0,0:0:0:0:
105,290,31015,1,0,0:0:0:0:
70,261,31099,1,0,0:0:0:0:
44,224,31182,1,0,0:0:0:0:
29,181,31265,1,0,0:0:0:0:
26,136,31349,1,0,0:0:0:0:
37,92,31432,1,0,0:0:0:0:
65,56,31515,1,0,0:0:0:0:
105,35,31599,1,0,0:0:0:0:
150,26,31682,1,0,0:0:0:0:
195,23,31765,1,0,0:0:0:0:
241,24,31849,1,0,0:0:0:0:
286,27,31932,1,0,0:0:0:0:
331,31,32015,1,0,0:0:0:0:
377,35,32099,5,0,0:0:0:0:
421,47,32183,1,0,0:0:0:0:
459,71,32266,1,0,0:0:0:0:
430,165,32349,6,0,L|380:191,3,35
334,203,32683,5,0,0:0:0:0:
296,177,32766,1,0,0:0:0:0:
255,158,32849,1,0,0:0:0:0:
210,147,32933,1,0,0:0:0:0:
165,145,33016,1,0,0:0:0:0:
121,153,33099,1,0,0:0:0:0:
83,178,33183,1,0,0:0:0:0:
77,221,33266,1,0,0:0:0:0:
105,256,33349,1,0,0:0:0:0:
146,277,33433,1,0,0:0:0:0:
190,287,33516,1,0,0:0:0:0:
235,293,33599,1,0,0:0:0:0:
280,298,33683,1,0,0:0:0:0:
325,307,33766,1,0,0:0:0:0:
372,301,33849,1,0,0:0:0:0:
418,286,33933,1,0,0:0:0:0:
442,248,34016,5,0,0:0:0:0:
455,204,34099,1,0,0:0:0:0:
454,159,34183,1,0,0:0:0:0:
441,115,34266,1,0,0:0:0:0:
415,78,34349,1,0,0:0:0:0:
380,50,34433,1,0,0:0:0:0:
338,33,34516,1,0,0:0:0:0:
293,29,34599,1,0,0:0:0:0:
248,38,34683,1,0,0:0:0:0:
209,60,34766,1,0,0:0:0:0:
203,105,34849,1,0,0:0:0:0:
221,146,34932,1,0,0:0:0:0:
240,187,35015,1,0,0:0:0:0:
259,229,35099,1,0,0:0:0:0:
321,285,35183,6,0,L|338:234,9,35
328,42,36016,5,0,0:0:0:0:
282,45,36099,1,0,0:0:0:0:
238,54,36182,1,0,0:0:0:0:
195,69,36266,1,0,0:0:0:0:
155,91,36349,1,0,0:0:0:0:
120,120,36432,1,0,0:0:0:0:
94,157,36516,1,0,0:0:0:0:
80,200,36599,1,0,0:0:0:0:
81,245,36682,1,0,0:0:0:0:
98,287,36766,1,0,0:0:0:0:
131,318,36849,1,0,0:0:0:0:
173,334,36932,1,0,0:0:0:0:
219,342,37016,1,0,0:0:0:0:
256,317,37099,1,0,0:0:0:0:
269,274,37182,1,0,0:0:0:0:
274,229,37266,1,0,0:0:0:0:
284,184,37349,5,0,0:0:0:0:
304,144,37432,1,0,0:0:0:0:
337,112,37516,1,0,0:0:0:0:
379,97,37599,1,0,0:0:0:0:
423,106,37682,1,0,0:0:0:0:
452,141,37766,1,0,0:0:0:0:
459,185,37849,1,0,0:0:0:0:
454,227,37933,2,0,L|439:284,5,35
436,300,38433,5,0,0:0:0:0:
391,303,38516,1,0,0:0:0:0:
351,282,38599,1,0,0:0:0:0:
323,246,38683,1,0,0:0:0:0:
300,207,38766,1,0,0:0:0:0:
278,167,38849,1,0,0:0:0:0:
253,129,38933,1,0,0:0:0:0:
223,95,39016,1,0,0:0:0:0:
188,67,39099,1,0,0:0:0:0:
146,49,39183,1,0,0:0:0:0:
101,46,39266,1,0,0:0:0:0:
57,60,39349,1,0,0:0:0:0:
23,89,39433,1,0,0:0:0:0:
1,128,39516,1,0,0:0:0:0:
0,173,39599,1,0,0:0:0:0:
0,218,39683,1,0,0:0:0:0:
13,260,39766,5,0,0:0:0:0:
42,295,39849,1,0,0:0:0:0:
82,317,39933,1,0,0:0:0:0:
125,329,40016,1,0,0:0:0:0:
171,334,40099,1,0,0:0:0:0:
216,337,40183,1,0,0:0:0:0:
261,333,40266,1,0,0:0:0:0:
302,313,40349,1,0,0:0:0:0:
328,276,40433,1,0,0:0:0:0:
340,233,40516,1,0,0:0:0:0:
344,187,40599,1,0,0:0:0:0:
386,124,40683,2,0,L|420:95,7,35
325,69,41349,5,0,0:0:0:0:
290,63,41432,1,0,0:0:0:0:
255,59,41515,1,0,0:0:0:0:
220,59,41599,1,0,0:0:0:0:
185,63,41682,1,0,0:0:0:0:
152,72,41765,1,0,0:0:0:0:
121,88,41849,1,0,0:0:0:0:
95,112,41932,1,0,0:0:0:0:
77,141,42015,1,0,0:0:0:0:
68,175,42099,1,0,0:0:0:0:
67,210,42182,1,0,0:0:0:0:
75,244,42265,1,0,0:0:0:0:
90,276,42349,1,0,0:0:0:0:
111,303,42432,1,0,0:0:0:0:
139,325,42515,1,0,0:0:0:0:
171,338,42599,1,0,0:0:0:0:
208,344,42683,5,0,0:0:0:0:
256,352,42766,1,0,0:0:0:0:
305,350,42850,1,0,0:0:0:0:
351,335,42933,1,0,0:0:0:0:
392,309,43016,1,0,0:0:0:0:
426,273,43100,1,0,0:0:0:0:
450,231,43183,1,0,0:0:0:0:
464,184,43266,1,0,0:0:0:0:
468,135,43350,1,0,0:0:0:0:
459,87,43433,1,0,0:0:0:0:
435,44,43516,1,0,0:0:0:0:
398,13,43600,1,0,0:0:0:0:
352,0,43683,1,0,0:0:0:0:
303,0,43766,1,0,0:0:0:0:
259,0,43850,1,0,0:0:0:0:
209,1,43933,1,0,0:0:0:0:
157,3,44016,5,0,0:0:0:0:
99,10,44099,1,0,0:0:0:0:
55,49,44182,1,0,0:0:0:0:
28,102,44266,1,0,0:0:0:0:
20,161,44349,1,0,0:0:0:0:
29,219,44432,1,0,0:0:0:0:
58,271,44516,1,0,0:0:0:0:
104,308,44599,1,0,0:0:0:0:
159,331,44682,1,0,0:0:0:0:
218,340,44766,1,0,0:0:0:0:
277,339,44849,1,0,0:0:0:0:
336,330,44932,1,0,0:0:0:0:
392,309,45016,1,0,0:0:0:0:
437,272,45099,1,0,0:0:0:0:
462,218,45182,1,0,0:0:0:0:
467,159,45266,1,0,0:0:0:0:
457,108,45349,5,0,0:0:0:0:
417,56,45432,1,0,0:0:0:0:
350,40,45515,1,0,0:0:0:0:
280,39,45599,1,0,0:0:0:0:
210,49,45682,1,0,0:0:0:0:
144,71,45765,1,0,0:0:0:0:
87,110,45849,1,0,0:0:0:0:
58,172,45932,1,0,0:0:0:0:
43,235,46016,2,0,L|80:265,7,35
48,185,46683,5,0,0:0:0:0:
50,150,46766,1,0,0:0:0:0:
59,116,46849,1,0,0:0:0:0:
74,84,46933,1,0,0:0:0:0:
94,55,47016,1,0,0:0:0:0:
119,31,47099,1,0,0:0:0:0:
147,10,47183,1,0,0:0:0:0:
179,0,47266,1,0,0:0:0:0:
212,0,47349,1,0,0:0:0:0:
247,0,47433,1,0,0:0:0:0:
282,0,47516,1,0,0:0:0:0:
316,0,47599,1,0,0:0:0:0:
348,10,47683,1,0,0:0:0:0:
376,29,47766,1,0,0:0:0:0:
401,54,47849,1,0,0:0:0:0:
421,83,47933,1,0,0:0:0:0:
437,113,48016,5,0,0:0:0:0:
462,158,48099,1,0,0:0:0:0:
478,208,48182,1,0,0:0:0:0:
477,260,48266,1,0,0:0:0:0:
450,305,48349,1,0,0:0:0:0:
407,334,48432,1,0,0:0:0:0:
358,352,48516,1,0,0:0:0:0:
306,362,48599,1,0,0:0:0:0:
254,366,48682,1,0,0:0:0:0:
201,364,48766,1,0,0:0:0:0:
150,356,48849,1,0,0:0:0:0:
99,342,48932,1,0,0:0:0:0:
52,319,49016,1,0,0:0:0:0:
14,283,49099,1,0,0:0:0:0:
0,234,49182,1,0,0:0:0:0:
8,183,49266,1,0,0:0:0:0:
25,136,49349,5,0,0:0:0:0:
63,77,49432,1,0,0:0:0:0:
115,31,49515,1,0,0:0:0:0:
179,3,49599,1,0,0:0:0:0:
248,0,49682,1,0,0:0:0:0:
318,2,49765,1,0,0:0:0:0:
383,27,49849,1,0,0:0:0:0:
437,71,49932,1,0,0:0:0:0:
474,130,50015,1,0,0:0:0:0:
486,199,50099,1,0,0:0:0:0:
471,267,50182,1,0,0:0:0:0:
436,324,50266,1,0,0:0:0:0:
377,361,50349,1,0,0:0:0:0:
308,367,50432,1,0,0:0:0:0:
243,366,50516,1,0,0:0:0:0:
178,353,50599,1,0,0:0:0:0:
121,324,50683,5,0,0:0:0:0:
44,282,50766,1,0,0:0:0:0:
0,212,50849,1,0,0:0:0:0:
0,126,50933,1,0,0:0:0:0:
54,59,51016,1,0,0:0:0:0:
131,18,51099,1,0,0:0:0:0:
216,0,51183,1,0,0:0:0:0:
303,0,51266,1,0,0:0:0:0:
390,11,51349,1,0,0:0:0:0:
470,45,51433,1,0,0:0:0:0:
512,107,51516,1,0,0:0:0:0:
512,191,51599,1,0,0:0:0:0:
470,259,51683,2,0,L|439:303,3,35
347,339,52016,5,0,0:0:0:0:
316,355,52099,1,0,0:0:0:0:
283,366,52182,1,0,0:0:0:0:
248,372,52266,1,0,0:0:0:0:
213,376,52349,1,0,0:0:0:0:
178,376,52432,1,0,0:0:0:0:
143,374,52516,1,0,0:0:0:0:
109,369,52599,1,0,0:0:0:0:
75,361,52682,1,0,0:0:0:0:
42,349,52766,1,0,0:0:0:0:
11,332,52849,1,0,0:0:0:0:
0,311,52932,1,0,0:0:0:0:
0,286,53016,1,0,0:0:0:0:
0,257,53099,1,0,0:0:0:0:
0,225,53182,1,0,0:0:0:0:
0,191,53266,1,0,0:0:0:0:
30,131,53349,6,0,L|-15:162,3,35
54,39,53683,2,0,L|96:83,3,35
195,41,54016,5,0,0:0:0:0:
228,31,54099,1,0,0:0:0:0:
263,27,54182,1,0,0:0:0:0:
298,29,54266,1,0,0:0:0:0:
332,37,54349,1,0,0:0:0:0:
364,50,54432,1,0,0:0:0:0:
394,68,54516,1,0,0:0:0:0:
421,91,54599,1,0,0:0:0:0:
428,152,54683,6,0,L|400:207,3,35
391,296,55016,2,0,L|360:239,3,35
246,197,55349,2,0,L|210:237,3,35
138,132,55683,2,0,L|106:99,3,35
189,61,56016,5,0,0:0:0:0:
223,58,56099,1,0,0:0:0:0:
250,79,56182,1,0,0:0:0:0:
264,111,56266,1,0,0:0:0:0:
269,145,56349,1,0,0:0:0:0:
271,180,56432,1,0,0:0:0:0:
270,215,56516,1,0,0:0:0:0:
268,250,56599,1,0,0:0:0:0:
264,285,56682,1,0,0:0:0:0:
256,323,56766,1,0,0:0:0:0:
287,336,56849,1,0,0:0:0:0:
322,339,56932,1,0,0:0:0:0:
357,335,57016,1,0,0:0:0:0:
390,325,57099,1,0,0:0:0:0:
420,307,57182,1,0,0:0:0:0:
444,281,57266,1,0,0:0:0:0:
453,178,57349,5,0,0:0:0:0:
456,143,57432,1,0,0:0:0:0:
451,108,57515,1,0,0:0:0:0:
431,80,57599,1,0,0:0:0:0:
398,72,57682,1,0,0:0:0:0:
365,83,57765,1,0,0:0:0:0:
336,103,57849,1,0,0:0:0:0:
311,126,57932,1,0,0:0:0:0:
287,152,58015,1,0,0:0:0:0:
265,179,58099,1,0,0:0:0:0:
243,207,58182,1,0,0:0:0:0:
222,235,58265,1,0,0:0:0:0:
199,261,58349,1,0,0:0:0:0:
175,286,58432,1,0,0:0:0:0:
146,306,58515,1,0,0:0:0:0:
112,314,58599,1,0,0:0:0:0:
69,236,58683,6,0,L|103:187,3,35
151,150,59016,2,0,L|119:105,3,35
179,68,59349,5,0,0:0:0:0:
149,49,59432,1,0,0:0:0:0:
115,40,59515,1,0,0:0:0:0:
82,46,59599,1,0,0:0:0:0:
54,68,59682,1,0,0:0:0:0:
34,96,59765,1,0,0:0:0:0:
21,129,59849,1,0,0:0:0:0:
13,163,59932,1,0,0:0:0:0:
10,197,60015,1,0,0:0:0:0:
12,232,60099,1,0,0:0:0:0:
22,266,60182,1,0,0:0:0:0:
39,296,60265,1,0,0:0:0:0:
64,320,60349,1,0,0:0:0:0:
96,336,60432,1,0,0:0:0:0:
130,342,60515,1,0,0:0:0:0:
165,341,60599,1,0,0:0:0:0:
198,331,60683,5,0,0:0:0:0:
228,313,60765,1,0,0:0:0:0:
249,285,60849,1,0,0:0:0:0:
258,252,60932,1,0,0:0:0:0:
258,222,61016,1,0,0:0:0:0:
235,195,61100,1,0,0:0:0:0:
218,164,61183,1,0,0:0:0:0:
208,131,61266,1,0,0:0:0:0:
210,96,61350,1,0,0:0:0:0:
224,64,61433,1,0,0:0:0:0:
249,40,61516,1,0,0:0:0:0:
280,24,61600,1,0,0:0:0:0:
314,17,61683,1,0,0:0:0:0:
349,17,61766,1,0,0:0:0:0:
383,25,61850,1,0,0:0:0:0:
414,42,61933,1,0,0:0:0:0:
437,68,62016,5,0,0:0:0:0:
453,99,62100,1,0,0:0:0:0:
461,133,62183,1,0,0:0:0:0:
463,168,62266,1,0,0:0:0:0:
461,203,62350,1,0,0:0:0:0:
457,238,62433,1,0,0:0:0:0:
452,272,62516,1,0,0:0:0:0:
446,307,62600,1,0,0:0:0:0:
356,313,62683,6,0,L|319:281,3,35
366,157,63016,2,0,L|327:211,3,35
254,32,63349,5,0,0:0:0:0:
256,66,63432,1,0,0:0:0:0:
259,101,63515,1,0,0:0:0:0:
261,136,63599,1,0,0:0:0:0:
263,171,63682,1,0,0:0:0:0:
264,206,63765,1,0,0:0:0:0:
263,241,63849,1,0,0:0:0:0:
259,276,63932,1,0,0:0:0:0:
248,309,64015,1,0,0:0:0:0:
226,335,64099,1,0,0:0:0:0:
192,343,64182,1,0,0:0:0:0:
159,334,64265,1,0,0:0:0:0:
128,316,64349,1,0,0:0:0:0:
103,293,64432,1,0,0:0:0:0:
81,265,64515,1,0,0:0:0:0:
64,235,64599,1,0,0:0:0:0:
52,202,64683,5,0,0:0:0:0:
45,168,64765,1,0,0:0:0:0:
41,133,64849,1,0,0:0:0:0:
41,98,64932,1,0,0:0:0:0:
43,63,65015,1,0,0:0:0:0:
58,39,65099,1,0,0:0:0:0:
84,29,65183,1,0,0:0:0:0:
111,23,65266,1,0,0:0:0:0:
166,126,65349,6,0,L|136:90,3,35
211,225,65683,2,0,L|247:190,3,35
305,127,66016,2,0,L|347:162,3,35
332,253,66349,2,0,L|303:296,3,35
240,330,66683,5,0,0:0:0:0:
205,322,66766,1,0,0:0:0:0:
173,309,66849,1,0,0:0:0:0:
143,290,66932,1,0,0:0:0:0:
118,267,67016,1,0,0:0:0:0:
96,239,67099,1,0,0:0:0:0:
80,208,67182,1,0,0:0:0:0:
69,175,67266,1,0,0:0:0:0:
65,140,67349,1,0,0:0:0:0:
66,105,67432,1,0,0:0:0:0:
73,71,67516,1,0,0:0:0:0:
87,39,67599,1,0,0:0:0:0:
118,25,67683,1,0,0:0:0:0:
150,37,67766,1,0,0:0:0:0:
184,44,67849,1,0,0:0:0:0:
219,45,67932,1,0,0:0:0:0:
274,113,68016,6,0,L|248:157,3,35
158,138,68349,2,0,L|123:84,3,35
73,192,68683,5,0,0:0:0:0:
77,226,68766,1,0,0:0:0:0:
88,259,68849,1,0,0:0:0:0:
105,290,68932,1,0,0:0:0:0:
128,317,69016,1,0,0:0:0:0:
155,339,69099,1,0,0:0:0:0:
185,356,69182,1,0,0:0:0:0:
219,367,69266,1,0,0:0:0:0:
253,371,69349,1,0,0:0:0:0:
288,369,69432,1,0,0:0:0:0:
322,361,69516,1,0,0:0:0:0:
354,346,69599,1,0,0:0:0:0:
382,326,69682,1,0,0:0:0:0:
407,301,69766,1,0,0:0:0:0:
426,272,69849,1,0,0:0:0:0:
439,240,69932,1,0,0:0:0:0:
447,205,70016,5,0,0:0:0:0:
448,170,70099,1,0,0:0:0:0:
442,136,70182,1,0,0:0:0:0:
430,103,70266,1,0,0:0:0:0:
407,81,70349,1,0,0:0:0:0:
381,56,70432,1,0,0:0:0:0:
352,38,70515,1,0,0:0:0:0:
319,25,70598,1,0,0:0:0:0:
284,23,70683,1,0,0:0:0:0:
232,16,70766,1,0,0:0:0:0:
180,24,70849,1,0,0:0:0:0:
133,47,70932,1,0,0:0:0:0:
96,82,71016,1,0,0:0:0:0:
56,142,71099,1,0,0:0:0:0:
48,215,71182,1,0,0:0:0:0:
74,283,71265,1,0,0:0:0:0:
128,332,71349,5,0,0:0:0:0:
198,350,71433,1,0,0:0:0:0:
270,343,71516,1,0,0:0:0:0:
336,321,71599,1,0,0:0:0:0:
390,283,71683,1,0,0:0:0:0:
447,227,71766,1,0,0:0:0:0:
467,150,71850,1,0,0:0:0:0:
446,74,71933,1,0,0:0:0:0:
388,19,72016,1,0,0:0:0:0:
311,1,72100,1,0,0:0:0:0:
241,0,72183,1,0,0:0:0:0:
174,10,72266,1,0,0:0:0:0:
92,38,72349,1,0,0:0:0:0:
34,102,72432,1,0,0:0:0:0:
16,187,72516,1,0,0:0:0:0:
38,270,72599,1,0,0:0:0:0:
99,331,72682,5,0,0:0:0:0:
182,356,72766,1,0,0:0:0:0:
267,337,72849,1,0,0:0:0:0:
332,279,72932,1,0,0:0:0:0:
385,208,73016,1,0,0:0:0:0:
392,121,73099,1,0,0:0:0:0:
337,51,73183,1,0,0:0:0:0:
256,16,73266,1,0,0:0:0:0:
256,192,73349,12,0,76766,0:0:0:0:
101,172,76849,6,0,L|131:136,2,35
