osu file format v14

[General]
AudioFilename: audio.mp3
AudioLeadIn: 0
PreviewTime: -1
Countdown: 1
SampleSet: None
StackLeniency: 0.7
Mode: 0
LetterboxInBreaks: 0
WidescreenStoryboard: 0

[Editor]
DistanceSpacing: 0.5
BeatDivisor: 4
GridSize: 4
TimelineZoom: 1.5

[Metadata]
Title:Yuima-ru*World TVver
TitleUnicode:Yuima-ru*World TVver
Artist:Will Stetson
ArtistUnicode:Will Stetson
Creator:Y33ZY69
Version:owo
Source:
Tags:
BeatmapID:1900203
BeatmapSetID:910632

[Difficulty]
HPDrainRate:5
CircleSize:4
OverallDifficulty:9
ApproachRate:9.3
SliderMultiplier:1.4
SliderTickRate:1

[Events]
//Background and Video events
//Break Periods
//Storyboard Layer 0 (Background)
//Storyboard Layer 1 (Fail)
//Storyboard Layer 2 (Pass)
//Storyboard Layer 3 (Foreground)
//Storyboard Sound Samples

[TimingPoints]
0,315.789473684211,4,2,0,100,1,0
5286,315.789473684211,4,2,0,100,1,0
15391,-125,4,2,0,100,0,0
21707,-100,4,2,0,100,0,0
25496,311.688311688312,4,2,0,100,1,0
25496,-83.3333333333333,4,2,0,100,0,0
30483,315.789473684211,4,2,0,100,1,0
30483,-81.9672131147541,4,2,0,100,0,0
35535,311.688311688312,4,2,0,100,1,0
35535,-83.3333333333333,4,2,0,100,0,0
40522,315.789473684211,4,2,0,100,1,0
40522,-81.9672131147541,4,2,0,100,0,0

[HitObjects]
139,205,5286,6,0,B|152:228|152:228|206:256,1,70
264,216,5601,2,0,B|251:193|251:193|197:165,1,70
70,244,5917,2,0,B|89:284|89:284|166:326,1,105
157,321,6233,2,0,L|188:255,1,70
282,224,6549,2,0,L|251:290,1,70
116,238,6864,2,0,P|136:201|189:188,1,70
252,287,7180,1,0,0:0:0:0:
314,161,7338,1,0,0:0:0:0:
252,287,7496,1,0,0:0:0:0:
314,161,7654,1,0,0:0:0:0:
252,287,7812,2,0,P|219:304|181:306,1,70
202,227,8128,2,0,P|164:228|129:214,1,70
181,152,8443,2,0,P|146:137|120:109,1,70
195,76,8759,2,0,P|170:48|158:12,1,70
159,17,9075,1,0,0:0:0:0:
123,114,9233,1,0,0:0:0:0:
134,217,9391,1,0,0:0:0:0:
186,306,9549,1,0,0:0:0:0:
272,362,9707,1,0,0:0:0:0:
228,215,9864,1,0,0:0:0:0:
272,362,10022,1,0,0:0:0:0:
228,215,10180,1,0,0:0:0:0:
272,362,10338,2,0,L|345:338,1,70
383,239,10654,2,0,L|316:260,1,70
250,287,10970,1,0,0:0:0:0:
250,287,11286,2,0,L|227:209,1,70
336,151,11601,2,0,L|316:218,1,70
159,267,11917,2,0,L|91:247,1,70
23,228,12233,1,0,0:0:0:0:
159,185,12391,1,0,0:0:0:0:
23,228,12549,1,0,0:0:0:0:
159,185,12707,1,0,0:0:0:0:
23,228,12864,2,0,P|35:267|66:292,1,70
159,185,13180,2,0,L|97:223,1,70
187,267,13496,2,0,L|246:230,1,70
236,133,13812,2,0,P|247:99|275:69,1,70
269,73,14128,1,0,0:0:0:0:
326,146,14286,1,0,0:0:0:0:
248,228,14443,1,0,0:0:0:0:
329,308,14601,1,0,0:0:0:0:
225,383,14759,1,0,0:0:0:0:
239,305,14917,1,0,0:0:0:0:
225,383,15075,1,0,0:0:0:0:
239,305,15233,1,0,0:0:0:0:
225,383,15391,2,0,B|311:380|316:297|316:297|386:245,1,224
382,247,16338,1,0,0:0:0:0:
382,247,16654,2,0,L|422:303,1,56
318,314,16970,2,0,L|285:268,1,56
222,326,17286,1,0,0:0:0:0:
222,326,17601,2,0,L|189:280,1,56
147,222,17917,2,0,P|120:258|141:333,1,112
232,222,18391,2,0,P|259:258|238:333,1,112
190,375,18864,1,0,0:0:0:0:
190,375,19180,2,0,L|190:308,1,56
262,326,19496,2,0,L|262:259,1,56
127,244,19812,1,0,0:0:0:0:
199,215,20443,2,0,P|231:239|268:243,1,56
322,170,20759,2,0,P|288:148|250:148,1,56
192,219,21075,2,0,P|227:237|264:235,1,56
317,158,21391,2,0,P|280:143|243:149,1,56
281,310,21707,2,0,L|271:221,1,70
161,130,22022,2,0,L|171:219,1,70
311,161,22338,2,0,L|241:168,1,70
131,281,22653,2,0,L|200:273,1,70
312,263,22970,1,0,0:0:0:0:
142,170,23128,1,0,0:0:0:0:
240,335,23286,1,0,0:0:0:0:
262,146,23443,1,0,0:0:0:0:
131,281,23601,1,0,0:0:0:0:
336,68,24075,1,0,0:0:0:0:
113,72,24391,1,0,0:0:0:0:
336,68,24549,1,0,0:0:0:0:
113,72,24707,1,0,0:0:0:0:
336,68,24865,1,0,0:0:0:0:
222,23,25496,2,0,L|228:137,1,83.9999974365235
171,242,25807,1,0,0:0:0:0:
107,140,25963,2,0,L|101:26,1,83.9999974365235
286,276,26275,2,0,L|280:162,1,83.9999974365235
275,79,26586,1,0,0:0:0:0:
203,166,26742,2,0,P|231:183|300:189,1,83.9999974365235
381,139,27053,1,0,0:0:0:0:
280,191,27210,2,0,P|239:186|203:166,1,83.9999974365235
156,70,27521,1,0,0:0:0:0:
202,165,27677,2,0,P|222:201|228:243,1,83.9999974365235
223,326,27989,2,0,L|229:218,1,83.9999974365235
236,56,28301,1,0,0:0:0:0:
143,214,28457,1,0,0:0:0:0:
328,263,28614,2,0,L|334:155,1,83.9999974365235
236,56,28930,1,0,0:0:0:0:
143,214,29080,1,0,0:0:0:0:
236,56,29236,2,0,L|240:139,1,83.9999974365235
172,236,29547,1,0,0:0:0:0:
258,381,29703,2,0,L|253:297,1,83.9999974365235
151,141,30015,1,0,0:0:0:0:
254,298,30171,1,0,0:0:0:0:
151,141,30327,1,0,0:0:0:0:
254,298,30483,2,0,P|291:317|341:318,1,83.9999974365235
478,266,30798,1,0,0:0:0:0:
332,319,30956,2,0,P|291:317|254:298,1,83.9999974365235
180,229,31272,2,0,P|160:192|157:150,1,83.9999974365235
185,47,31588,1,0,0:0:0:0:
156,150,31746,2,0,L|127:249,1,83.9999974365235
279,153,32061,1,0,0:0:0:0:
399,151,32219,2,0,L|428:250,1,83.9999974365235
250,38,32535,2,0,L|151:67,1,83.9999974365235
271,275,32851,1,0,0:0:0:0:
328,21,33009,1,0,0:0:0:0:
255,357,33167,1,0,0:0:0:0:
169,61,33325,1,0,0:0:0:0:
271,275,33483,1,0,0:0:0:0:
361,112,33640,1,0,0:0:0:0:
198,298,33798,1,0,0:0:0:0:
132,128,33956,1,0,0:0:0:0:
325,177,34114,1,0,0:0:0:0:
325,177,34430,2,0,P|327:234|304:264,1,83.9999974365235
313,255,34746,1,0,0:0:0:0:
253,206,34904,1,0,0:0:0:0:
434,236,35061,1,0,0:0:0:0:
233,125,35219,1,0,0:0:0:0:
474,162,35377,1,0,0:0:0:0:
214,43,35535,2,0,L|236:136,1,83.9999974365235
272,282,35846,1,0,0:0:0:0:
336,155,36002,2,0,L|316:73,1,83.9999974365235
135,96,36314,2,0,L|115:14,1,83.9999974365235
115,14,36625,1,0,0:0:0:0:
161,185,36781,2,0,P|203:167|230:109,1,83.9999974365235
254,31,37093,1,0,0:0:0:0:
115,14,37249,2,0,L|135:96,1,83.9999974365235
250,225,37560,1,0,0:0:0:0:
250,225,37716,2,0,L|269:306,1,83.9999974365235
399,233,38028,2,0,L|379:151,1,83.9999974365235
239,75,38340,1,0,0:0:0:0:
250,225,38496,1,0,0:0:0:0:
379,151,38651,2,0,L|292:102,1,83.9999974365235
113,166,38963,1,0,0:0:0:0:
305,109,39119,1,0,0:0:0:0:
93,84,39275,2,0,L|113:166,1,83.9999974365235
214,236,39586,1,0,0:0:0:0:
305,109,39742,2,0,L|325:191,1,83.9999974365235
366,353,40054,1,0,0:0:0:0:
324,190,40210,1,0,0:0:0:0:
366,353,40366,1,0,0:0:0:0:
324,190,40522,2,0,P|291:157|247:150,1,85.3999964816286
136,211,40837,1,0,0:0:0:0:
249,231,40995,2,0,P|203:243|175:277,1,85.3999964816286
216,376,41311,1,0,0:0:0:0:
136,211,41469,1,0,0:0:0:0:
216,376,41627,1,0,0:0:0:0:
136,211,41785,2,0,P|170:171|179:123,1,85.3999964816286
137,27,42100,1,0,0:0:0:0:
283,132,42258,2,0,P|265:82|228:50,1,85.3999964816286
124,39,42573,1,0,0:0:0:0:
86,127,42732,1,0,0:0:0:0:
186,198,42890,1,0,0:0:0:0:
341,5,43048,1,0,0:0:0:0:
283,316,43206,1,0,0:0:0:0:
213,20,43364,1,0,0:0:0:0:
237,255,43522,1,0,0:0:0:0:
427,123,43679,1,0,0:0:0:0:
208,324,43837,1,0,0:0:0:0:
191,114,43995,1,0,0:0:0:0:
255,383,44153,1,0,0:0:0:0:
255,383,44469,1,0,0:0:0:0:
216,3,44627,1,0,0:0:0:0:
187,383,44785,1,0,0:0:0:0:
287,1,44943,1,0,0:0:0:0:
