osu file format v14

[General]
AudioFilename: audio.mp3
AudioLeadIn: 0
PreviewTime: 49241
Countdown: 0
SampleSet: Soft
StackLeniency: 0.3
Mode: 0
LetterboxInBreaks: 0
WidescreenStoryboard: 1

[Editor]
Bookmarks: 6015,15615,34815,49215,68415,78015,85215,87615,93315,95715,100665
DistanceSpacing: 0.8
BeatDivisor: 4
GridSize: 32
TimelineZoom: 3.299999

[Metadata]
Title:Super Driver
TitleUnicode:Super Driver
Artist:Will Stetson
ArtistUnicode:Will Stetson
Creator:Sotarks
Version:Rolniczy's Extra
Source:涼宮ハルヒの憂鬱
Tags:The Melancholy of Haruhi Suzumiya edit cut ver version akitoshi corinn -laura- nikakis snownino_ rolniczy greenhue armin a_r_m_i_n fieryrage eiri- ayyri realazy aya hirano cover
BeatmapID:1690359
BeatmapSetID:805224

[Difficulty]
HPDrainRate:5.6
CircleSize:3.6
OverallDifficulty:8.6
ApproachRate:9.3
SliderMultiplier:1.87
SliderTickRate:1

[Events]
//Background and Video events
0,0,"Alternative_BG.jpg",0,0
//Break Periods
//Storyboard Layer 0 (Background)
//Storyboard Layer 1 (Fail)
//Storyboard Layer 2 (Pass)
//Storyboard Layer 3 (Foreground)
//Storyboard Sound Samples

[TimingPoints]
1303,300,4,2,22,80,1,0
10603,-90.9090909090909,4,2,22,80,0,0
10828,-90.9090909090909,4,2,22,5,0,0
10903,-100,4,2,22,80,0,0
14203,-142.857142857143,4,2,22,80,0,0
15703,-125,4,2,22,80,0,0
20428,-125,4,2,22,5,0,0
20503,-111.111111111111,4,2,22,80,0,0
24403,-99.9999999999999,4,2,22,80,0,0
25303,-125,4,2,22,80,0,0
30028,-125,4,2,22,5,0,0
30103,-111.111111111111,4,2,22,80,0,0
34903,-99.9999999999999,4,2,22,80,0,0
36403,-90.9090909090909,4,2,22,80,0,0
44503,-83.3333333333333,4,2,22,80,0,0
45703,-90.9090909090909,4,2,22,80,0,0
46903,-90.9090909090909,4,2,22,80,0,0
48103,-90.9090909090909,4,2,22,80,0,0
49284,300,4,2,22,80,1,0
49284,-83.3333333333333,4,2,22,80,0,0
49509,-83.3333333333333,4,2,22,5,0,0
49584,-83.3333333333333,4,2,22,80,0,0
51909,-83.3333333333333,4,2,22,5,0,0
51984,-83.3333333333333,4,2,22,80,0,0
56709,-83.3333333333333,4,2,22,5,0,0
56784,-83.3333333333333,4,2,22,80,0,0
57009,-83.3333333333333,4,2,22,5,0,0
57084,-83.3333333333333,4,2,22,80,0,0
58884,-83.3333333333333,4,2,22,80,0,0
59109,-83.3333333333333,4,2,22,5,0,0
59184,-83.3333333333333,4,2,22,80,0,0
59484,-83.3333333333333,4,2,22,80,0,0
68409,-83.3333333333333,4,2,22,5,0,0
68484,-76.9230769230769,4,2,22,80,0,0
69084,-76.9230769230769,4,2,22,80,0,0
71109,-76.9230769230769,4,2,22,5,0,0
71184,-76.9230769230769,4,2,22,80,0,0
72084,-90.9090909090909,4,2,22,80,0,0
72684,-90.9090909090909,4,2,22,80,0,0
73209,-90.9090909090909,4,2,22,5,0,0
73284,-80,4,2,22,80,0,0
73884,-80,4,2,22,80,0,0
77484,-95.2380952380952,4,2,22,80,0,0
78084,-83.3333333333333,4,2,22,80,0,1
80484,-83.3333333333333,4,2,22,80,0,1
81684,-83.3333333333333,4,2,22,80,0,1
82284,-83.3333333333333,4,2,22,80,0,0
82884,-83.3333333333333,4,2,22,80,0,1
85284,-83.3333333333333,4,2,22,80,0,0
85884,-142.857142857143,4,2,22,80,0,0
86259,-142.857142857143,4,2,22,5,0,0
86334,-90.909090909091,4,2,22,80,0,0
87684,-100,4,2,22,80,0,0
92409,-100,4,2,22,5,0,0
92484,-100,4,2,22,80,0,0
95784,-250,4,2,22,80,0,0

[Colours]
Combo1 : 244,208,123
Combo2 : 168,87,28
Combo3 : 245,182,118
Combo4 : 250,146,174

[HitObjects]
167,121,1303,5,8,0:0:0:0:
186,299,1453,1,8,0:0:0:0:
235,70,1603,5,8,0:0:0:0:
254,248,1753,1,8,0:0:0:0:
303,20,1903,5,8,0:0:0:0:
303,20,2203,5,8,0:0:0:0:
110,44,2353,1,8,0:0:0:0:
360,97,2503,5,8,0:0:0:0:
167,121,2653,1,8,0:0:0:0:
421,177,2803,5,8,0:0:0:0:
205,216,3103,5,0,1:0:0:0:
205,216,3403,5,0,1:0:0:0:
41,339,3703,5,8,0:0:0:0:
133,109,3853,1,8,0:0:0:0:
134,306,4003,5,8,0:0:0:0:
42,76,4153,1,8,0:0:0:0:
41,339,4303,5,8,0:0:0:0:
41,339,4603,5,8,0:0:0:0:
221,197,4753,1,8,0:0:0:0:
47,180,4903,5,8,0:0:0:0:
235,330,5053,1,8,0:0:0:0:
287,111,5203,5,8,0:0:0:0:
360,278,5503,5,8,0:3:0:0:
476,142,5803,5,12,0:0:0:0:
287,111,6103,6,0,P|243:94|197:87,1,93.5,2|2,1:0|0:0,0:0:0:0:
127,296,6403,1,14,0:0:0:0:
305,209,6553,6,0,P|393:195|449:269,1,187,2|2,0:0|1:0,0:0:0:0:
268,353,7003,2,0,B|259:283|259:283|224:246|224:246|212:146,1,187,10|0,0:0|1:0,0:0:0:0:
105,198,7453,5,2,0:0:0:0:
287,111,7603,2,0,P|341:92|395:89,1,93.5,10|0,0:0|0:0,0:0:0:0:
93,49,7903,5,2,1:0:0:0:
277,117,8053,1,2,1:0:0:0:
95,205,8203,5,10,0:0:0:0:
267,121,8353,1,2,0:0:0:0:
93,49,8503,6,0,P|50:29|4:29,1,93.5,2|2,1:0|0:0,0:0:0:0:
204,172,8803,1,14,0:0:0:0:
52,243,8953,6,0,B|94:217|133:225|133:225|177:267|230:255,1,187,2|2,0:0|1:0,0:0:0:0:
107,302,9403,2,0,P|195:334|286:315,1,187,10|0,0:0|1:0,0:0:0:0:
204,172,9853,5,2,0:0:0:0:
342,219,10003,2,0,B|410:211|410:211|390:196,1,93.5,10|0,0:0|0:0,0:0:0:0:
424,94,10303,5,2,1:0:0:0:
378,331,10453,1,10,0:0:0:0:
314,135,10603,6,0,P|273:72|198:63,1,154.2750047081,10|0,0:0|0:0,0:0:0:0:
153,72,10903,6,0,L|370:28,1,187,2|14,1:0|0:0,0:0:0:0:
341,218,11353,6,0,P|343:130|424:94,1,187,2|2,0:0|1:0,0:0:0:0:
444,197,11803,6,0,L|289:93,1,187,10|0,0:0|1:0,0:0:0:0:
198,193,12253,5,2,0:0:0:0:
41,74,12403,2,0,L|48:200,1,93.5,10|0,0:0|0:0,0:0:0:0:
191,325,12703,6,0,L|198:199,1,93.5,2|2,1:0|1:0,0:0:0:0:
444,197,13003,2,0,L|318:190,1,93.5,10|2,0:0|0:0,0:0:0:0:
88,284,13303,5,4,1:0:0:0:
365,111,13453,2,0,L|459:117,1,93.5,8|8,0:0|0:0,0:0:0:0:
41,74,13753,5,0,1:0:0:0:
341,271,13903,2,0,L|434:276,1,93.5,8|0,0:0|1:0,0:0:0:0:
49,357,14203,6,0,B|97:377|143:346|143:346|190:372|238:361|238:361|279:353|316:329|360:360|360:360|339:381|296:376,1,392.699988015747,12|2,0:0|0:0,0:0:0:0:
298,194,15403,5,10,0:0:0:0:
482,64,15703,6,0,L|501:212,1,149.6,6|8,1:0|0:0,0:0:0:0:
501,212,16153,1,0,0:0:0:0:
374,59,16303,2,0,L|393:207,1,149.6,2|8,1:0|0:0,0:0:0:0:
393,207,16753,1,0,0:0:0:0:
272,54,16903,6,0,L|262:128,1,74.8,2|0,1:0|0:0,0:0:0:0:
240,330,17203,2,0,L|249:255,1,74.8,10|0,0:0|0:0,0:0:0:0:
118,176,17503,2,0,L|192:185,1,74.8,2|0,1:0|1:0,0:0:0:0:
394,208,17803,2,0,L|319:198,1,74.8,10|0,0:0|0:0,0:0:0:0:
81,255,18103,6,0,P|35:199|46:127,1,149.6,2|8,1:0|0:0,0:0:0:0:
169,124,18553,1,0,0:0:0:0:
104,29,18703,1,0,1:0:0:0:
222,23,18853,2,0,L|317:17,2,74.8,2|10|2,1:0|0:0|0:0,0:0:0:0:
177,273,19303,6,0,L|169:124,1,149.6,0|8,1:0|0:0,0:0:0:0:
4,308,19903,2,0,L|8:233,1,74.8,2|0,1:0|1:0,0:0:0:0:
169,124,20203,2,0,P|223:118|294:154,1,112.2,10|0,0:0|0:0,0:0:0:0:
299,178,20503,6,0,L|406:171,1,84.1499974319459,14|0,0:0|0:0,0:0:0:0:
88,314,20803,2,0,L|4:308,1,84.1499974319459,8|0,0:0|1:0,0:0:0:0:
322,318,21103,5,10,0:0:0:0:
87,204,21253,1,2,1:0:0:0:
317,95,21403,6,0,L|424:88,1,84.1499974319459,8|0,0:0|1:0,0:0:0:0:
180,54,21703,6,0,B|118:49|118:49|69:75|69:75|18:71,1,168.299994863892,8|8,0:0|0:0,0:0:0:0:
87,204,22153,1,0,1:0:0:0:
400,89,22303,6,0,L|317:95,1,84.1499974319459,10|0,0:0|1:0,0:0:0:0:
87,204,22603,2,0,L|170:209,1,84.1499974319459,10|0,0:0|1:0,0:0:0:0:
459,285,22903,6,0,P|425:237|333:305,1,168.299994863892,14|10,0:0|0:0,0:0:0:0:
288,373,23353,1,2,1:0:0:0:
209,146,23503,5,8,0:0:0:0:
225,284,23653,1,2,1:0:0:0:
317,95,23803,5,8,0:0:0:0:
215,305,23953,1,2,1:0:0:0:
206,122,24103,6,0,P|206:78|212:38,1,84.1499974319459,12|0,0:0|1:0,0:0:0:0:
112,308,24403,2,0,P|111:224|85:122,1,187,12|14,0:0|0:0,0:0:0:0:
6,328,24853,5,8,0:0:0:0:
215,270,25003,1,10,0:0:0:0:
216,279,25078,1,8,0:0:0:0:
216,287,25153,1,8,0:0:0:0:
216,296,25228,1,8,0:0:0:0:
215,305,25303,6,0,B|263:317|291:289|291:289|359:294,1,149.6,0|12,1:0|0:0,0:0:0:0:
458,240,25753,1,0,0:0:0:0:
215,187,25903,2,0,B|177:203|177:203|316:218,1,149.6,2|8,1:0|0:0,0:0:0:0:
197,56,26353,1,0,0:0:0:0:
102,211,26503,6,0,L|176:204,1,74.8,2|0,1:0|0:0,0:0:0:0:
388,131,26803,2,0,L|313:124,1,74.8,10|0,0:0|0:0,0:0:0:0:
103,219,27103,2,0,L|177:208,1,74.8,2|0,1:0|1:0,0:0:0:0:
384,124,27403,2,0,L|309:121,1,74.8,10|0,0:0|0:0,0:0:0:0:
104,226,27703,6,0,P|174:208|211:145,1,149.6,2|8,1:0|0:0,0:0:0:0:
239,48,28153,1,0,0:0:0:0:
281,218,28303,1,0,1:0:0:0:
211,145,28453,2,0,L|137:119,2,74.8,2|10|2,1:0|0:0|0:0,0:0:0:0:
346,254,28903,6,0,B|382:236|382:236|346:198|279:217,1,149.6,0|8,1:0|0:0,0:0:0:0:
183,240,29353,1,0,0:0:0:0:
274,369,29503,2,0,L|275:285,1,74.8,2|0,1:0|1:0,0:0:0:0:
111,195,29803,2,0,P|97:249|122:298,1,112.2,10|0,0:0|0:0,0:0:0:0:
150,372,30103,6,0,P|144:331|121:297,1,84.1499974319459,14|0,0:0|0:0,0:0:0:0:
28,180,30403,2,0,P|46:141|79:116,1,84.1499974319459,8|0,0:0|1:0,0:0:0:0:
0,285,30703,5,10,0:0:0:0:
211,145,30853,1,2,1:0:0:0:
274,294,31003,6,0,L|357:284,1,84.1499974319459,8|0,0:0|1:0,0:0:0:0:
476,121,31303,6,0,B|447:94|447:94|402:151|462:236,1,168.299994863892,8|8,0:0|0:0,0:0:0:0:
463,331,31753,1,0,1:0:0:0:
447,95,31903,6,0,P|412:70|370:70,1,84.1499974319459,10|0,0:0|1:0,0:0:0:0:
204,233,32203,2,0,P|238:257|280:257,1,84.1499974319459,10|0,0:0|1:0,0:0:0:0:
117,234,32503,6,0,B|56:231|-4:257|-4:257|46:262,1,168.299994863892,6|10,1:0|0:0,0:0:0:0:
159,158,32953,6,0,L|166:74,1,84.1499974319459,2|0,0:0|1:0,0:0:0:0:
279,257,33253,2,0,L|271:173,2,84.1499974319459,2|8|2,1:0|0:0|0:0,0:0:0:0:
143,336,33703,5,0,1:0:0:0:
159,158,33853,1,0,1:0:0:0:
234,329,34003,6,0,B|294:354|343:312|343:312|383:317|383:317|360:340,1,168.299994863892,12|8,0:0|3:0,0:0:0:0:
441,149,34453,1,0,1:0:0:0:
440,161,34528,1,0,1:0:0:0:
439,173,34603,2,0,P|404:130|348:117,1,84.1499974319459,8|8,0:0|0:0,0:0:0:0:
366,115,34828,1,8,0:0:0:0:
353,112,34903,6,0,B|415:101|438:66,1,93.5,14|2,0:0|0:0,0:0:0:0:
342,218,35203,5,10,0:0:0:0:
349,30,35353,1,2,0:0:0:0:
429,279,35503,5,8,0:0:0:0:
257,156,35653,1,2,1:0:0:0:
439,173,35803,5,10,0:0:0:0:
246,261,35953,1,2,1:0:0:0:
353,112,36103,5,8,0:0:0:0:
332,322,36253,1,2,1:0:0:0:
257,156,36403,6,0,P|211:137|124:143,1,102.850003138733,10|0,0:0|1:0,0:0:0:0:
353,112,36703,2,0,P|397:80|475:69,1,102.850003138733,10|0,0:0|1:0,0:0:0:0:
274,60,37003,5,10,0:0:0:0:
350,221,37153,1,2,1:0:0:0:
89,196,37303,6,0,P|70:137|181:39,1,205.700006277466,10|10,0:0|0:0,0:0:0:0:
27,281,37753,1,0,1:0:0:0:
183,133,37903,5,10,0:0:0:0:
174,266,38053,1,2,1:0:0:0:
274,60,38203,5,10,0:0:0:0:
350,221,38353,1,2,1:0:0:0:
457,77,38503,6,0,B|492:52|492:52|524:106|516:161|474:200,1,205.700006277466,8|8,0:0|0:0,0:0:0:0:
279,309,38953,1,0,1:0:0:0:
474,200,39103,5,8,0:0:0:0:
350,221,39253,1,0,1:0:0:0:
457,77,39403,6,0,P|428:35|381:13,1,102.850003138733,8|0,0:0|1:0,0:0:0:0:
298,283,39703,5,10,0:0:0:0:
370,106,39853,1,2,1:0:0:0:
374,299,40003,5,10,0:0:0:0:
285,93,40153,2,0,P|245:60|172:46,1,102.850003138733,2|8,0:0|0:0,0:0:0:0:
292,296,40453,5,2,1:0:0:0:
370,106,40603,1,10,0:0:0:0:
220,247,40753,6,0,P|162:259|86:240,1,102.850003138733,2|8,1:0|0:0,0:0:0:0:
433,184,41053,1,2,0:0:0:0:
181,150,41203,6,0,L|56:128,1,102.850003138733,10|0,0:0|1:0,0:0:0:0:
370,106,41503,2,0,L|495:84,1,102.850003138733,10|2,0:0|1:0,0:0:0:0:
181,150,41803,5,10,0:0:0:0:
294,22,41953,1,2,1:0:0:0:
329,208,42103,6,0,B|267:200|267:200|199:236|199:236|106:222,1,205.700006277466,10|8,0:0|0:0,0:0:0:0:
282,108,42553,1,0,0:0:0:0:
284,286,42703,5,8,0:0:0:0:
282,108,42853,1,0,1:0:0:0:
145,241,43003,5,8,0:0:0:0:
282,108,43153,1,0,1:0:0:0:
80,138,43303,6,0,B|-3:125|32:199|91:174|104:102|211:160,1,205.700006277466,14|8,0:0|0:0,0:0:0:0:
383,87,43753,6,0,P|333:29|201:49,1,205.700006277466,2|0,0:0|1:0,0:0:0:0:
181,146,44203,6,0,B|230:168|230:168|279:156,1,102.850003138733,10|0,0:0|0:0,0:0:0:0:
50,310,44503,6,0,P|126:238|222:282,2,224.399993151856,14|8|8,0:0|0:0|0:0,0:0:0:0:
279,377,45253,5,2,1:0:0:0:
386,347,45403,2,0,P|355:305|271:272,1,112.199996575928,10|2,0:0|1:0,0:0:0:0:
169,241,45703,6,0,L|68:217,1,102.850003138733,8|0,0:0|1:0,0:0:0:0:
341,144,46003,2,0,L|441:167,1,102.850003138733,8|0,0:0|1:0,0:0:0:0:
208,106,46303,6,0,L|231:5,1,102.850003138733,8|0,0:0|1:0,0:0:0:0:
304,277,46603,2,0,L|280:377,1,102.850003138733,8|0,0:0|1:0,0:0:0:0:
248,90,46903,5,14,0:0:0:0:
260,291,47053,1,0,1:0:0:0:
287,74,47203,5,14,0:0:0:0:
218,306,47353,1,0,1:0:0:0:
341,71,47503,5,14,0:0:0:0:
168,306,47653,1,0,1:0:0:0:
399,92,47803,5,14,0:0:0:0:
109,285,47953,1,0,1:0:0:0:
456,190,48103,6,0,P|412:215|361:213,1,102.850003138733,14|0,0:0|0:0,0:0:0:0:
241,45,48403,1,10,0:0:0:0:
248,49,48478,1,0,1:0:0:0:
255,54,48553,1,10,0:0:0:0:
261,60,48628,1,0,1:0:0:0:
266,66,48703,1,8,0:0:0:0:
270,73,48778,1,8,0:0:0:0:
274,80,48853,1,8,0:0:0:0:
278,88,48928,1,8,0:0:0:0:
279,95,49003,6,0,L|284:147,1,51.4250015693665,8|8,0:0|0:0,0:0:0:0:
201,241,49153,2,0,L|197:293,1,51.4250015693665,8|8,0:0|0:0,0:0:0:0:
32,330,49284,6,0,B|10:278|29:231|58:199|58:199|92:257,1,168.299994863892,14|0,0:0|0:0,0:0:0:0:
93,238,49584,2,0,P|146:252|201:241,1,112.199996575928,10|0,0:0|1:0,0:0:0:0:
376,296,49884,6,0,L|387:185,1,112.199996575928,10|0,0:0|1:0,0:0:0:0:
284,147,50184,1,10,0:0:0:0:
130,340,50334,6,0,P|176:369|231:367,1,112.199996575928,2|8,1:0|0:0,0:0:0:0:
488,212,50634,2,0,P|442:182|387:185,1,112.199996575928,2|8,1:0|0:0,0:0:0:0:
201,240,50934,6,0,P|254:253|306:233,1,112.199996575928,2|8,1:0|0:0,0:0:0:0:
395,97,51234,5,2,1:0:0:0:
378,259,51384,2,0,P|398:313|440:355,1,112.199996575928,10|2,0:0|1:0,0:0:0:0:
284,147,51684,6,0,B|233:133|233:133|108:180,1,168.299994863892,14|0,0:0|0:0,0:0:0:0:
100,196,51984,2,0,L|221:151,1,112.199996575928,10|0,0:0|1:0,0:0:0:0:
77,329,52284,6,0,P|109:284|162:267,1,112.199996575928,10|0,0:0|1:0,0:0:0:0:
378,259,52584,1,10,0:0:0:0:
266,366,52734,6,0,L|132:347,1,112.199996575928,2|8,1:0|0:0,0:0:0:0:
311,180,53034,2,0,P|380:155|481:272,1,224.399993151856,2|0,1:0|1:0,0:0:0:0:
378,259,53484,5,10,0:0:0:0:
451,71,53634,1,0,1:0:0:0:
377,259,53784,6,0,P|328:280|270:275,1,112.199996575928,10|0,0:0|1:0,0:0:0:0:
55,274,54084,6,0,B|130:287|130:287|181:260|181:260|290:278,1,224.399993151856,14|10,0:0|0:0,0:0:0:0:
116,201,54534,1,0,1:0:0:0:
199,346,54684,6,0,L|309:364,1,112.199996575928,10|0,0:0|1:0,0:0:0:0:
116,201,54984,2,0,L|6:183,1,112.199996575928,10|0,0:0|1:0,0:0:0:0:
203,57,55284,5,10,0:0:0:0:
163,132,55434,2,0,L|52:113,1,112.199996575928,2|8,1:0|0:0,0:0:0:0:
199,208,55734,6,0,L|310:190,1,112.199996575928,2|8,1:0|0:0,0:0:0:0:
157,289,56034,2,0,L|46:270,1,112.199996575928,2|8,1:0|0:0,0:0:0:0:
173,373,56334,5,2,1:0:0:0:
391,245,56484,6,0,B|413:210|413:210|369:189|317:220|310:272,1,168.299994863892,8|0,0:0|0:0,0:0:0:0:
319,347,56784,6,0,P|280:278|172:228,1,168.299994863892,8|0,0:0|0:0,0:0:0:0:
163,172,57084,6,0,B|197:158|197:158|237:163|237:163|268:148,1,112.199996575928,8|0,0:0|1:0,0:0:0:0:
436,79,57384,2,0,B|405:94|405:94|365:89|365:89|331:103,1,112.199996575928,10|0,0:0|1:0,0:0:0:0:
205,233,57684,5,14,0:0:0:0:
330,103,57834,2,0,P|328:49|299:0,1,112.199996575928,2|8,1:0|0:0,0:0:0:0:
312,259,58134,6,0,P|340:213|390:185,1,112.199996575928,2|12,1:0|0:0,0:0:0:0:
205,233,58434,1,0,1:0:0:0:
419,275,58584,5,8,0:0:0:0:
268,147,58734,1,0,1:0:0:0:
457,176,58884,6,0,B|388:185|388:185|348:156|348:156|299:161,1,168.299994863892,14|0,0:0|0:0,0:0:0:0:
268,147,59184,2,0,L|156:132,1,112.199996575928,10|0,0:0|1:0,0:0:0:0:
354,52,59484,6,0,L|465:37,1,112.199996575928,10|0,0:0|1:0,0:0:0:0:
234,29,59784,1,10,0:0:0:0:
205,233,59934,6,0,P|259:244|314:231,1,112.199996575928,2|8,1:0|0:0,0:0:0:0:
125,25,60234,2,0,P|72:10|18:23,1,112.199996575928,2|8,1:0|0:0,0:0:0:0:
205,233,60534,6,0,L|219:121,1,112.199996575928,2|8,1:0|0:0,0:0:0:0:
125,25,60834,5,2,1:0:0:0:
16,254,60984,2,0,P|46:300|98:319,1,112.199996575928,10|2,0:0|1:0,0:0:0:0:
433,344,61284,6,0,P|372:286|290:274,1,168.299994863892,14|0,0:0|0:0,0:0:0:0:
244,306,61584,2,0,B|342:240,1,112.199996575928,10|0,0:0|1:0,0:0:0:0:
447,114,61884,6,0,B|353:51,1,112.199996575928,10|0,0:0|1:0,0:0:0:0:
461,211,62184,1,10,0:0:0:0:
287,164,62334,6,0,B|233:161|233:161|173:184,1,112.199996575928,2|8,1:0|0:0,0:0:0:0:
413,42,62634,2,0,B|368:14|368:14|254:49|254:49|197:17,1,224.399993151856,2|0,1:0|1:0,0:0:0:0:
115,247,63084,6,0,B|170:269|170:269|221:256,1,112.199996575928,10|0,0:0|1:0,0:0:0:0:
394,155,63384,2,0,B|339:177|339:177|287:164,1,112.199996575928,10|0,0:0|1:0,0:0:0:0:
25,341,63684,6,0,B|59:343|86:322|86:322|168:379|257:327,1,224.399993151856,14|10,0:0|0:0,0:0:0:0:
181,155,64134,1,0,0:0:0:0:
306,384,64284,6,0,P|320:327|283:266,1,112.199996575928,10|0,0:0|1:0,0:0:0:0:
181,155,64584,2,0,L|313:133,1,112.199996575928,10|0,0:0|1:0,0:0:0:0:
84,229,64884,5,10,0:0:0:0:
166,77,65034,6,0,L|276:58,1,112.199996575928,2|8,1:0|0:0,0:0:0:0:
402,154,65334,2,0,L|291:135,1,112.199996575928,2|8,1:0|0:0,0:0:0:0:
195,238,65634,6,0,L|305:219,1,112.199996575928,2|8,1:0|0:0,0:0:0:0:
276,57,65934,1,2,1:0:0:0:
111,39,66084,6,0,B|47:6|59:102|139:85|183:-1|254:52,1,224.399993151856,8|8,0:0|0:0,0:0:0:0:
383,49,66534,1,0,1:0:0:0:
131,164,66684,5,8,0:0:0:0:
291,135,66834,1,0,1:0:0:0:
74,223,66984,6,0,P|51:142|72:104,1,112.199996575928,10|0,0:0|1:0,0:0:0:0:
393,65,67284,5,10,3:0:0:0:
137,150,67434,1,10,3:0:0:0:
378,180,67584,6,0,P|432:200|472:257,1,112.199996575928,10|10,3:0|3:0,0:0:0:0:
274,272,67884,6,0,B|329:290|329:290|381:266,1,112.199996575928,8|8,3:0|3:0,0:0:0:0:
238,195,68184,6,0,P|189:260|219:336,1,168.299994863892,12|0,0:0|0:0,0:0:0:0:
229,349,68484,5,14,0:0:0:0:
378,267,68634,1,2,1:0:0:0:
232,178,68784,6,0,P|168:162|89:172,1,121.549994435883,10|0,0:0|1:0,0:0:0:0:
20,276,69084,5,10,0:0:0:0:
225,167,69234,1,2,1:0:0:0:
32,294,69384,5,10,0:0:0:0:
212,146,69534,2,0,P|245:96|248:31,1,121.549994435883,2|8,1:0|0:0,0:0:0:0:
47,309,69834,5,2,1:0:0:0:
196,130,69984,2,0,P|219:74|209:10,1,121.549994435883,10|0,0:0|1:0,0:0:0:0:
140,269,70284,6,0,P|120:326|132:384,1,121.549994435883,10|0,0:0|1:0,0:0:0:0:
284,156,70584,5,10,0:0:0:0:
237,299,70734,1,2,1:0:0:0:
375,173,70884,6,0,P|354:96|232:80,1,182.324991653824,10|0,0:0|0:0,0:0:0:0:
232,74,71184,2,0,B|173:81|173:81|103:50,1,121.549994435883,10|0,0:0|1:0,0:0:0:0:
100,221,71484,5,10,0:0:0:0:
284,156,71634,1,2,1:0:0:0:
99,181,71784,5,10,0:0:0:0:
299,188,71934,1,2,1:0:0:0:
155,101,72084,6,0,B|111:87|48:105,1,102.850003138733,8|8,0:0|3:0,0:0:0:0:
1,181,72309,1,8,3:0:0:0:
1,181,72384,2,0,B|45:195|45:195|108:177,1,102.850003138733,8|0,0:0|1:0,0:0:0:0:
284,156,72684,5,8,0:0:0:0:
275,157,72759,1,0,1:0:0:0:
267,159,72834,1,0,1:0:0:0:
259,160,72909,1,0,1:0:0:0:
250,162,72984,2,0,P|302:103|388:140,1,154.2750047081,12|0,0:0|0:0,0:0:0:0:
382,128,73284,5,14,0:0:0:0:
271,0,73434,1,2,1:0:0:0:
250,162,73584,6,0,P|248:227|293:282,1,116.875,10|0,0:0|1:0,0:0:0:0:
177,99,73884,5,10,0:0:0:0:
148,255,74034,1,2,1:0:0:0:
96,133,74184,5,10,0:0:0:0:
140,281,74334,2,0,P|132:342|90:391,1,116.875,2|8,1:0|0:0,0:0:0:0:
320,121,74634,5,2,1:0:0:0:
275,269,74784,2,0,P|283:330|325:379,1,116.875,10|0,0:0|1:0,0:0:0:0:
240,95,75084,6,0,P|213:39|158:5,1,116.875,10|0,0:0|1:0,0:0:0:0:
340,208,75384,5,10,0:0:0:0:
169,155,75534,1,2,1:0:0:0:
320,121,75684,6,0,P|395:110|445:123,1,116.875,10|0,0:0|1:0,0:0:0:0:
235,253,75984,2,0,P|283:220|340:208,1,116.875,10|0,0:0|1:0,0:0:0:0:
203,373,76284,5,10,0:0:0:0:
373,324,76434,1,2,1:0:0:0:
196,360,76584,5,10,0:0:0:0:
367,312,76734,1,2,1:0:0:0:
188,342,76884,6,0,B|128:346|128:346|73:375,1,116.875,8|0,0:0|0:0,0:0:0:0:
298,230,77184,5,8,0:0:0:0:
315,230,77259,1,8,0:0:0:0:
332,230,77334,1,8,0:0:0:0:
349,230,77409,1,8,0:0:0:0:
366,229,77484,6,0,P|414:244|456:294,1,98.1749970039369,8|8,3:0|3:0,0:0:0:0:
232,277,77784,5,8,0:0:0:0:
221,258,77859,1,8,0:0:0:0:
216,237,77934,1,8,0:0:0:0:
217,215,78009,1,8,0:0:0:0:
226,196,78084,5,2,1:0:0:0:
105,268,78234,1,10,0:0:0:0:
241,177,78384,5,2,1:0:0:0:
58,179,78534,1,8,0:0:0:0:
263,158,78684,5,2,1:0:0:0:
71,50,78834,1,10,0:0:0:0:
298,230,78984,5,2,1:0:0:0:
178,68,79134,2,0,P|127:48|62:52,1,112.199996575928,10|0,0:0|1:0,0:0:0:0:
206,288,79434,5,10,0:0:0:0:
286,103,79584,2,0,P|277:48|241:-4,1,112.199996575928,2|8,1:0|0:0,0:0:0:0:
298,229,79884,6,0,P|340:193|366:144,1,112.199996575928,2|8,1:0|0:0,0:0:0:0:
79,149,80184,5,2,1:0:0:0:
206,288,80334,1,10,0:0:0:0:
178,68,80484,6,0,B|131:46|131:46|71:49,1,112.199996575928,2|8,1:0|0:0,0:0:0:0:
206,288,80784,5,2,1:0:0:0:
261,108,80934,1,8,0:0:0:0:
267,362,81084,5,2,1:0:0:0:
212,182,81234,1,10,0:0:0:0:
94,299,81384,6,0,L|206:288,1,112.199996575928,2|10,1:0|0:0,0:0:0:0:
411,193,81684,6,0,L|299:181,1,112.199996575928,0|8,1:0|0:0,0:0:0:0:
100,185,81984,6,0,P|112:131|109:75,1,112.199996575928,2|8,1:0|0:0,0:0:0:0:
206,288,82284,2,0,P|193:233|196:177,1,112.199996575928,2|8,1:0|0:0,0:0:0:0:
200,161,82509,1,8,0:0:0:0:
208,146,82584,1,10,0:0:0:0:
219,133,82659,1,8,0:0:0:0:
231,121,82734,1,8,0:0:0:0:
246,113,82809,1,8,0:0:0:0:
262,107,82884,5,2,1:0:0:0:
352,304,83034,1,10,0:0:0:0:
163,199,83184,5,2,1:0:0:0:
377,172,83334,1,8,0:0:0:0:
219,320,83484,5,2,1:0:0:0:
266,83,83634,1,10,0:0:0:0:
362,325,83784,5,2,1:0:0:0:
142,187,83934,2,0,B|87:174|87:174|18:186,1,112.199996575928,10|0,0:0|1:0,0:0:0:0:
400,168,84234,5,10,0:0:0:0:
201,336,84384,2,0,B|146:347|146:347|76:337,1,112.199996575928,2|8,1:0|0:0,0:0:0:0:
271,60,84684,6,0,B|328:39|396:59,1,112.199996575928,2|8,1:0|0:0,0:0:0:0:
126,55,84984,5,10,0:0:0:0:
420,165,85134,1,2,1:0:0:0:
31,183,85284,5,10,0:0:0:0:
31,183,85884,6,0,B|93:150|115:223|193:188,1,163.624995006561,2|0,1:0|0:0,0:0:0:0:
255,167,86334,6,0,B|188:190|188:190|161:245|161:245|124:248|88:273,1,205.700006277466,14|8,0:0|0:0,0:0:0:0:
329,200,86784,5,8,0:0:0:0:
154,116,86934,1,8,0:0:0:0:
251,252,87084,5,8,0:0:0:0:
261,79,87234,1,8,0:0:0:0:
274,66,87309,1,8,0:0:0:0:
291,60,87384,1,8,0:0:0:0:
309,55,87459,1,8,0:0:0:0:
330,55,87534,1,8,0:0:0:0:
348,58,87609,1,8,0:0:0:0:
366,64,87684,6,0,P|441:74|488:46,1,93.5,2|2,1:0|0:0,0:0:0:0:
321,138,87984,1,14,0:0:0:0:
189,31,88134,6,0,P|100:45|62:126,1,187,2|2,0:0|1:0,0:0:0:0:
186,208,88584,2,0,B|110:191|110:191|74:210|74:210|-27:187,1,187,10|0,0:0|1:0,0:0:0:0:
154,116,89034,5,2,0:0:0:0:
121,278,89184,2,0,P|114:323|131:367,1,93.5,10|0,0:0|0:0,0:0:0:0:
278,218,89484,6,0,L|185:207,1,93.5,2|2,1:0|1:0,0:0:0:0:
294,303,89784,2,0,L|201:313,1,93.5,10|2,0:0|0:0,0:0:0:0:
487,366,90084,5,2,1:0:0:0:
402,382,90234,1,2,0:0:0:0:
491,282,90384,5,14,0:0:0:0:
405,297,90534,2,0,B|351:272|331:217|360:173|360:173|406:209,1,187,2|2,0:0|1:0,0:0:0:0:
432,122,90984,6,0,P|348:88|275:141,1,187,10|0,0:0|0:0,0:0:0:0:
272,259,91434,5,2,0:0:0:0:
159,192,91584,2,0,P|114:204|79:234,1,93.5,10|0,0:0|0:0,0:0:0:0:
388,195,91884,5,2,1:0:0:0:
163,200,92034,1,10,0:0:0:0:
392,203,92184,6,0,P|466:200|514:149,1,140.25,10|0,0:0|0:0,0:0:0:0:
503,127,92484,6,0,B|436:107|436:107|393:115|393:115|322:93,1,187,2|14,1:0|0:0,0:0:0:0:
237,83,92934,6,0,P|295:15|384:31,1,187,2|2,0:0|1:0,0:0:0:0:
497,209,93384,6,0,B|465:211|430:189|430:189|387:197|387:197|362:181|316:175,1,187,10|0,0:0|0:0,0:0:0:0:
164,173,93834,5,2,0:0:0:0:
312,289,93984,2,0,L|405:294,1,93.5,10|0,0:0|0:0,0:0:0:0:
164,173,94284,6,0,L|71:179,1,93.5,2|2,1:0|1:0,0:0:0:0:
237,83,94584,2,0,L|330:77,1,93.5,10|2,0:0|0:0,0:0:0:0:
127,66,94884,5,0,0:0:0:0:
71,179,95034,2,0,P|56:231|65:272,1,93.5,8|8,0:0|0:0,0:0:0:0:
237,83,95334,5,0,1:0:0:0:
305,199,95484,2,0,P|319:251|310:292,1,93.5,8|0,0:0|1:0,0:0:0:0:
470,122,95784,6,0,B|493:78|473:38|473:38|416:89|414:161|451:242|451:242|377:174|226:163|170:287|187:345|187:345|216:292|194:157|52:245|23:112|54:79|110:42|182:44|189:118|214:150|114:191|84:257|84:257|51:233|35:206|35:206|36:240|21:272|21:272,1,1346.4,12|0,0:0|0:0,0:0:0:0:
