osu file format v14

[General]
AudioFilename: audio.mp3
AudioLeadIn: 0
PreviewTime: -1
Countdown: 0
SampleSet: None
StackLeniency: 0.7
Mode: 0
LetterboxInBreaks: 0
WidescreenStoryboard: 0

[Editor]
DistanceSpacing: 1
BeatDivisor: 4
GridSize: 8
TimelineZoom: 2.4

[Metadata]
Title:Snow Halation (feat. BeasttrollMC)
TitleUnicode:Snow Halation (feat. BeasttrollMC)
Artist:Will Stetson
ArtistUnicode:Will Stetson
Creator:Swiishy_
Version:Christmas
Source:
Tags:
BeatmapID:2286653
BeatmapSetID:1094150

[Difficulty]
HPDrainRate:8
CircleSize:4
OverallDifficulty:9
ApproachRate:9.5
SliderMultiplier:1.4
SliderTickRate:1

[Events]
//Background and Video events
0,0,"snow halation 2.png",0,0
//Break Periods
//Storyboard Layer 0 (Background)
//Storyboard Layer 1 (Fail)
//Storyboard Layer 2 (Pass)
//Storyboard Layer 3 (Foreground)
//Storyboard Layer 4 (Overlay)
//Storyboard Sound Samples

[TimingPoints]
31,346.820809248555,3,2,22,32,1,0
31,-100,3,2,22,32,0,0
131,-100,3,2,22,32,0,0
738,346.820809248555,4,2,22,42,1,0
738,-100,4,2,22,32,0,0
9408,-62.5,4,2,22,32,0,0
10448,-192.307692307692,4,2,22,32,0,0
13050,-66.6666666666667,4,2,22,32,0,0
13223,-138.888888888889,4,2,22,32,0,0
17385,-68.9655172413793,4,2,22,32,0,0
20333,-90.9090909090909,4,2,22,32,0,0
22934,-138.888888888889,4,2,22,32,0,0
23281,-161.290322580645,4,2,22,32,0,0
23628,-58.1395348837209,4,2,22,32,0,0
24321,-108.695652173913,4,2,22,32,0,0
33252,-161.290322580645,4,2,22,32,0,0
33339,-138.888888888889,4,2,22,32,0,0
33599,-138.888888888889,4,2,22,32,0,0
33685,-121.951219512195,4,2,22,32,0,0
33946,-121.951219512195,4,2,22,32,0,0
34032,-108.695652173913,4,2,22,32,0,0
34292,-108.695652173913,4,2,22,32,0,0
34379,-98.0392156862745,4,2,22,32,0,0
34639,-98.0392156862745,4,2,22,32,0,0
34726,-98.0392156862745,4,2,22,32,0,0
35420,-108.695652173913,4,2,22,32,0,0
40969,-98.0392156862745,4,2,22,32,0,0
48599,-98.0392156862745,4,2,22,32,0,1
51200,-98.0392156862745,4,2,22,32,0,0
51720,-98.0392156862745,4,2,22,32,0,0
52067,-89.2857142857143,4,2,22,32,0,0
74264,-108.695652173913,4,2,22,32,0,0
81547,-108.695652173913,4,2,22,32,0,0
82240,-108.695652173913,4,2,22,32,0,0
82587,-98.0392156862745,4,2,22,32,0,0
93339,-54.9450549450549,4,2,22,32,0,1
104437,-117.647058823529,4,2,22,32,0,0

[HitObjects]
83,91,31,5,0,0:0:0:0:
90,197,204,2,0,P|138:244|161:246,1,70
192,127,551,1,0,0:0:0:0:
339,274,738,6,0,P|368:233|363:210,1,70
181,253,1084,1,0,0:0:0:0:
181,253,1258,2,0,P|149:286|138:321,1,70
433,320,1605,1,0,0:0:0:0:
296,137,1778,2,0,P|307:101|292:72,1,70
96,176,2298,5,0,0:0:0:0:
96,176,2472,1,0,0:0:0:0:
347,267,2645,1,0,0:0:0:0:
246,96,2818,2,0,P|293:96|359:159,1,140
136,254,3339,5,0,0:0:0:0:
266,321,3512,2,0,P|321:317|336:296,1,70
267,182,3859,1,0,0:0:0:0:
417,112,4032,1,0,0:0:0:0:
263,66,4206,6,0,P|217:70|177:90,1,70
330,253,4553,1,0,0:0:0:0:
96,240,4726,1,0,0:0:0:0:
314,62,4899,2,0,B|396:92|392:202,1,140
184,248,5593,5,0,0:0:0:0:
184,248,5766,1,0,0:0:0:0:
170,91,5940,1,0,0:0:0:0:
389,142,6113,2,0,P|388:173|376:217,1,70
112,71,6460,5,0,0:0:0:0:
112,71,6633,1,0,0:0:0:0:
128,244,6807,1,0,0:0:0:0:
253,144,6980,1,0,0:0:0:0:
398,192,7327,5,0,0:0:0:0:
398,192,7501,2,0,P|406:124|349:91,1,140
148,77,8368,6,0,P|113:105|113:150,1,70
87,280,8714,2,0,P|123:325|148:312,1,70
293,238,9061,1,0,0:0:0:0:
142,206,9235,1,0,0:0:0:0:
316,143,9408,2,0,P|214:89|174:94,1,112
218,294,9755,1,0,0:0:0:0:
256,191,11142,5,0,0:0:0:0:
256,192,11229,12,0,12356,0:0:0:0:
130,91,12529,5,0,0:0:0:0:
107,214,12876,1,0,0:0:0:0:
107,214,13050,2,0,P|154:277|209:300,1,105.000004005432
277,115,13396,1,0,0:0:0:0:
385,288,13570,2,0,P|417:261|419:240,1,50.4000012304688
180,220,13917,5,0,0:0:0:0:
341,80,14090,1,0,0:0:0:0:
401,205,14264,2,0,P|371:218|334:214,1,50.4000012304688
341,310,14610,2,0,P|249:296|235:277,1,100.800002460938
155,266,15304,5,0,0:0:0:0:
301,194,15477,1,0,0:0:0:0:
161,111,15651,1,0,0:0:0:0:
161,111,15824,2,0,P|269:59|373:113,1,226.80000553711
408,193,16865,5,0,0:0:0:0:
260,333,17038,1,0,0:0:0:0:
281,183,17211,1,0,0:0:0:0:
129,304,17385,2,0,P|80:306|68:248,1,100.800002460938
131,134,17732,1,0,0:0:0:0:
131,134,17905,2,0,P|156:78|204:64,1,101.500003097534
237,231,18252,1,0,0:0:0:0:
291,79,18425,6,0,B|374:113|373:175,1,101.500003097534
288,284,18772,1,0,0:0:0:0:
190,116,18946,1,0,0:0:0:0:
137,275,19119,2,0,P|67:217|67:190,1,101.500003097534
285,143,19466,5,0,0:0:0:0:
396,239,19639,2,0,P|386:295|346:308,1,101.500003097534
246,58,19986,1,0,0:0:0:0:
396,189,20333,2,0,B|393:282|344:304|302:306,1,152.250004646301
256,192,20853,12,0,21633,0:0:0:0:
155,84,22240,5,0,0:0:0:0:
359,258,22414,1,0,0:0:0:0:
121,303,22934,5,0,0:0:0:0:
350,107,23107,1,0,0:0:0:0:
128,79,23281,5,0,0:0:0:0:
128,79,23368,1,0,0:0:0:0:
128,79,23454,1,0,0:0:0:0:
128,79,23541,1,0,0:0:0:0:
128,79,23628,2,0,P|194:63|233:103,1,120.400001837158
396,61,23974,5,0,0:0:0:0:
348,215,24148,2,0,B|341:304|265:288,1,120.400001837158
269,81,24495,1,0,0:0:0:0:
115,104,24668,1,0,0:0:0:0:
115,104,24842,2,0,B|168:30|247:62,1,128.79999567627
157,196,25362,5,0,0:0:0:0:
268,312,25535,1,0,0:0:0:0:
351,99,25709,2,0,P|415:135|413:208,1,128.79999567627
343,313,26229,1,0,0:0:0:0:
270,158,26402,2,0,P|232:183|234:215,1,64.3999978381348
140,134,26749,2,0,P|115:182|119:212,1,64.3999978381348
396,246,27096,1,0,0:0:0:0:
156,314,27269,1,0,0:0:0:0:
240,90,27443,2,0,B|279:59|325:80|351:108,1,96.5999967572023
281,177,27963,6,0,P|237:187|213:209,1,64.3999978381348
388,310,28310,1,0,0:0:0:0:
82,190,28657,2,0,B|57:134|80:90|110:74,1,128.79999567627
285,72,29177,5,0,0:0:0:0:
285,72,29524,2,0,P|327:89|337:127,1,64.3999978381348
212,211,30044,1,0,0:0:0:0:
353,131,30391,2,0,P|384:158|378:203,1,64.3999978381348
124,100,30911,6,0,P|102:138|139:158,1,64.3999978381348
363,111,31431,1,0,0:0:0:0:
184,205,31605,1,0,0:0:0:0:
371,313,31778,6,0,B|316:306|292:281,1,64.3999978381348
121,308,32125,2,0,P|137:269|168:256,1,64.3999978381348
353,184,32472,2,0,P|345:148|318:125,1,64.3999978381348
147,163,32818,2,0,P|157:116|186:90,1,64.3999978381348
368,80,33165,2,0,B|396:105|405:136,1,64.3999978381348
170,137,33512,2,0,P|134:170|132:188,1,50.4000012304688
401,209,33859,5,0,0:0:0:0:
134,127,34032,1,0,0:0:0:0:
304,314,34206,1,0,0:0:0:0:
295,71,34379,1,0,0:0:0:0:
175,285,34553,1,0,0:0:0:0:
106,87,34726,2,0,P|71:116|65:211,1,142.800000871582
144,289,35420,5,0,0:0:0:0:
381,113,35766,1,0,0:0:0:0:
381,113,35940,2,0,B|301:24|126:55|70:129,1,321.999989190674
76,308,36980,5,0,0:0:0:0:
389,232,37154,1,0,0:0:0:0:
176,161,37327,1,0,0:0:0:0:
377,108,37501,2,0,P|344:59|273:63,1,128.79999567627
189,322,38194,5,0,0:0:0:0:
246,153,38541,1,0,0:0:0:0:
246,153,38714,2,0,P|294:101|340:122,1,128.79999567627
399,230,39235,1,0,0:0:0:0:
399,230,39408,2,0,P|336:336|162:293,1,321.999989190674
115,98,40622,5,0,0:0:0:0:
200,278,40795,1,0,0:0:0:0:
335,84,40969,2,0,P|402:129|397:202,1,142.800000871582
106,120,41662,5,0,0:0:0:0:
318,327,41836,1,0,0:0:0:0:
116,278,42009,1,0,0:0:0:0:
312,55,42183,2,0,P|386:124|370:231,1,214.200001307373
118,261,43050,5,0,0:0:0:0:
435,181,43223,1,0,0:0:0:0:
176,60,43396,1,0,0:0:0:0:
407,328,43570,1,0,0:0:0:0:
109,280,43743,6,0,P|132:175|162:145,1,142.800000871582
369,258,44264,1,0,0:0:0:0:
270,64,44437,1,0,0:0:0:0:
78,212,44610,1,0,0:0:0:0:
398,148,44784,1,0,0:0:0:0:
236,310,44957,6,0,P|102:277|65:194,1,214.200001307373
301,195,45824,2,0,P|276:229|242:253,1,71.400000435791
150,97,46171,2,0,P|234:49|300:63,1,142.800000871582
177,292,46865,1,0,0:0:0:0:
376,224,47038,1,0,0:0:0:0:
192,74,47385,6,0,P|321:62|354:76,1,142.800000871582
124,214,48079,1,0,0:0:0:0:
365,295,48252,1,0,0:0:0:0:
136,85,48599,5,0,0:0:0:0:
431,184,48772,1,0,0:0:0:0:
138,313,48946,5,0,0:0:0:0:
271,44,49119,1,0,0:0:0:0:
290,322,49292,5,0,0:0:0:0:
159,53,49466,1,0,0:0:0:0:
412,239,49639,5,0,0:0:0:0:
61,157,49813,1,0,0:0:0:0:
387,86,49986,5,0,0:0:0:0:
171,342,50159,1,0,0:0:0:0:
106,72,50680,5,0,0:0:0:0:
106,72,50766,1,0,0:0:0:0:
106,72,50853,1,0,0:0:0:0:
106,72,50940,2,0,L|150:74,4,35.7000002178955
111,229,51720,6,0,P|166:244|190:222,1,71.400000435791
342,85,52067,5,0,0:0:0:0:
181,286,52240,1,0,0:0:0:0:
181,286,52414,2,0,P|141:279|123:245,1,78.4000009570313
389,173,52761,2,0,P|363:223|321:220,1,78.4000009570313
184,89,53107,6,0,P|256:76|276:88,1,78.4000009570313
299,173,53454,2,0,P|359:177|376:207,1,78.4000009570313
348,286,53801,2,0,P|281:312|244:296,1,78.4000009570313
75,165,54148,2,0,P|94:124|132:120,1,78.4000009570313
189,300,54495,1,0,0:0:0:0:
376,132,54668,2,0,P|406:167|383:206,1,78.4000009570313
79,48,55015,6,0,P|91:93|129:117,1,78.4000009570313
387,191,55362,1,0,0:0:0:0:
123,269,55535,1,0,0:0:0:0:
349,81,55709,1,0,0:0:0:0:
231,315,55882,5,0,0:0:0:0:
161,65,56055,1,0,0:0:0:0:
406,145,56229,2,0,P|439:205|386:292,1,156.800001914063
253,322,56749,2,0,P|204:298|165:261,1,78.4000009570313
121,164,57096,5,0,0:0:0:0:
200,54,57269,2,0,P|236:35|292:47,1,78.4000009570313
291,151,57616,2,0,P|341:132|380:140,1,78.4000009570313
430,289,57963,1,0,0:0:0:0:
194,339,58136,2,0,P|142:344|63:206,1,235.200002871094
301,183,58830,5,0,0:0:0:0:
129,109,59003,2,0,P|144:67|184:52,1,78.4000009570313
256,321,59350,1,0,0:0:0:0:
197,185,59524,1,0,0:0:0:0:
117,314,59697,6,0,P|67:295|44:202,1,156.800001914063
123,66,60217,1,0,0:0:0:0:
288,109,60391,2,0,P|379:152|402:205,1,156.800001914063
109,313,60911,5,0,0:0:0:0:
134,73,61084,1,0,0:0:0:0:
256,329,61258,1,0,0:0:0:0:
417,106,61778,5,0,0:0:0:0:
115,298,61951,2,0,L|94:251,4,39.2000004785156
106,167,62472,6,0,P|128:112|223:80,1,156.800001914063
238,233,62992,1,0,0:0:0:0:
402,148,63165,2,0,P|395:192|360:215,1,78.4000009570313
149,280,63512,1,0,0:0:0:0:
96,160,63685,2,0,P|159:88|216:99,1,156.800001914063
399,135,64206,6,0,P|398:176|350:200,1,78.4000009570313
239,322,64553,2,0,P|204:304|192:262,1,78.4000009570313
300,54,64899,1,0,0:0:0:0:
95,137,65073,1,0,0:0:0:0:
406,196,65246,2,0,P|422:253|390:280,1,78.4000009570313
170,312,65593,1,0,0:0:0:0:
108,138,65766,6,0,P|137:104|256:105,1,156.800001914063
209,332,66287,1,0,0:0:0:0:
422,182,66460,1,0,0:0:0:0:
124,182,66633,1,0,0:0:0:0:
386,326,66807,1,0,0:0:0:0:
217,81,66980,2,0,P|268:59|296:92,1,78.4000009570313
149,303,67327,5,0,0:0:0:0:
396,222,67501,1,0,0:0:0:0:
146,93,67674,2,0,P|115:131|121:188,1,78.4000009570313
197,289,68021,2,0,P|241:305|275:291,1,78.4000009570313
273,95,68368,1,0,0:0:0:0:
398,139,68714,6,0,P|435:196|396:272,1,156.800001914063
98,237,69235,2,0,P|67:190|83:95,1,156.800001914063
378,185,69755,1,0,0:0:0:0:
207,321,69928,1,0,0:0:0:0:
184,88,70102,2,0,P|219:57|263:72,1,78.4000009570313
334,320,70448,5,0,0:0:0:0:
169,196,70622,1,0,0:0:0:0:
416,138,70795,2,0,P|385:96|278:84,1,156.800001914063
294,314,71316,1,0,0:0:0:0:
120,152,71489,6,0,P|127:106|164:83,1,78.4000009570313
384,115,71836,2,0,P|416:153|413:197,1,78.4000009570313
149,155,72183,1,0,0:0:0:0:
254,299,72356,1,0,0:0:0:0:
365,78,72529,6,0,P|316:59|271:56,1,78.4000009570313
146,262,72876,1,0,0:0:0:0:
431,214,73050,1,0,0:0:0:0:
243,78,73223,1,0,0:0:0:0:
309,331,73396,1,0,0:0:0:0:
91,167,73570,2,0,P|98:113|191:77,1,156.800001914063
225,231,74090,5,0,0:0:0:0:
371,104,74264,2,0,P|416:140|418:207,1,117.600001435547
145,185,74784,1,0,0:0:0:0:
251,322,74957,2,0,P|334:320|377:264,1,128.79999567627
248,77,75477,5,0,0:0:0:0:
137,291,75651,1,0,0:0:0:0:
402,220,75824,1,0,0:0:0:0:
145,83,75998,2,0,P|112:139|131:209,1,128.79999567627
355,90,76518,6,0,P|393:122|389:159,1,64.3999978381348
99,158,76865,1,0,0:0:0:0:
263,320,77038,2,0,P|320:325|366:258,1,128.79999567627
229,113,77558,5,0,0:0:0:0:
131,305,77732,1,0,0:0:0:0:
422,190,77905,1,0,0:0:0:0:
88,172,78079,1,0,0:0:0:0:
354,309,78252,2,0,P|421:247|392:159,1,193.199993514405
202,273,78946,5,0,0:0:0:0:
317,91,79119,2,0,P|286:77|240:79,1,64.3999978381348
100,168,79466,1,0,0:0:0:0:
367,294,79639,1,0,0:0:0:0:
306,71,79813,1,0,0:0:0:0:
165,314,79986,1,0,0:0:0:0:
151,126,80159,5,0,0:0:0:0:
151,126,80246,1,0,0:0:0:0:
151,126,80333,1,0,0:0:0:0:
378,141,80506,1,0,0:0:0:0:
255,306,80680,1,0,0:0:0:0:
128,294,81373,6,0,P|108:253|111:205,1,64.3999978381348
276,212,81720,1,0,0:0:0:0:
148,101,81894,2,0,P|181:66|226:64,1,64.3999978381348
221,300,82240,5,0,0:0:0:0:
400,162,82414,1,0,0:0:0:0:
114,118,82587,2,0,P|86:152|76:187,1,71.400000435791
352,276,82934,5,0,0:0:0:0:
268,61,83107,1,0,0:0:0:0:
100,230,83281,2,0,P|125:273|151:285,1,71.400000435791
220,155,83628,2,0,P|225:202|250:222,1,71.400000435791
400,123,83974,5,0,0:0:0:0:
145,67,84148,1,0,0:0:0:0:
241,325,84321,1,0,0:0:0:0:
306,93,84495,2,0,P|265:86|221:96,1,71.400000435791
164,283,84842,5,0,0:0:0:0:
392,194,85015,1,0,0:0:0:0:
147,79,85188,2,0,P|97:131|105:205,1,142.800000871582
341,167,85709,5,0,0:0:0:0:
136,325,85882,1,0,0:0:0:0:
230,72,86055,2,0,P|271:61|363:117,1,142.800000871582
181,316,86576,5,0,0:0:0:0:
141,67,86749,1,0,0:0:0:0:
380,226,86922,2,0,P|374:272|339:312,1,71.400000435791
106,185,87269,1,0,0:0:0:0:
263,68,87443,2,0,P|306:70|390:151,1,142.800000871582
156,305,87963,5,0,0:0:0:0:
126,100,88136,1,0,0:0:0:0:
365,162,88310,2,0,P|385:191|381:256,1,71.400000435791
206,294,88657,1,0,0:0:0:0:
135,106,88830,2,0,P|182:75|272:81,1,142.800000871582
315,307,89350,5,0,0:0:0:0:
104,177,89524,1,0,0:0:0:0:
348,88,89697,2,0,P|387:121|386:153,1,71.400000435791
204,309,90044,1,0,0:0:0:0:
146,105,90217,2,0,P|177:80|289:96,1,142.800000871582
314,315,90738,5,0,0:0:0:0:
107,187,90911,1,0,0:0:0:0:
351,87,91084,2,0,P|393:112|409:152,1,71.400000435791
241,298,91431,1,0,0:0:0:0:
133,96,91605,2,0,P|65:157|55:217,1,142.800000871582
257,198,92125,2,0,P|287:165|287:116,1,71.400000435791
72,179,92472,1,0,0:0:0:0:
250,302,92645,5,0,0:0:0:0:
250,302,92732,1,0,0:0:0:0:
250,302,92818,1,0,0:0:0:0:
250,302,92905,1,0,0:0:0:0:
250,302,92992,2,0,P|301:308|321:280,1,71.400000435791
117,81,93339,5,0,0:0:0:0:
391,193,93512,1,0,0:0:0:0:
95,284,93685,5,0,0:0:0:0:
213,46,93859,1,0,0:0:0:0:
343,313,94032,5,0,0:0:0:0:
103,195,94206,1,0,0:0:0:0:
333,91,94379,2,0,B|388:144|386:204,1,127.400004276734
129,76,94726,5,0,0:0:0:0:
224,331,94899,1,0,0:0:0:0:
253,93,95073,5,0,0:0:0:0:
126,313,95246,1,0,0:0:0:0:
363,112,95420,5,0,0:0:0:0:
66,219,95593,1,0,0:0:0:0:
396,300,95766,2,0,B|441:223|406:148|363:140,1,127.400004276734
125,64,96113,5,0,0:0:0:0:
396,159,96287,1,0,0:0:0:0:
122,199,96460,5,0,0:0:0:0:
404,69,96633,1,0,0:0:0:0:
258,288,96807,5,0,0:0:0:0:
128,48,96980,1,0,0:0:0:0:
339,181,97154,2,0,P|347:269|272:300,1,127.400004276734
63,215,97501,5,0,0:0:0:0:
387,73,97674,1,0,0:0:0:0:
233,343,97847,5,0,0:0:0:0:
144,66,98021,1,0,0:0:0:0:
439,199,98194,5,0,0:0:0:0:
86,302,98368,1,0,0:0:0:0:
234,68,98541,2,0,P|314:62|361:98,1,127.400004276734
59,322,98888,5,0,0:0:0:0:
435,225,99061,1,0,0:0:0:0:
46,160,99235,5,0,0:0:0:0:
335,301,99408,1,0,0:0:0:0:
173,34,99581,5,0,0:0:0:0:
210,334,99755,1,0,0:0:0:0:
334,60,99928,2,0,P|398:109|402:165,1,127.400004276734
86,265,100275,5,0,0:0:0:0:
230,60,100448,1,0,0:0:0:0:
271,332,100622,5,0,0:0:0:0:
87,73,100795,1,0,0:0:0:0:
436,127,100969,5,0,0:0:0:0:
75,289,101142,1,0,0:0:0:0:
195,47,101316,2,0,P|269:38|313:78,1,127.400004276734
426,312,101662,5,0,0:0:0:0:
85,93,101836,1,0,0:0:0:0:
426,198,102009,5,0,0:0:0:0:
122,303,102183,1,0,0:0:0:0:
341,55,102356,5,0,0:0:0:0:
299,329,102529,1,0,0:0:0:0:
121,48,102703,5,0,0:0:0:0:
409,277,102876,1,0,0:0:0:0:
126,246,103396,5,0,0:0:0:0:
298,100,103570,1,0,0:0:0:0:
298,100,103657,1,0,0:0:0:0:
298,100,103743,1,0,0:0:0:0:
298,100,103830,1,0,0:0:0:0:
262,146,104437,6,0,B|311:49|340:-30|479:3|595:143|496:311|333:341|287:382|249:386|231:393|150:316|74:334|-38:199|-19:26|125:10|106:13|196:21|228:94|271:162,1,1176
