osu file format v14

[General]
AudioFilename: audio.mp3
AudioLeadIn: 0
PreviewTime: 50594
Countdown: 0
SampleSet: Soft
StackLeniency: 0.7
Mode: 0
LetterboxInBreaks: 0
WidescreenStoryboard: 0

[Editor]
Bookmarks: 45,738,13223,24321,35420,43743,52067,63165,74264,82587,93685,105131,114495
DistanceSpacing: 1
BeatDivisor: 8
GridSize: 32
TimelineZoom: 2

[Metadata]
Title:Snow Halation (feat. BeasttrollMC)
TitleUnicode:Snow Halation (feat. BeasttrollMC)
Artist:Will Stetson
ArtistUnicode:Will Stetson
Creator:Sotarks
Version:Yuri-'s Insane
Source:ラブライブ! School idol project
Tags:Love Live! µ's u's 2nd season dictate thinking fam edit remix mix cut short ver version christmas noel collab collaboration girls anime fortnite trynna seto_kousuke seto kousuke ayyri eiri- yuii- shunao shogunmoon lasse snownino_ namki akitoshi corinn -laura- doormat toybot kalibe reform kujinn onlybiscuit nevo armin a_r_m_i_n single
BeatmapID:1848250
BeatmapSetID:881764

[Difficulty]
HPDrainRate:5
CircleSize:3.7
OverallDifficulty:8
ApproachRate:8
SliderMultiplier:1.4
SliderTickRate:1

[Events]
//Background and Video events
0,0,"bg.jpg",0,0
//Break Periods
//Storyboard Layer 0 (Background)
//Storyboard Layer 1 (Fail)
//Storyboard Layer 2 (Pass)
//Storyboard Layer 3 (Foreground)
//Storyboard Sound Samples

[TimingPoints]
31,346.820809248555,3,2,22,32,1,0
738,346.820809248555,4,2,22,42,1,0
12950,-133.333333333333,4,2,22,42,0,0
13223,-133.333333333333,4,2,22,52,0,0
22934,-133.333333333333,4,2,22,62,0,0
23541,-133.333333333333,4,2,22,5,0,0
23628,-133.333333333333,4,2,22,52,0,0
24321,-100,4,2,22,62,0,0
32992,-100,4,2,22,32,0,0
33339,-100,4,2,22,42,0,0
33685,-100,4,2,22,52,0,0
34032,-100,4,2,22,62,0,0
34379,-100,4,2,22,72,0,0
49292,-100,4,2,22,82,0,0
51200,-100,4,2,22,62,0,0
51720,-100,4,2,22,72,0,0
52067,-86.9565217391304,4,2,22,82,0,1
74264,-133.333333333333,4,2,22,72,0,0
81547,-133.333333333333,4,2,22,52,0,0
82154,-117.647058823529,4,2,22,52,0,0
82240,-117.647058823529,4,2,22,62,0,0
82587,-100,4,2,22,72,0,0
93685,-86.9565217391304,4,2,22,82,0,1
103396,-100,4,2,22,82,0,0
105131,-100,4,2,22,52,0,0
105217,-100,4,2,22,52,0,0
107558,-100,4,2,22,52,0,0
108946,-100,4,2,22,42,0,0
110333,-100,4,2,22,42,0,0
113107,-100,4,2,22,32,0,0
114495,-100,4,2,22,12,0,0

[Colours]
Combo1 : 94,150,255
Combo2 : 250,255,43
Combo3 : 255,23,23
Combo4 : 176,255,60
Combo5 : 255,177,72

[HitObjects]
407,313,31,5,0,3:2:0:0:
407,313,204,1,0,3:2:0:0:
407,313,377,2,0,L|414:259,3,35,0|0|0|0,3:2|3:0|3:2|3:0,0:0:0:0:
420,225,738,5,2,0:2:0:0:
480,157,911,1,0,0:2:0:0:
376,77,1084,1,2,0:2:0:0:
376,77,1258,1,0,0:2:0:0:
308,155,1431,2,0,P|266:155|214:143,1,70,2|0,0:2|0:2,0:0:0:0:
143,115,1778,1,2,0:2:0:0:
40,175,1951,1,2,0:2:0:0:
40,175,2125,6,0,L|34:255,2,70,2|0|2,0:2|0:2|0:2,0:0:0:0:
50,60,2645,1,2,0:2:0:0:
154,155,2992,5,2,0:2:0:0:
140,29,3165,1,0,0:2:0:0:
123,186,3339,1,2,0:2:0:0:
173,20,3512,2,0,P|219:24|315:60,1,140,2|2,0:2|0:2,0:0:0:0:
395,126,4032,1,2,0:2:0:0:
395,126,4899,6,0,L|399:208,2,70,2|0|0,0:2|0:2|0:2,0:0:0:0:
387,20,5420,1,2,0:2:0:0:
387,20,5593,2,0,P|341:24|245:60,1,140,2|0,0:2|0:2,0:0:0:0:
136,160,6287,6,0,L|144:70,2,70,2|0|2,0:2|0:2|0:2,0:0:0:0:
182,259,6807,1,2,0:2:0:0:
182,259,7154,5,2,0:2:0:0:
236,135,7327,1,0,0:2:0:0:
264,304,7501,1,2,0:2:0:0:
156,171,7674,2,0,P|111:167|58:177,1,70,2|0,0:2|0:2,0:0:0:0:
0,220,8021,1,2,0:2:0:0:
0,220,8194,2,0,L|14:366,1,140,2|2,0:2|0:2,0:0:0:0:
13,359,9061,6,0,P|55:342|89:336,1,70,2|0,0:2|0:2,0:0:0:0:
183,336,9408,1,0,0:2:0:0:
183,336,9581,2,0,L|176:257,2,70,0|2|0,0:2|0:2|0:2,0:0:0:0:
272,369,10102,1,2,0:2:0:0:
363,307,10275,1,0,0:2:0:0:
489,365,10448,1,2,0:2:0:0:
489,365,11836,1,2,0:2:0:0:
489,365,13223,6,0,P|445:294|435:205,1,157.500006008148,2|2,0:2|0:2,0:0:0:0:
465,64,14264,2,0,P|418:68|393:74,1,52.5000020027161,2|2,0:2|0:2,0:0:0:0:
346,135,14610,6,0,P|293:141|232:116,1,105.000004005432,2|2,0:2|0:2,0:0:0:0:
124,66,15304,1,2,0:2:0:0:
248,13,15651,1,2,0:2:0:0:
301,220,15998,6,0,P|307:280|280:379,1,157.500006008148,2|2,0:2|0:2,0:0:0:0:
282,373,17558,1,2,0:2:0:0:
200,322,17732,1,0,0:2:0:0:
122,369,17905,1,2,0:2:0:0:
46,251,18079,2,0,P|68:192|78:138,1,105.000004005432,2|2,0:2|0:2,0:0:0:0:
28,79,18599,1,2,0:2:0:0:
151,23,18772,6,0,P|157:79|288:91,1,210.000008010865,2|0,0:2|0:2,0:0:0:0:
398,14,19813,1,0,0:2:0:0:
459,114,20159,2,0,P|409:162|400:213,1,105.000004005432,2|2,0:2|0:2,0:0:0:0:
495,205,20680,1,2,0:2:0:0:
502,375,21027,2,0,P|447:318|365:309,1,157.500006008148,2|2,0:2|0:2,0:0:0:0:
372,307,22414,5,2,0:2:0:0:
300,361,22587,1,0,0:2:0:0:
211,343,22761,1,2,0:2:0:0:
120,191,22934,1,2,1:2:0:0:
85,323,23107,1,2,1:2:0:0:
247,197,23628,1,2,1:2:0:0:
184,82,23801,1,2,1:2:0:0:
289,17,23974,1,8,0:0:0:0:
305,11,24061,1,8,0:2:0:0:
322,12,24148,1,8,0:2:0:0:
338,17,24235,1,8,0:0:0:0:
357,28,24321,6,0,L|348:115,1,70,6|0,1:2|0:2,0:0:0:0:
335,200,24668,1,2,1:2:0:0:
335,200,24842,2,0,P|287:162|209:169,1,140,2|0,0:2|0:2,0:0:0:0:
117,245,25362,2,0,P|66:241|40:229,1,70,2|2,1:2|0:2,0:0:0:0:
6,126,25709,6,0,L|85:118,1,70,0|0,1:2|0:2,0:0:0:0:
167,42,26055,2,0,L|330:57,1,140,2|2,1:2|1:2,0:0:0:0:
443,75,26576,1,0,0:2:0:0:
443,75,26749,2,0,P|455:124|455:155,1,70,2|0,1:2|3:2,0:0:0:0:
392,244,27096,6,0,L|405:335,1,70,2|0,0:2|0:2,0:0:0:0:
308,201,27443,2,0,L|281:288,1,70,2|0,1:2|0:2,0:0:0:0:
246,113,27790,2,0,L|184:181,1,70,2|0,1:2|0:2,0:0:0:0:
161,28,28136,2,0,P|212:-2|305:8,1,140,2|0,1:2|1:2,0:0:0:0:
414,85,28657,6,0,L|501:76,1,70,0|0,0:2|1:2,0:0:0:0:
378,191,29003,2,0,L|308:183,1,70,0|0,0:2|1:2,0:0:0:0:
443,318,29350,2,0,L|530:309,1,70,0|0,0:2|1:2,0:0:0:0:
376,173,29697,1,8,0:2:0:0:
310,333,29870,6,0,P|249:339|176:283,1,140,2|2,1:2|1:2,0:0:0:0:
179,184,30391,2,0,P|133:178|104:179,1,70,2|0,0:2|1:2,0:0:0:0:
19,233,30738,2,0,L|-1:81,1,140,2|2,0:2|0:2,0:0:0:0:
85,11,31258,2,0,P|125:40|156:50,1,70,0|0,1:2|0:2,0:0:0:0:
252,23,31605,1,0,1:2:0:0:
252,23,31778,6,0,P|266:65|273:110,1,70,2|0,0:2|1:2,0:0:0:0:
418,58,32125,2,0,P|404:100|397:145,1,70,2|0,0:2|1:2,0:0:0:0:
429,245,32472,1,2,0:2:0:0:
429,245,32645,2,0,L|301:233,1,105,0|0,1:2|0:0,0:0:0:0:
285,264,32992,5,4,1:2:0:0:
285,264,33339,1,4,1:2:0:0:
285,264,33685,1,4,1:2:0:0:
285,264,34032,1,4,1:2:0:0:
285,264,34379,1,4,1:2:0:0:
271,292,34553,6,0,L|276:354,2,35,0|0|0,0:2|0:0|1:2,0:0:0:0:
255,171,34899,1,8,0:2:0:0:
143,252,35073,1,8,0:3:0:0:
143,252,35246,1,4,0:3:0:0:
33,80,35420,5,4,1:2:0:0:
211,165,35766,1,2,0:2:0:0:
294,37,36113,2,0,P|343:14|429:6,1,140,10|2,0:2|0:2,0:0:0:0:
491,72,36633,1,2,1:2:0:0:
452,256,36807,2,0,P|423:197|419:117,1,140,0|0,0:2|1:2,0:0:0:0:
278,202,37501,1,8,0:2:0:0:
316,291,37674,1,0,1:2:0:0:
167,373,37847,2,0,P|112:363|77:367,1,70,4|0,1:2|0:2,0:0:0:0:
26,258,38194,6,0,P|76:311|74:378,2,140,4|2|10,0:2|0:2|0:2,0:0:0:0:
6,121,39235,1,2,0:2:0:0:
6,121,39408,1,2,1:2:0:0:
108,32,39581,1,0,0:2:0:0:
140,118,39755,1,10,0:2:0:0:
213,174,39928,1,2,0:2:0:0:
306,174,40102,1,2,1:2:0:0:
383,123,40275,2,0,P|419:104|440:82,1,70,8|0,0:2|0:2,0:0:0:0:
497,11,40622,1,4,1:2:0:0:
306,174,40969,6,0,P|284:219|265:306,1,140,6|10,1:2|0:2,0:0:0:0:
498,377,41662,1,2,1:2:0:0:
431,294,41836,1,0,1:2:0:0:
492,149,42009,2,0,P|465:114|455:79,1,70,10|0,0:2|0:2,0:0:0:0:
307,23,42356,6,0,P|327:91|323:166,1,140,2|10,1:2|0:2,0:0:0:0:
231,170,42876,1,2,1:2:0:0:
231,170,43050,2,0,P|196:243|194:308,1,140,0|8,0:2|0:2,0:0:0:0:
465,272,43743,5,6,1:2:0:0:
281,383,44090,1,10,0:2:0:0:
437,202,44437,2,0,P|452:268|427:344,1,140,2|10,1:2|0:2,0:0:0:0:
334,260,44956,1,0,0:2:0:0:
379,128,45131,6,0,P|309:136|239:136,1,140,2|10,1:2|0:2,0:0:0:0:
145,80,45651,2,0,L|132:-9,1,70,2|0,1:2|0:2,0:0:0:0:
72,173,45997,1,0,1:2:0:0:
178,264,46170,2,0,P|233:254|268:258,1,70,8|0,0:2|0:2,0:0:0:0:
144,368,46518,6,0,L|-6:355,2,140,6|10|2,1:2|0:2|1:2,0:0:0:0:
273,235,47385,1,0,1:2:0:0:
335,372,47558,1,10,0:2:0:0:
441,332,47732,2,0,P|453:288|452:246,1,70,2|0,0:2|1:2,0:0:0:0:
405,147,48079,6,0,L|309:135,1,70,2|8,0:2|0:2,0:0:0:0:
281,38,48425,2,0,L|185:26,1,70,2|0,1:2|0:2,0:0:0:0:
103,148,48772,2,0,L|7:136,2,70,2|8|2,1:2|0:2|1:2,0:0:0:0:
192,254,49292,5,14,0:2:0:0:
268,60,49466,1,0,1:2:0:0:
267,304,49639,5,10,0:2:0:0:
196,27,49813,1,0,1:2:0:0:
338,222,49986,6,0,P|370:193|396:176,1,70,10|0,0:2|1:2,0:0:0:0:
482,336,50333,2,0,P|450:307|424:290,1,70,10|0,0:2|1:2,0:0:0:0:
269,371,50680,5,10,1:2:0:0:
269,371,50853,1,8,1:2:0:0:
219,125,51199,1,2,0:0:0:0:
219,125,51373,6,0,L|194:119,6,17.5,2|0|0|0|0|0|0,0:2|0:0|1:2|0:0|0:0|0:0|0:0,0:0:0:0:
174,140,51720,1,8,0:2:0:0:
25,100,51894,1,0,1:0:0:0:
25,100,51980,1,0,0:0:0:0:
25,100,52067,6,0,P|37:138|41:200,1,80.5000015354157,4|0,1:2|0:2,0:0:0:0:
8,268,52414,2,0,P|12:307|24:346,1,80.5000015354157,10|0,0:2|0:2,0:0:0:0:
113,384,52761,1,2,1:2:0:0:
269,264,53107,2,0,P|294:301|304:337,1,80.5000015354157,10|2,0:2|0:2,0:0:0:0:
201,194,53454,6,0,P|230:150|246:96,1,80.5000015354157,0|0,1:2|0:2,0:0:0:0:
297,17,53801,2,0,P|326:61|342:115,1,80.5000015354157,10|0,0:2|1:2,0:0:0:0:
135,107,54148,2,0,P|91:78|37:62,1,80.5000015354157,2|0,0:2|1:2,0:0:0:0:
334,198,54495,2,0,P|385:187|435:160,1,80.5000015354157,10|0,0:2|0:2,0:0:0:0:
221,277,54842,6,0,P|291:271|371:323,1,161.000003070831,2|10,1:2|0:2,0:0:0:0:
456,375,55362,1,2,0:2:0:0:
438,227,55535,2,0,P|420:166|440:53,1,161.000003070831,0|8,1:2|0:2,0:0:0:0:
496,1,56055,1,2,0:2:0:0:
323,179,56229,6,0,P|268:168|235:139,1,80.5000015354157,2|0,1:2|0:2,0:0:0:0:
298,15,56576,2,0,P|315:68|307:111,1,80.5000015354157,10|0,0:2|1:2,0:0:0:0:
156,162,56922,1,2,1:2:0:0:
190,28,57096,1,8,0:2:0:0:
27,136,57269,2,0,P|25:190|48:250,1,80.5000015354157,14|0,0:2|1:2,0:0:0:0:
195,308,57616,6,0,P|197:229|156:162,1,161.000003070831,6|10,1:2|0:2,0:0:0:0:
79,371,58136,1,0,0:2:0:0:
298,256,58310,2,0,P|297:208|270:166,1,80.5000015354157,2|0,1:2|1:2,0:0:0:0:
202,34,58657,2,0,P|203:82|230:124,1,80.5000015354157,10|2,0:2|0:2,0:0:0:0:
314,52,59003,6,0,P|406:35|413:97,1,161.000003070831,0|8,1:2|0:2,0:0:0:0:
485,246,59524,1,0,1:2:0:0:
377,161,59697,1,0,0:2:0:0:
360,360,59870,1,0,1:2:0:0:
236,305,60044,2,0,P|269:283|309:282,1,80.5000015354157,10|2,0:2|0:2,0:0:0:0:
192,377,60391,6,0,P|154:308|192:234,1,161.000003070831,6|8,1:2|0:2,0:0:0:0:
351,128,61084,2,0,P|329:52|249:26,1,161.000003070831,2|8,1:2|0:2,0:0:0:0:
216,115,61605,1,2,0:2:0:0:
49,14,61778,5,10,0:2:0:0:
94,168,61951,1,8,0:2:0:0:
94,168,62472,1,8,0:2:0:0:
53,278,62645,1,10,0:2:0:0:
156,246,62818,1,8,0:2:0:0:
173,253,62905,1,8,0:0:0:0:
191,257,62992,1,8,0:2:0:0:
209,258,63079,1,8,0:0:0:0:
227,254,63165,6,0,P|245:186|245:157,1,80.5000015354157,4|0,1:2|0:2,0:0:0:0:
228,46,63512,1,10,0:2:0:0:
392,263,63859,1,2,1:2:0:0:
392,263,64032,1,0,1:2:0:0:
286,366,64205,2,0,P|274:304|273:257,1,80.5000015354157,10|2,0:2|0:2,0:0:0:0:
329,179,64553,6,0,L|425:168,1,80.5000015354157,0|0,1:2|0:2,0:0:0:0:
463,60,64899,2,0,L|367:49,1,80.5000015354157,10|0,0:2|1:2,0:0:0:0:
253,42,65246,1,2,0:2:0:0:
171,179,65420,1,0,1:2:0:0:
41,65,65593,2,0,P|92:54|142:27,1,80.5000015354157,10|0,0:2|0:2,0:0:0:0:
218,260,65940,6,0,P|148:271|80:202,1,161.000003070831,2|10,1:2|0:2,0:0:0:0:
40,49,66460,1,2,0:2:0:0:
219,0,66633,1,0,1:2:0:0:
219,0,66807,1,0,1:2:0:0:
288,96,66980,1,10,0:2:0:0:
419,41,67154,1,2,0:2:0:0:
500,214,67327,6,0,L|494:301,1,80.5000015354157,2|0,1:2|0:2,0:0:0:0:
361,138,67674,2,0,L|367:225,1,80.5000015354157,10|0,0:2|1:2,0:0:0:0:
376,330,68020,1,2,1:2:0:0:
262,274,68194,1,8,0:2:0:0:
142,365,68368,2,0,L|56:356,1,80.5000015354157,14|0,0:2|1:2,0:0:0:0:
10,176,68714,6,0,P|88:187|147:240,1,161.000003070831,6|10,1:2|0:2,0:0:0:0:
190,342,69234,1,0,0:2:0:0:
303,259,69408,2,0,L|295:160,1,80.5000015354157,2|0,1:2|1:2,0:0:0:0:
190,50,69755,2,0,L|183:130,1,80.5000015354157,10|2,0:2|0:2,0:0:0:0:
338,39,70102,6,0,P|455:24|492:76,1,161.000003070831,0|8,1:2|0:2,0:0:0:0:
512,150,70622,1,0,1:2:0:0:
365,338,70968,1,0,1:2:0:0:
251,241,71142,2,0,L|336:230,1,80.5000015354157,10|2,0:2|0:2,0:0:0:0:
181,364,71489,6,0,L|10:341,1,161.000003070831,6|8,1:2|0:2,0:0:0:0:
0,211,72009,1,0,0:2:0:0:
146,83,72182,2,0,P|218:111|239:186,1,161.000003070831,2|8,1:2|0:2,0:0:0:0:
198,285,72703,1,2,0:2:0:0:
329,384,72876,5,14,0:2:0:0:
329,384,73050,1,0,1:2:0:0:
294,93,73396,1,6,1:2:0:0:
404,279,73743,5,2,1:2:0:0:
470,193,73917,1,8,0:2:0:0:
433,69,74090,1,8,0:2:0:0:
433,69,74177,1,8,0:0:0:0:
433,69,74264,6,0,P|398:15|338:3,2,105.000004005432,4|2|10,1:2|0:2|0:2,0:0:0:0:
271,148,75304,1,2,0:2:0:0:
404,279,75651,2,0,P|373:268|336:271,1,52.5000020027161,2|8,0:2|0:2,0:0:0:0:
288,326,75998,1,2,0:2:0:0:
288,326,76171,2,0,P|232:338|152:271,1,157.500006008148,2|4,1:2|1:2,0:0:0:0:
233,59,77038,6,0,P|269:100|278:169,1,105.000004005432,6|2,1:2|0:2,0:0:0:0:
181,131,77558,1,2,1:2:0:0:
181,131,77732,2,0,P|137:89|87:80,1,105.000004005432,10|2,0:2|0:2,0:0:0:0:
26,143,78252,1,2,1:2:0:0:
33,274,78425,6,0,P|51:256|62:233,1,52.5000020027161,2|10,0:2|0:2,0:0:0:0:
152,354,78772,2,0,P|140:330|122:312,1,52.5000020027161,2|2,0:2|1:2,0:0:0:0:
187,195,79119,1,8,0:2:0:0:
403,336,79466,1,4,1:2:0:0:
330,97,79813,5,4,1:2:0:0:
187,195,80159,2,0,P|169:231|114:278,1,105.000004005432,2|10,0:2|0:2,0:0:0:0:
30,228,80680,1,2,1:2:0:0:
98,119,80853,1,8,0:2:0:0:
102,108,80940,1,8,0:0:0:0:
104,96,81027,1,2,1:2:0:0:
105,84,81113,1,0,1:0:0:0:
106,72,81200,5,10,0:2:0:0:
25,14,81373,1,10,0:2:0:0:
25,14,82067,1,2,0:2:0:0:
98,119,82240,2,0,P|139:129|180:121,1,59.5000011348725,12|2,0:2|0:2,0:0:0:0:
285,103,82587,6,0,P|244:177|223:262,1,140,4|8,1:2|0:2,0:0:0:0:
405,372,83281,1,0,1:2:0:0:
405,372,83454,1,0,1:2:0:0:
460,288,83628,2,0,L|455:201,1,70,8|0,0:2|0:2,0:0:0:0:
490,121,83974,6,0,P|434:119|336:61,1,140,0|8,1:2|0:2,0:0:0:0:
270,1,84495,1,0,1:2:0:0:
206,108,84668,1,0,0:2:0:0:
96,8,84842,1,0,1:2:0:0:
15,134,85015,2,0,P|26:177|31:220,1,70,8|0,0:2|0:2,0:0:0:0:
31,320,85362,6,0,P|108:300|178:304,1,140,0|8,1:2|0:2,0:0:0:0:
296,325,85882,2,0,P|287:268|287:236,1,70,0|0,0:2|1:2,0:0:0:0:
301,156,86229,1,0,1:2:0:0:
301,156,86402,2,0,L|396:146,1,70,8|0,0:2|0:2,0:0:0:0:
494,135,86749,6,0,P|488:196|477:282,1,140,0|8,1:2|0:2,0:0:0:0:
463,380,87269,1,0,1:2:0:0:
333,325,87443,1,0,1:2:0:0:
333,325,87616,2,0,P|290:313|257:312,1,70,8|8,0:2|0:2,0:0:0:0:
50,357,88136,6,0,P|72:299|60:201,1,140,4|8,1:2|0:2,0:0:0:0:
24,127,88657,1,0,0:2:0:0:
115,22,88830,1,0,1:2:0:0:
115,22,89003,1,0,1:2:0:0:
207,70,89177,2,0,L|298:64,1,70,8|0,0:2|0:2,0:0:0:0:
421,58,89524,6,0,P|393:111|365:210,1,140,0|8,1:2|0:2,0:0:0:0:
352,300,90044,1,0,1:2:0:0:
352,300,90217,2,0,L|428:290,2,70,0|0|8,0:2|1:2|0:2,0:0:0:0:
205,318,90911,6,0,P|233:265|261:166,1,140,0|8,1:2|0:2,0:0:0:0:
260,81,91431,1,0,0:2:0:0:
260,81,91605,2,0,L|174:77,1,70,0|0,1:2|1:2,0:0:0:0:
87,74,91951,1,8,0:2:0:0:
21,171,92125,1,0,0:2:0:0:
89,280,92298,2,0,L|79:366,1,70,0|0,1:2|0:2,0:0:0:0:
196,241,92645,1,8,0:2:0:0:
196,241,92818,6,0,L|215:391,1,140,0|8,1:2|0:2,0:0:0:0:
303,264,93339,1,0,1:2:0:0:
303,264,93425,1,8,0:0:0:0:
303,264,93512,1,0,1:2:0:0:
399,267,93685,6,0,P|390:310|344:360,1,80.5000015354157,4|0,1:2|0:2,0:0:0:0:
196,241,94032,1,10,0:2:0:0:
251,157,94206,1,0,1:2:0:0:
176,94,94379,2,0,P|135:83|81:84,1,80.5000015354157,8|0,0:2|1:2,0:0:0:0:
34,227,94726,1,10,0:2:0:0:
7,130,94899,1,0,1:2:0:0:
97,81,95073,6,0,P|130:36|143:3,1,80.5000015354157,0|0,1:2|0:2,0:0:0:0:
251,157,95420,1,10,0:2:0:0:
196,241,95593,1,0,1:2:0:0:
261,318,95766,2,0,P|316:292|351:286,1,80.5000015354157,8|0,0:2|1:2,0:0:0:0:
428,152,96113,1,10,0:2:0:0:
495,226,96287,1,0,1:2:0:0:
434,303,96460,6,0,P|414:351|406:392,1,80.5000015354157,0|0,1:2|0:2,0:0:0:0:
301,184,96807,1,10,0:2:0:0:
350,96,96980,1,0,1:2:0:0:
269,37,97154,2,0,P|228:22|170:16,1,80.5000015354157,8|0,0:2|1:2,0:0:0:0:
35,138,97501,1,10,0:2:0:0:
106,201,97674,1,0,1:2:0:0:
37,273,97847,6,0,P|12:314|1:361,1,80.5000015354157,0|0,1:2|1:2,0:0:0:0:
225,265,98194,1,10,0:2:0:0:
178,358,98368,1,0,1:2:0:0:
275,342,98541,2,0,P|318:332|386:339,1,80.5000015354157,8|0,0:2|1:2,0:0:0:0:
382,146,98888,1,10,0:2:0:0:
474,200,99061,1,0,1:2:0:0:
476,98,99235,6,0,P|490:50|514:10,1,80.5000015354157,4|0,1:2|0:2,0:0:0:0:
287,85,99581,1,10,0:2:0:0:
254,185,99755,1,0,1:2:0:0:
330,256,99928,2,0,P|350:306|353:355,1,80.5000015354157,8|0,0:2|1:2,0:0:0:0:
105,274,100275,1,10,0:2:0:0:
42,347,100448,1,0,1:2:0:0:
6,254,100622,6,0,P|30:214|46:165,1,80.5000015354157,0|0,1:2|0:2,0:0:0:0:
167,23,100969,1,10,0:2:0:0:
188,126,101142,1,0,1:2:0:0:
273,68,101316,2,0,P|321:53|365:57,1,80.5000015354157,8|0,0:2|1:2,0:0:0:0:
353,286,101662,1,10,0:2:0:0:
296,199,101836,1,0,1:2:0:0:
385,154,102009,6,0,P|431:186|459:213,1,80.5000015354157,0|0,1:2|0:2,0:0:0:0:
252,363,102356,1,10,0:2:0:0:
179,294,102529,1,0,1:2:0:0:
103,355,102703,2,0,P|68:331|43:292,1,80.5000015354157,8|0,0:2|1:2,0:0:0:0:
86,86,103050,1,10,0:2:0:0:
112,193,103223,1,0,1:2:0:0:
234,50,103396,5,8,0:2:0:0:
194,265,103570,1,8,0:2:0:0:
234,50,104090,5,8,0:2:0:0:
313,222,104264,1,8,0:2:0:0:
331,224,104350,1,8,0:0:0:0:
349,223,104437,1,0,1:2:0:0:
366,219,104524,1,8,0:0:0:0:
384,211,104610,1,8,0:2:0:0:
384,211,105131,5,4,0:2:0:0:
256,192,105217,12,0,114495,0:0:0:0:
