osu file format v14

[General]
AudioFilename: audio.mp3
AudioLeadIn: 0
PreviewTime: 50594
Countdown: 0
SampleSet: Soft
StackLeniency: 0.7
Mode: 0
LetterboxInBreaks: 0
WidescreenStoryboard: 1

[Editor]
DistanceSpacing: 1.3
BeatDivisor: 4
GridSize: 4
TimelineZoom: 2

[Metadata]
Title:Snow Halation (feat. BeasttrollMC)
TitleUnicode:Snow Halation (feat. BeasttrollMC)
Artist:Will Stetson
ArtistUnicode:Will Stetson
Creator:Sotarks
Version:Shunao's Hard
Source:ラブライブ! School idol project
Tags:Love Live! µ's u's 2nd season dictate thinking fam edit remix mix cut short ver version christmas noel collab collaboration girls anime fortnite trynna seto_kousuke seto kousuke ayyri eiri- yuii- shunao shogunmoon lasse snownino_ namki akitoshi corinn -laura- doormat toybot kalibe reform kujinn onlybiscuit nevo armin a_r_m_i_n single
BeatmapID:1843596
BeatmapSetID:881764

[Difficulty]
HPDrainRate:5
CircleSize:3.7
OverallDifficulty:6
ApproachRate:8
SliderMultiplier:1.4
SliderTickRate:1

[Events]
//Background and Video events
0,0,"bg.jpg",0,0
//Break Periods
//Storyboard Layer 0 (Background)
//Storyboard Layer 1 (Fail)
//Storyboard Layer 2 (Pass)
//Storyboard Layer 3 (Foreground)
//Storyboard Sound Samples

[TimingPoints]
31,346.820809248555,3,2,22,32,1,0
31,-142.857142857143,3,2,22,32,0,0
738,346.820809248555,4,2,22,42,1,0
738,-142.857142857143,4,2,22,42,0,0
13223,-142.857142857143,4,2,22,52,0,0
22934,-142.857142857143,4,2,22,62,0,0
23541,-142.857142857143,4,2,22,5,0,0
23628,-142.857142857143,4,2,22,52,0,0
24321,-111.111111111111,4,2,22,62,0,0
32992,-111.111111111111,4,2,22,32,0,0
33339,-111.111111111111,4,2,22,42,0,0
33685,-111.111111111111,4,2,22,52,0,0
34032,-111.111111111111,4,2,22,62,0,0
34379,-111.111111111111,4,2,22,72,0,0
35420,-125,4,2,22,72,0,0
40969,-100,4,2,22,72,0,0
49292,-100,4,2,22,82,0,0
51200,-100,4,2,22,62,0,0
51720,-100,4,2,22,72,0,0
52067,-83.3333333333333,4,2,22,82,0,0
74264,-111.111111111111,4,2,22,72,0,0
81547,-111.111111111111,4,2,22,52,0,0
82240,-111.111111111111,4,2,22,62,0,0
82587,-100,4,2,22,72,0,0
93685,-83.3333333333333,4,2,22,82,0,0
105131,-100,4,2,22,52,0,0
108946,-100,4,2,22,42,0,0
113107,-100,4,2,22,32,0,0
114495,-100,4,2,22,12,0,0

[Colours]
Combo1 : 94,150,255
Combo2 : 250,255,43
Combo3 : 255,23,23
Combo4 : 176,255,60
Combo5 : 255,177,72

[HitObjects]
168,322,31,6,0,L|159:256,1,48.9999985046387,0|0,3:2|3:2,0:0:0:0:
108,209,377,2,0,L|112:167,3,24.4999992523194,0|0|0|0,3:2|3:0|3:2|3:0,0:0:0:0:
138,153,738,6,0,L|129:87,1,48.9999985046387,2|0,0:2|0:2,0:0:0:0:
185,41,1084,2,0,P|215:35|244:40,1,48.9999985046387,2|0,0:2|0:2,0:0:0:0:
313,60,1431,2,0,P|361:75|418:59,1,97.9999970092774,2|2,0:2|0:2,0:0:0:0:
489,57,1951,1,2,0:2:0:0:
489,57,2125,6,0,L|485:123,2,48.9999985046387,2|0|2,0:2|0:2|0:2,0:0:0:0:
406,65,2645,2,0,L|417:183,1,97.9999970092774,2|2,0:2|0:2,0:0:0:0:
477,217,3165,2,0,L|470:283,1,48.9999985046387,0|2,0:2|0:2,0:0:0:0:
466,349,3512,6,0,P|434:347|373:377,1,97.9999970092774,2|2,0:2|0:2,0:0:0:0:
292,381,4032,2,0,P|274:295|257:172,1,195.999994018555,2|0,0:2|0:2,0:0:0:0:
193,136,4899,6,0,P|199:105|201:72,2,48.9999985046387,2|0|0,0:2|0:2|0:2,0:0:0:0:
129,191,5420,1,2,0:2:0:0:
129,191,5593,2,0,P|95:185|58:180,1,48.9999985046387,2|0,0:2|0:2,0:0:0:0:
42,108,5940,2,0,P|76:102|113:97,1,48.9999985046387,0|0,0:2|0:2,0:0:0:0:
164,60,6287,6,0,P|174:33|181:3,2,48.9999985046387,2|0|2,0:2|0:2|0:2,0:0:0:0:
238,98,6807,2,0,P|281:92|327:127,1,97.9999970092774,2|2,0:2|0:2,0:0:0:0:
372,189,7327,2,0,L|429:186,1,48.9999985046387,0|2,0:2|0:2,0:0:0:0:
484,132,7674,6,0,P|493:93|502:67,2,48.9999985046387,2|0|2,0:2|0:2|0:2,0:0:0:0:
420,186,8194,2,0,P|430:219|436:254,1,48.9999985046387,2|0,0:2|0:2,0:0:0:0:
422,316,8541,2,0,P|396:352|338:358,1,97.9999970092774,2|0,0:2|0:2,0:0:0:0:
264,338,9061,6,0,P|213:331|150:326,1,97.9999970092774,2|0,0:2|0:2,0:0:0:0:
83,334,9581,1,0,0:2:0:0:
83,334,9755,2,0,P|73:305|69:272,1,48.9999985046387,2|0,0:2|0:2,0:0:0:0:
117,218,10102,2,0,P|127:189|131:156,1,48.9999985046387,2|0,0:2|0:2,0:0:0:0:
143,89,10448,5,2,0:2:0:0:
256,192,10535,12,0,12876,0:0:0:0:
178,309,13223,6,0,P|219:293|287:290,1,97.9999970092774,2|2,0:2|0:2,0:0:0:0:
342,242,13743,2,0,P|351:196|336:142,1,97.9999970092774,2|0,0:2|0:2,0:0:0:0:
271,96,14264,2,0,L|209:89,1,48.9999985046387,2|2,0:2|0:2,0:0:0:0:
152,46,14610,6,0,L|93:54,1,48.9999985046387,2|0,0:2|0:2,0:0:0:0:
40,107,14957,2,0,P|48:137|51:170,1,48.9999985046387,2|0,0:2|0:2,0:0:0:0:
117,204,15304,2,0,P|109:234|106:267,1,48.9999985046387,2|0,0:2|0:2,0:0:0:0:
48,311,15651,2,0,P|56:341|59:374,1,48.9999985046387,2|0,0:2|0:2,0:0:0:0:
140,375,15998,6,0,P|186:361|250:366,1,97.9999970092774,2|2,0:2|0:2,0:0:0:0:
318,375,16518,2,0,B|353:275|278:283|318:176,1,195.999994018555,2|0,0:2|0:2,0:0:0:0:
195,68,17558,6,0,P|163:64|127:64,2,48.9999985046387,2|0|2,0:2|0:2|0:2,0:0:0:0:
272,100,18079,2,0,P|308:95|337:87,1,48.9999985046387,2|0,0:2|0:2,0:0:0:0:
397,61,18425,1,2,0:2:0:0:
397,61,18599,1,2,0:2:0:0:
468,103,18772,6,0,P|484:134|475:197,1,97.9999970092774,2|2,0:2|0:2,0:0:0:0:
415,252,19292,2,0,L|357:246,1,48.9999985046387,2|0,0:2|0:2,0:0:0:0:
291,209,19639,2,0,L|236:215,2,48.9999985046387,2|0|2,0:2|0:2|0:2,0:0:0:0:
366,246,20159,6,0,P|360:287|356:343,1,97.9999970092774,2|2,0:2|0:2,0:0:0:0:
278,374,20680,2,0,P|248:368|220:365,1,48.9999985046387,2|0,0:2|0:2,0:0:0:0:
151,337,21027,2,0,P|109:350|47:359,1,97.9999970092774,2|2,0:2|0:2,0:0:0:0:
9,289,21547,6,0,P|-6:241|20:185,1,97.9999970092774,2|0,0:2|0:2,0:0:0:0:
77,150,22067,1,0,0:2:0:0:
221,67,22414,2,0,L|214:15,2,48.9999985046387,2|0|2,0:2|0:2|0:2,0:0:0:0:
233,149,22934,5,2,1:2:0:0:
246,230,23107,1,2,1:2:0:0:
422,53,23628,5,2,1:2:0:0:
435,134,23801,1,2,1:2:0:0:
451,215,23974,2,0,L|457:260,3,24.4999992523194,8|8|8|8,0:0|0:2|0:2|0:0,0:0:0:0:
458,280,24321,6,0,P|396:271|337:316,1,125.999996154785,6|2,1:2|1:2,0:0:0:0:
290,374,24842,2,0,P|232:362|152:353,1,125.999996154785,2|0,0:2|0:2,0:0:0:0:
80,330,25362,2,0,P|44:338|-5:339,1,62.9999980773926,2|2,1:2|0:2,0:0:0:0:
39,253,25709,6,0,P|84:241|122:243,1,62.9999980773926,0|0,1:2|0:2,0:0:0:0:
188,240,26055,2,0,P|196:209|202:166,1,62.9999980773926,2|0,1:2|0:2,0:0:0:0:
127,128,26402,2,0,P|119:97|113:54,1,62.9999980773926,2|0,1:2|0:2,0:0:0:0:
188,17,26749,1,2,1:2:0:0:
275,27,26922,1,0,3:2:0:0:
322,101,27096,6,0,P|357:99|394:93,1,62.9999980773926,2|0,0:2|0:2,0:0:0:0:
430,170,27443,2,0,P|465:172|502:178,1,62.9999980773926,2|0,1:2|0:2,0:0:0:0:
500,264,27790,2,0,P|493:299|490:340,1,62.9999980773926,2|0,1:2|0:2,0:0:0:0:
410,362,28136,6,0,P|351:334|270:356,1,125.999996154785,2|0,1:2|1:2,0:0:0:0:
208,371,28657,2,0,L|127:362,1,62.9999980773926,0|0,0:2|1:2,0:0:0:0:
105,285,29003,2,0,L|175:276,1,62.9999980773926,0|0,0:2|1:2,0:0:0:0:
241,228,29350,1,0,0:2:0:0:
273,145,29524,1,0,1:2:0:0:
226,70,29697,1,8,0:2:0:0:
139,53,29870,6,0,P|107:45|75:50,1,62.9999980773926,2|0,1:2|0:2,0:0:0:0:
36,127,30217,1,2,1:2:0:0:
36,127,30391,2,0,L|41:191,1,62.9999980773926,2|0,0:2|1:2,0:0:0:0:
124,217,30738,2,0,L|119:281,1,62.9999980773926,2|0,0:2|1:2,0:0:0:0:
87,362,31084,1,2,0:2:0:0:
174,374,31258,6,0,P|211:366|258:369,1,62.9999980773926,0|0,1:2|0:2,0:0:0:0:
324,367,31605,1,0,1:2:0:0:
324,367,31778,2,0,L|318:295,1,62.9999980773926,2|0,0:2|1:2,0:0:0:0:
258,239,32125,2,0,L|264:160,1,62.9999980773926,2|0,0:2|1:2,0:0:0:0:
291,92,32472,1,2,0:2:0:0:
362,40,32645,6,0,P|399:36|439:47,1,62.9999980773926,0|0,1:2|0:2,0:0:0:0:
479,110,32992,2,0,L|483:172,1,62.9999980773926,4|0,1:2|0:2,0:0:0:0:
447,253,33339,2,0,L|451:315,2,62.9999980773926,4|0|4,1:2|0:2|1:2,0:0:0:0:
370,208,33859,1,0,0:2:0:0:
284,230,34032,6,0,P|249:226|211:216,1,62.9999980773926,4|0,1:2|0:2,0:0:0:0:
153,163,34379,2,0,P|118:167|80:177,1,62.9999980773926,4|0,1:2|0:2,0:0:0:0:
46,250,34726,1,0,1:2:0:0:
46,250,34899,1,8,0:2:0:0:
92,325,35073,1,8,0:3:0:0:
92,325,35246,1,4,0:3:0:0:
197,353,35420,6,0,B|259:338|248:375|321:354,1,112,4|2,1:2|0:2,0:0:0:0:
392,328,35940,1,0,1:2:0:0:
392,328,36113,2,0,L|398:248,1,56,10|0,0:2|0:2,0:0:0:0:
457,206,36460,1,2,0:2:0:0:
457,206,36633,6,0,P|399:220|347:192,1,112,2|0,1:2|0:2,0:0:0:0:
282,142,37154,2,0,L|289:71,1,56,0|0,1:2|0:2,0:0:0:0:
219,27,37501,2,0,P|188:23|159:28,1,56,8|0,0:2|1:2,0:0:0:0:
83,65,37847,2,0,L|90:136,1,56,4|0,1:2|0:2,0:0:0:0:
172,153,38194,6,0,L|159:276,1,112,4|2,0:2|0:2,0:0:0:0:
84,312,38714,1,0,1:2:0:0:
84,312,38888,2,0,L|91:383,1,56,10|0,0:2|0:2,0:0:0:0:
179,372,39235,1,2,0:2:0:0:
179,372,39408,6,0,P|207:365|251:366,1,56,2|0,1:2|0:2,0:0:0:0:
323,364,39755,2,0,P|351:371|395:370,1,56,10|2,0:2|0:2,0:0:0:0:
462,341,40102,2,0,P|466:310|478:281,2,56,2|8|0,1:2|0:2|0:2,0:0:0:0:
384,294,40622,2,0,P|380:263|368:234,1,56,4|0,1:2|0:2,0:0:0:0:
272,186,40969,6,0,L|187:179,1,70,6|0,1:2|0:2,0:0:0:0:
117,145,41316,2,0,P|109:110|119:64,1,70,10|0,0:2|0:2,0:0:0:0:
191,29,41662,2,0,L|271:24,1,70,2|0,1:2|1:2,0:0:0:0:
352,19,42009,1,10,0:2:0:0:
352,19,42183,1,0,0:2:0:0:
435,55,42356,6,0,P|445:91|435:133,1,70,2|0,1:2|0:2,0:0:0:0:
381,193,42703,1,10,0:2:0:0:
381,193,42876,2,0,B|304:167|316:222|231:202,1,140,2|0,1:2|1:2,0:0:0:0:
154,193,43396,2,0,L|148:272,1,70,8|0,0:2|0:2,0:0:0:0:
59,280,43743,6,0,L|52:201,1,70,6|0,1:2|0:2,0:0:0:0:
8,130,44090,2,0,L|15:51,1,70,10|0,0:2|0:2,0:0:0:0:
98,27,44436,2,0,P|132:22|170:31,1,70,2|0,1:2|1:2,0:0:0:0:
251,62,44783,1,10,0:2:0:0:
251,62,44957,1,0,0:2:0:0:
336,93,45130,6,0,L|416:87,1,70,2|0,1:2|0:2,0:0:0:0:
477,144,45477,1,10,0:2:0:0:
477,144,45651,2,0,P|501:205|476:283,1,140,2|0,1:2|1:2,0:0:0:0:
430,349,46170,2,0,L|348:339,1,70,8|0,0:2|0:2,0:0:0:0:
281,294,46518,6,0,L|205:303,1,70,6|0,1:2|0:2,0:0:0:0:
148,236,46865,2,0,P|137:197|145:162,1,70,10|0,0:2|0:2,0:0:0:0:
216,116,47211,2,0,P|227:77|219:42,1,70,2|0,1:2|1:2,0:0:0:0:
134,22,47558,1,10,0:2:0:0:
134,22,47732,6,0,L|47:16,1,70,2|0,0:2|1:2,0:0:0:0:
7,88,48079,2,0,P|2:122|12:155,1,70,2|8,0:2|0:2,0:0:0:0:
63,230,48425,2,0,L|59:309,1,70,2|0,1:2|0:2,0:0:0:0:
123,365,48772,1,2,1:2:0:0:
213,374,48946,1,8,0:2:0:0:
300,350,49119,1,2,1:2:0:0:
300,245,49292,6,0,P|264:236|211:232,1,70,14|0,0:2|1:2,0:0:0:0:
174,160,49639,2,0,P|208:155|242:147,1,70,10|0,0:2|1:2,0:0:0:0:
328,117,49986,2,0,P|320:82|329:33,1,70,10|0,0:2|1:2,0:0:0:0:
408,14,50333,1,10,0:2:0:0:
408,14,50506,1,0,1:2:0:0:
491,51,50680,5,10,1:2:0:0:
491,51,50853,1,8,1:2:0:0:
447,227,51200,2,0,B|401:205|351:226|351:226|332:213|332:213|247:249|250:195|165:227,1,280,2|0,0:0|1:0,0:0:0:0:
76,264,52067,6,0,P|67:307|78:347,1,83.9999974365235,4|0,1:2|0:2,0:0:0:0:
173,374,52414,2,0,L|277:365,1,83.9999974365235,10|0,0:2|0:2,0:0:0:0:
350,327,52761,2,0,L|449:337,1,83.9999974365235,2|0,1:2|1:2,0:0:0:0:
508,267,53107,1,10,0:2:0:0:
454,181,53281,6,0,B|421:91|488:108|451:-3,1,167.999994873047,2|0,0:2|0:2,0:0:0:0:
357,36,53801,2,0,P|312:33|267:25,1,83.9999974365235,10|0,0:2|1:2,0:0:0:0:
172,21,54148,2,0,P|127:23|82:32,1,83.9999974365235,2|0,0:2|1:2,0:0:0:0:
7,91,54495,2,0,L|16:189,1,83.9999974365235,10|0,0:2|0:2,0:0:0:0:
113,203,54842,6,0,L|123:105,1,83.9999974365235,2|0,1:2|0:2,0:0:0:0:
220,99,55188,1,10,0:2:0:0:
311,142,55362,2,0,P|352:147|414:137,1,83.9999974365235,2|0,0:2|1:2,0:0:0:0:
486,100,55709,1,2,1:2:0:0:
501,199,55882,2,0,P|490:243|486:298,1,83.9999974365235,8|2,0:2|0:2,0:0:0:0:
399,333,56229,6,0,P|394:291|384:250,1,83.9999974365235,2|0,1:2|0:2,0:0:0:0:
299,195,56576,1,10,0:2:0:0:
198,201,56749,1,0,1:2:0:0:
131,276,56922,2,0,P|93:265|29:259,1,83.9999974365235,2|8,1:2|0:2,0:0:0:0:
1,169,57269,2,0,P|39:158|103:152,1,83.9999974365235,14|0,0:2|1:2,0:0:0:0:
183,159,57616,6,0,L|167:269,1,83.9999974365235,6|0,1:2|0:2,0:0:0:0:
218,331,57963,2,0,P|259:340|308:328,1,83.9999974365235,10|0,0:2|0:2,0:0:0:0:
385,279,58310,2,0,P|425:270|466:278,1,83.9999974365235,2|0,1:2|1:2,0:0:0:0:
427,371,58657,1,10,0:2:0:0:
347,308,58830,6,0,P|335:232|314:142,1,167.999994873047,2|0,0:2|0:2,0:0:0:0:
216,170,59350,2,0,P|174:166|126:150,1,83.9999974365235,8|0,0:2|1:2,0:0:0:0:
43,108,59697,2,0,P|33:71|46:27,1,83.9999974365235,0|0,0:2|1:2,0:0:0:0:
145,10,60044,1,10,0:2:0:0:
244,26,60217,1,2,0:2:0:0:
305,106,60391,6,0,B|392:87|380:151|479:132,1,167.999994873047,6|8,1:2|0:2,0:0:0:0:
507,226,60911,1,0,0:2:0:0:
430,291,61084,2,0,P|423:334|436:375,2,83.9999974365235,2|0|8,1:2|1:2|0:2,0:0:0:0:
507,226,61605,1,2,0:2:0:0:
466,134,61778,5,10,0:2:0:0:
426,41,61951,1,8,0:2:0:0:
146,156,62472,1,8,0:2:0:0:
106,249,62645,1,10,0:2:0:0:
78,345,62818,2,0,L|134:351,3,41.9999987182618,8|8|8|8,0:2|0:0|0:2|0:0,0:0:0:0:
166,369,63165,6,0,L|261:360,1,83.9999974365235,4|0,1:2|0:2,0:0:0:0:
343,323,63512,2,0,P|355:286|340:230,1,83.9999974365235,10|0,0:2|0:2,0:0:0:0:
273,172,63859,2,0,P|261:135|276:79,1,83.9999974365235,2|0,1:2|1:2,0:0:0:0:
344,25,64205,1,10,0:2:0:0:
256,75,64379,6,0,P|172:57|80:53,1,167.999994873047,2|0,0:2|0:2,0:0:0:0:
7,110,64899,2,0,P|17:152|20:203,1,83.9999974365235,10|0,0:2|1:2,0:0:0:0:
119,173,65246,2,0,P|109:215|106:266,1,83.9999974365235,2|0,0:2|1:2,0:0:0:0:
201,222,65593,2,0,P|211:264|214:315,1,83.9999974365235,10|0,0:2|0:2,0:0:0:0:
293,367,65940,6,0,P|335:354|382:360,1,83.9999974365235,2|0,1:2|0:2,0:0:0:0:
474,367,66286,1,10,0:2:0:0:
508,267,66460,2,0,P|431:252|386:170,1,167.999994873047,2|0,0:2|1:2,0:0:0:0:
365,85,66980,2,0,L|268:76,1,83.9999974365235,10|2,0:2|0:2,0:0:0:0:
193,26,67327,6,0,L|96:35,1,83.9999974365235,2|0,1:2|0:2,0:0:0:0:
136,131,67674,2,0,L|219:138,1,83.9999974365235,10|0,0:2|1:2,0:0:0:0:
300,199,68021,1,2,1:2:0:0:
303,299,68194,1,8,0:2:0:0:
232,371,68368,2,0,L|135:362,1,83.9999974365235,14|0,0:2|1:2,0:0:0:0:
49,345,68714,6,0,P|39:303|55:259,1,83.9999974365235,6|0,1:2|0:2,0:0:0:0:
137,211,69061,2,0,P|147:169|131:125,1,83.9999974365235,10|0,0:2|0:2,0:0:0:0:
75,49,69408,2,0,L|178:39,1,83.9999974365235,2|0,1:2|1:2,0:0:0:0:
257,21,69755,1,10,0:2:0:0:
357,19,69928,6,0,P|434:33|459:121,1,167.999994873047,2|0,0:2|0:2,0:0:0:0:
416,200,70448,2,0,L|324:192,1,83.9999974365235,8|0,0:2|1:2,0:0:0:0:
243,144,70795,2,0,L|151:152,1,83.9999974365235,0|0,0:2|1:2,0:0:0:0:
62,122,71142,1,10,0:2:0:0:
7,206,71315,1,2,0:2:0:0:
40,301,71489,6,0,B|128:273|115:353|217:320,1,167.999994873047,6|8,1:2|0:2,0:0:0:0:
297,297,72009,1,0,0:2:0:0:
392,266,72182,2,0,P|433:257|485:273,2,83.9999974365235,2|0|8,1:2|1:2|0:2,0:0:0:0:
297,297,72703,1,2,0:2:0:0:
210,245,72876,6,0,L|200:152,1,83.9999974365235,14|0,0:2|1:2,0:0:0:0:
233,65,73223,1,10,0:2:0:0:
326,28,73396,2,0,P|366:19|416:30,1,83.9999974365235,6|0,1:2|0:2,0:0:0:0:
414,127,73743,2,0,P|372:134|332:125,1,83.9999974365235,2|8,1:2|0:2,0:0:0:0:
283,213,74090,1,8,0:2:0:0:
283,213,74177,1,8,0:0:0:0:
283,213,74264,6,0,P|291:270|296:343,1,125.999996154785,4|2,1:2|0:2,0:0:0:0:
209,376,74784,1,0,1:2:0:0:
209,376,74957,2,0,L|136:368,1,62.9999980773926,10|0,0:2|0:2,0:0:0:0:
70,312,75304,2,0,L|-3:320,1,62.9999980773926,2|0,0:2|1:2,0:0:0:0:
1,224,75651,6,0,P|21:175|89:157,1,125.999996154785,2|2,0:2|0:2,0:0:0:0:
161,97,76171,2,0,L|155:27,2,62.9999980773926,2|8|0,1:2|0:2|1:2,0:0:0:0:
237,152,76691,2,0,L|229:214,1,62.9999980773926,4|0,1:2|0:2,0:0:0:0:
183,297,77038,6,0,L|190:359,1,62.9999980773926,6|0,1:2|0:2,0:0:0:0:
284,375,77385,2,0,P|317:368|368:374,1,62.9999980773926,2|2,0:2|1:2,0:0:0:0:
440,372,77732,2,0,L|452:233,1,125.999996154785,10|2,0:2|0:2,0:0:0:0:
490,160,78252,1,2,1:2:0:0:
490,160,78425,6,0,L|481:85,2,62.9999980773926,2|10|2,0:2|0:2|0:2,0:0:0:0:
396,181,78946,1,2,1:2:0:0:
396,181,79119,2,0,P|362:172|317:174,1,62.9999980773926,8|0,0:2|1:2,0:0:0:0:
242,193,79466,2,0,P|208:202|163:200,1,62.9999980773926,4|0,1:2|0:2,0:0:0:0:
91,169,79813,6,0,L|97:96,1,62.9999980773926,4|0,1:2|0:2,0:0:0:0:
167,44,80159,2,0,P|198:45|228:53,2,62.9999980773926,2|2|10,0:2|1:2|0:2,0:0:0:0:
72,26,80680,1,2,1:2:0:0:
0,86,80853,2,0,L|6:132,3,31.4999990386963,8|8|2|0,0:2|0:0|1:2|1:0,0:0:0:0:
8,164,81200,5,10,0:2:0:0:
23,256,81373,1,10,0:2:0:0:
345,58,82067,1,2,0:2:0:0:
364,150,82240,2,0,L|355:214,1,62.9999980773926,12|2,0:2|0:2,0:0:0:0:
280,286,82587,6,0,P|344:317|412:301,1,140,4|8,1:2|0:2,0:0:0:0:
465,231,83107,1,0,0:2:0:0:
465,231,83281,2,0,L|473:148,2,70,0|0|8,1:2|1:2|0:2,0:0:0:0:
503,324,83801,1,2,0:2:0:0:
503,324,83888,1,2,0:2:0:0:
503,324,83974,6,0,P|436:328|375:380,1,140,0|8,1:2|0:2,0:0:0:0:
289,361,84495,1,0,1:2:0:0:
289,361,84668,2,0,P|283:322|269:281,2,70,0|0|8,0:2|1:2|0:2,0:0:0:0:
199,378,85188,1,0,0:2:0:0:
199,378,85362,6,0,P|134:354|61:380,1,140,0|8,1:2|0:2,0:0:0:0:
21,296,85882,1,0,0:2:0:0:
21,296,86055,2,0,L|12:209,1,70,0|0,1:2|1:2,0:0:0:0:
92,180,86402,2,0,L|99:249,1,70,8|0,0:2|0:2,0:0:0:0:
187,271,86749,6,0,L|178:184,1,70,0|0,1:2|0:2,0:0:0:0:
249,142,87096,2,0,L|256:60,2,70,8|0|0,0:2|1:2|1:2,0:0:0:0:
180,202,87616,1,8,0:2:0:0:
92,180,87790,1,8,0:2:0:0:
62,94,87963,1,0,1:2:0:0:
123,27,88136,6,0,B|198:0|185:60|266:38,1,140,4|8,1:2|0:2,0:0:0:0:
347,24,88657,1,0,0:2:0:0:
347,24,88830,2,0,L|355:94,1,70,0|0,1:2|1:2,0:0:0:0:
439,128,89177,2,0,L|430:206,1,70,8|0,0:2|0:2,0:0:0:0:
360,255,89524,6,0,P|423:242|482:298,1,140,0|8,1:2|0:2,0:0:0:0:
464,377,90044,1,0,1:2:0:0:
464,377,90217,2,0,P|416:367|369:362,2,70,0|0|8,0:2|1:2|0:2,0:0:0:0:
477,287,90738,1,0,0:2:0:0:
486,196,90911,6,0,P|491:120|508:33,1,140,0|8,1:2|0:2,0:0:0:0:
416,24,91431,1,0,0:2:0:0:
416,24,91605,2,0,P|379:17|338:24,1,70,0|0,1:2|1:2,0:0:0:0:
259,46,91951,2,0,P|222:53|181:46,1,70,8|0,0:2|0:2,0:0:0:0:
101,25,92298,6,0,P|51:31|28:128,1,140,0|8,1:2|0:2,0:0:0:0:
44,193,92818,2,0,P|87:187|127:188,1,70,0|0,1:2|1:2,0:0:0:0:
204,195,93165,1,8,0:2:0:0:
281,147,93339,2,0,L|284:101,2,35,0|8|0,1:2|0:0|1:2,0:0:0:0:
352,229,93685,6,0,L|362:321,1,83.9999974365235,4|0,1:2|0:2,0:0:0:0:
276,367,94032,2,0,P|234:354|166:360,1,83.9999974365235,10|0,0:2|1:2,0:0:0:0:
93,361,94379,2,0,L|103:259,1,83.9999974365235,8|0,0:2|1:2,0:0:0:0:
157,193,94726,2,0,L|147:91,1,83.9999974365235,10|0,0:2|1:2,0:0:0:0:
79,35,95073,6,0,P|37:20|-11:26,2,83.9999974365235,0|0|10,1:2|0:2|0:2,0:0:0:0:
148,109,95593,1,0,1:2:0:0:
241,145,95766,2,0,L|328:133,1,83.9999974365235,8|0,0:2|1:2,0:0:0:0:
384,52,96113,2,0,L|285:38,1,83.9999974365235,10|0,0:2|1:2,0:0:0:0:
199,38,96460,6,0,P|190:75|203:126,1,83.9999974365235,0|0,1:2|0:2,0:0:0:0:
286,170,96807,2,0,P|295:210|285:251,1,83.9999974365235,10|0,0:2|1:2,0:0:0:0:
215,323,97154,2,0,L|118:314,1,83.9999974365235,8|0,0:2|1:2,0:0:0:0:
38,356,97501,2,0,P|28:315|37:274,1,83.9999974365235,10|0,0:2|1:2,0:0:0:0:
73,180,97848,6,0,L|169:172,1,83.9999974365235,0|0,1:2|1:2,0:0:0:0:
249,133,98194,2,0,L|339:142,1,83.9999974365235,10|0,0:2|1:2,0:0:0:0:
425,102,98541,1,8,0:2:0:0:
494,174,98714,1,0,1:2:0:0:
468,271,98888,2,0,P|458:311|454:367,1,83.9999974365235,10|0,0:2|1:2,0:0:0:0:
354,373,99235,6,0,P|350:331|339:290,1,83.9999974365235,4|0,1:2|0:2,0:0:0:0:
276,212,99581,2,0,P|279:170|290:129,1,83.9999974365235,10|0,0:2|1:2,0:0:0:0:
314,30,99929,2,0,P|271:36|224:26,1,83.9999974365235,8|0,0:2|1:2,0:0:0:0:
132,44,100275,2,0,P|89:38|42:48,1,83.9999974365235,10|0,0:2|1:2,0:0:0:0:
18,142,100623,6,0,L|27:227,2,83.9999974365235,0|0|10,1:2|0:0|0:2,0:0:0:0:
115,113,101143,1,0,1:2:0:0:
137,211,101316,2,0,L|128:307,1,83.9999974365235,8|0,0:2|1:2,0:0:0:0:
200,365,101663,2,0,P|242:373|289:363,1,83.9999974365235,10|0,0:2|1:2,0:0:0:0:
375,327,102009,6,0,L|366:231,1,83.9999974365235,0|0,1:2|0:2,0:0:0:0:
277,196,102356,2,0,L|268:292,1,83.9999974365235,10|0,0:2|1:2,0:0:0:0:
180,230,102703,2,0,L|172:146,1,83.9999974365235,8|0,0:2|1:2,0:0:0:0:
90,86,103050,2,0,L|81:182,1,83.9999974365235,10|0,0:2|1:2,0:0:0:0:
69,269,103396,5,8,0:2:0:0:
58,369,103570,1,8,0:2:0:0:
348,286,104090,1,8,0:2:0:0:
363,186,104264,2,0,L|355:115,3,41.9999987182618,8|8|0|8,0:2|0:0|1:2|0:0,0:0:0:0:
352,94,104610,1,8,0:2:0:0:
256,192,105131,12,0,114495,0:0:0:0:
