osu file format v14

[General]
AudioFilename: audio.mp3
AudioLeadIn: 0
PreviewTime: 50594
Countdown: 0
SampleSet: Soft
StackLeniency: 0.7
Mode: 0
LetterboxInBreaks: 0
WidescreenStoryboard: 1

[Editor]
Bookmarks: 19813,114495
DistanceSpacing: 1.5
BeatDivisor: 4
GridSize: 4
TimelineZoom: 2

[Metadata]
Title:Snow Halation (feat. BeasttrollMC)
TitleUnicode:Snow Halation (feat. BeasttrollMC)
Artist:Will Stetson
ArtistUnicode:Will Stetson
Creator:Sotarks
Version:Nevo's Extra
Source:ラブライブ! School idol project
Tags:Love Live! µ's u's 2nd season dictate thinking fam edit remix mix cut short ver version christmas noel collab collaboration girls anime fortnite trynna seto_kousuke seto kousuke ayyri eiri- yuii- shunao shogunmoon lasse snownino_ namki akitoshi corinn -laura- doormat toybot kalibe reform kujinn onlybiscuit nevo armin a_r_m_i_n single
BeatmapID:1843593
BeatmapSetID:881764

[Difficulty]
HPDrainRate:5
CircleSize:4
OverallDifficulty:9.3
ApproachRate:9.2
SliderMultiplier:1.7
SliderTickRate:1

[Events]
//Background and Video events
0,0,"bg.jpg",0,0
//Break Periods
//Storyboard Layer 0 (Background)
//Storyboard Layer 1 (Fail)
//Storyboard Layer 2 (Pass)
//Storyboard Layer 3 (Foreground)
//Storyboard Sound Samples

[TimingPoints]
31,346.820809248555,3,2,22,32,1,0
738,346.820809248555,4,2,22,42,1,0
738,-133.333333333333,4,2,22,42,0,0
2818,-133.333333333333,4,2,22,12,0,0
2992,-133.333333333333,4,2,22,42,0,0
3685,-133.333333333333,4,2,22,12,0,0
3859,-133.333333333333,4,2,22,42,0,0
13050,-117.647058823529,4,2,22,42,0,0
13223,-117.647058823529,4,2,22,52,0,0
22934,-117.647058823529,4,2,22,62,0,0
23541,-117.647058823529,4,2,22,5,0,0
23628,-117.647058823529,4,2,22,52,0,0
24321,-100,4,2,22,62,0,0
32992,-100,4,2,22,32,0,0
33339,-100,4,2,22,42,0,0
33685,-100,4,2,22,52,0,0
34032,-100,4,2,22,62,0,0
34379,-100,4,2,22,72,0,0
35420,-117.647058823529,4,2,22,72,0,0
49292,-117.647058823529,4,2,22,82,0,0
51200,-117.647058823529,4,2,22,62,0,0
51720,-117.647058823529,4,2,22,72,0,0
52067,-66.6666666666667,4,2,22,82,0,0
52414,-83.3333333333333,4,2,22,82,0,1
74264,-133.333333333333,4,2,22,72,0,0
81547,-133.333333333333,4,2,22,52,0,0
82240,-133.333333333333,4,2,22,62,0,0
82587,-100,4,2,22,72,0,0
93685,-100,4,2,22,82,0,0
104784,-133.333333333333,4,2,22,82,0,0
105131,-133.333333333333,4,2,22,52,0,0
108946,-133.333333333333,4,2,22,42,0,0
113107,-133.333333333333,4,2,22,32,0,0
114495,-133.333333333333,4,2,22,12,0,0

[Colours]
Combo1 : 94,150,255
Combo2 : 250,255,43
Combo3 : 255,23,23
Combo4 : 176,255,60
Combo5 : 255,177,72

[HitObjects]
169,251,31,6,0,L|185:356,2,85,0|0|0,3:2|3:2|3:2,0:0:0:0:
104,202,464,1,0,3:0:0:0:
104,202,551,2,0,L|116:150,1,42.5,0|0,3:2|3:0,0:0:0:0:
89,81,738,6,0,B|149:64|187:112|187:112|230:133|281:123|313:89|303:39,1,255.000009727478,2|2,0:2|0:2,0:0:0:0:
356,57,2125,6,0,B|327:131|375:171|375:171|398:150|432:148|432:148|466:179|456:214,1,255.000009727478,2|0,0:2|0:2,0:0:0:0:
407,309,2992,1,2,0:2:0:0:
321,250,3165,1,0,0:2:0:0:
267,368,3339,1,2,0:2:0:0:
234,253,3512,6,0,L|324:262,1,63.7500024318696,2|0,0:2|0:2,0:0:0:0:
177,359,3859,1,2,0:2:0:0:
138,278,4032,1,2,0:2:0:0:
402,117,4899,6,0,B|347:90|309:103|309:103|263:114|243:88|243:88|279:53|336:61,2,255.000009727478,2|2|2,0:2|0:2|0:2,0:0:0:0:
162,216,6633,5,2,0:2:0:0:
152,168,6807,1,2,0:2:0:0:
281,229,7154,5,2,0:2:0:0:
330,299,7327,1,0,0:2:0:0:
399,221,7501,1,2,0:2:0:0:
479,323,7674,1,2,0:2:0:0:
454,78,8021,5,2,0:2:0:0:
443,125,8194,1,2,0:2:0:0:
309,1,8541,1,2,0:2:0:0:
267,235,9061,6,0,B|336:199|446:220|446:220|454:261|415:298|415:298|347:281|289:314,1,382.500014591218,2|2,0:2|0:2,0:0:0:0:
165,223,10448,6,0,B|200:164|121:37|121:37|44:122|92:171|92:171|159:115|242:159,1,510.000019454957,2|2,0:2|0:2,0:0:0:0:
120,265,13223,6,0,B|146:252|184:259|184:259|203:274|203:274|232:283|277:269,1,144.500002756119,2|2,0:2|0:2,0:0:0:0:
397,314,13743,2,0,P|347:290|265:314,1,144.500002756119,2|0,0:2|0:2,0:0:0:0:
169,371,14264,1,2,0:2:0:0:
97,262,14437,6,0,L|107:103,1,144.500002756119,2|0,0:2|0:2,0:0:0:0:
256,182,14957,2,0,P|199:191|175:184,1,72.2500013780594,2|0,0:2|0:2,0:0:0:0:
316,93,15304,2,0,P|351:89|386:98,1,72.2500013780594,2|0,0:2|0:2,0:0:0:0:
393,260,15651,2,0,P|352:228|347:169,1,108.375002067089,2|0,0:2|0:0,0:0:0:0:
425,116,15998,6,0,L|421:205,1,72.2500013780594,2|0,0:2|0:2,0:0:0:0:
501,297,16344,1,2,0:2:0:0:
501,297,16518,2,0,L|507:127,1,144.500002756119,2|0,0:2|0:2,0:0:0:0:
267,81,17558,5,2,0:2:0:0:
199,27,17732,1,0,0:2:0:0:
97,93,17905,1,2,0:2:0:0:
199,191,18079,2,0,L|185:94,1,72.2500013780594,2|0,0:2|0:2,0:0:0:0:
72,179,18425,2,0,L|61:250,1,72.2500013780594,2|2,0:2|0:2,0:0:0:0:
115,355,18772,6,0,P|159:337|190:339,1,72.2500013780594,2|0,0:2|0:2,0:0:0:0:
319,298,19119,1,2,0:0:0:0:
319,298,19292,2,0,P|275:280|244:282,1,72.2500013780594,2|0,0:2|0:2,0:0:0:0:
99,201,19639,2,0,P|143:176|246:192,1,144.500002756119,2|0,0:2|0:2,0:0:0:0:
361,273,20159,6,0,L|355:110,1,144.500002756119,2|2,0:2|0:2,0:0:0:0:
222,43,20680,1,2,0:2:0:0:
456,42,21027,1,2,0:2:0:0:
335,204,21547,5,2,0:2:0:0:
256,192,21633,12,2,22761,0:2:0:0:
151,239,22934,5,2,1:2:0:0:
355,185,23107,1,2,1:2:0:0:
366,172,23628,5,2,1:2:0:0:
162,118,23801,1,2,1:2:0:0:
292,36,23974,2,0,L|298:84,3,36.1250006890297,8|8|8|8,0:0|0:2|0:2|0:0,0:0:0:0:
366,172,24321,6,0,L|360:275,1,85,6|0,1:2|0:2,0:0:0:0:
253,358,24668,2,0,L|247:255,1,85,2|2,1:2|0:2,0:0:0:0:
83,283,25014,1,0,1:2:0:0:
162,317,25188,1,0,0:2:0:0:
13,347,25361,1,2,1:2:0:0:
39,185,25535,6,0,P|84:201|193:141,1,170,2|0,0:2|0:2,0:0:0:0:
256,37,26055,2,0,P|256:92|277:124,1,85,2|0,1:2|0:2,0:0:0:0:
422,187,26402,2,0,P|374:159|336:161,1,85,2|0,1:2|0:2,0:0:0:0:
209,255,26749,2,0,P|256:227|273:193,1,85,2|0,1:2|3:2,0:0:0:0:
74,137,27096,6,0,L|84:247,1,85,2|0,0:2|0:2,0:0:0:0:
199,84,27443,2,0,L|189:194,1,85,2|0,1:2|0:2,0:0:0:0:
308,30,27790,2,0,L|315:114,1,85,2|0,1:2|0:2,0:0:0:0:
347,287,28136,6,0,P|397:250|499:296,1,170,2|0,1:2|1:2,0:0:0:0:
420,334,28657,1,0,0:2:0:0:
430,200,28830,2,0,L|437:115,1,85,0|0,1:2|0:2,0:0:0:0:
344,258,29177,2,0,L|336:173,1,85,0|0,1:2|0:2,0:0:0:0:
242,315,29524,1,0,1:0:0:0:
336,173,29697,1,8,0:0:0:0:
107,85,29870,6,0,P|144:119|197:132,1,85,2|0,1:2|0:2,0:0:0:0:
353,93,30217,1,2,1:2:0:0:
353,93,30391,2,0,P|302:95|256:123,1,85,2|0,0:2|1:2,0:0:0:0:
173,261,30738,1,2,0:2:0:0:
173,261,30911,2,0,P|207:223|220:171,1,85,0|2,1:2|0:2,0:0:0:0:
71,328,31258,6,0,P|126:298|251:319,1,170,0|0,1:2|1:2,0:0:0:0:
368,227,31778,1,2,0:2:0:0:
368,227,31951,2,0,L|265:234,1,85,0|2,1:2|0:2,0:0:0:0:
167,135,32298,2,0,L|270:142,1,85,0|2,1:2|0:2,0:0:0:0:
330,0,32645,6,0,P|283:24|257:68,1,85,0|0,1:2|0:2,0:0:0:0:
342,180,32992,2,0,L|352:78,1,85,4|0,1:2|0:2,0:0:0:0:
260,226,33339,2,0,L|250:124,1,85,4|0,1:2|0:2,0:0:0:0:
420,276,33685,2,0,L|430:174,1,85,4|0,1:2|0:2,0:0:0:0:
186,311,34032,2,0,L|176:209,1,85,4|0,1:2|0:2,0:0:0:0:
496,357,34379,2,0,L|506:255,1,85,4|0,1:2|0:2,0:0:0:0:
365,113,34726,5,0,1:2:0:0:
396,226,34899,1,8,0:2:0:0:
462,55,35073,1,8,0:3:0:0:
261,64,35246,1,4,0:3:0:0:
499,179,35420,6,0,P|437:143|346:167,1,144.500002756119,4|2,1:2|0:2,0:0:0:0:
299,227,35940,1,0,1:2:0:0:
209,184,36113,2,0,L|215:89,1,72.2500013780594,10|0,0:2|0:2,0:0:0:0:
168,29,36460,1,2,0:2:0:0:
84,123,36633,2,0,L|94:289,1,144.500002756119,2|0,1:2|0:2,0:0:0:0:
159,337,37154,2,0,P|205:312|250:314,1,72.2500013780594,0|0,1:2|0:2,0:0:0:0:
371,279,37501,2,0,P|325:254|280:256,1,72.2500013780594,8|0,0:2|1:2,0:0:0:0:
110,228,37847,1,4,1:2:0:0:
232,69,38194,6,0,L|226:162,1,72.2500013780594,4|0,0:2|0:2,0:0:0:0:
313,237,38541,2,0,L|307:143,1,72.2500013780594,2|0,0:2|1:2,0:0:0:0:
383,294,38888,2,0,P|347:320|238:287,1,144.500002756119,10|2,0:2|0:2,0:0:0:0:
117,259,39408,2,0,L|203:248,1,72.2500013780594,2|0,1:2|0:2,0:0:0:0:
331,182,39755,1,10,0:2:0:0:
249,173,39928,1,2,0:2:0:0:
383,115,40102,2,0,B|415:160|415:160|404:252,1,144.500002756119,2|0,1:2|0:2,0:0:0:0:
277,354,40622,1,4,1:2:0:0:
119,121,40969,6,0,L|204:113,1,72.2500013780594,6|0,1:2|0:2,0:0:0:0:
331,182,41316,2,0,L|246:174,1,72.2500013780594,10|0,0:2|0:2,0:0:0:0:
225,45,41662,1,2,1:2:0:0:
295,97,41836,1,0,1:2:0:0:
379,16,42009,2,0,L|308:10,1,72.2500013780594,10|0,0:2|0:2,0:0:0:0:
349,166,42356,6,0,P|375:134|386:92,1,72.2500013780594,2|0,1:2|0:2,0:0:0:0:
259,175,42703,1,10,0:2:0:0:
259,175,42876,2,0,L|266:266,1,72.2500013780594,2|0,1:2|0:2,0:0:0:0:
408,298,43223,1,0,1:2:0:0:
408,298,43396,2,0,L|415:207,1,72.2500013780594,8|0,0:2|0:2,0:0:0:0:
362,72,43743,6,0,P|322:57|267:62,1,72.2500013780594,6|0,1:2|0:2,0:0:0:0:
167,136,44090,2,0,P|207:121|262:126,1,72.2500013780594,10|0,0:2|0:2,0:0:0:0:
380,185,44437,1,2,1:2:0:0:
295,174,44610,1,0,1:2:0:0:
318,325,44784,2,0,L|327:220,1,72.2500013780594,10|0,0:2|0:2,0:0:0:0:
167,136,45131,6,0,L|176:241,1,72.2500013780594,2|0,1:2|0:2,0:0:0:0:
167,348,45477,1,10,0:2:0:0:
83,290,45651,2,0,P|128:257|227:263,1,144.500002756119,2|0,1:2|1:2,0:0:0:0:
359,343,46171,1,8,0:2:0:0:
301,193,46518,6,0,L|310:287,1,72.2500013780594,6|0,1:2|0:2,0:0:0:0:
426,142,46865,2,0,L|417:236,1,72.2500013780594,10|0,0:2|0:2,0:0:0:0:
245,124,47211,2,0,P|294:100|339:106,1,72.2500013780594,2|0,1:2|1:2,0:0:0:0:
484,80,47558,1,10,0:2:0:0:
484,80,47732,2,0,P|435:56|390:62,1,72.2500013780594,2|0,0:2|1:2,0:0:0:0:
419,213,48079,6,0,L|426:127,1,72.2500013780594,2|8,0:2|0:2,0:0:0:0:
301,193,48425,2,0,L|308:279,1,72.2500013780594,2|0,1:2|0:2,0:0:0:0:
444,358,48772,2,0,P|402:335|370:332,1,72.2500013780594,2|8,1:2|0:2,0:0:0:0:
378,331,49032,1,8,0:0:0:0:
378,331,49119,1,2,1:2:0:0:
194,369,49292,5,14,0:2:0:0:
293,185,49466,1,0,1:2:0:0:
312,380,49639,1,10,0:2:0:0:
210,179,49813,1,0,1:2:0:0:
84,352,49986,1,10,0:2:0:0:
348,266,50159,1,0,1:2:0:0:
153,94,50333,1,10,0:2:0:0:
204,299,50506,1,0,1:2:0:0:
296,44,50680,5,10,1:2:0:0:
95,161,50853,1,8,1:2:0:0:
103,176,51373,6,0,P|158:146|249:161,1,144.500002756119,2|8,0:2|0:2,0:0:0:0:
220,288,52067,6,0,P|164:297|217:235,1,191.250007295609,4|0,1:2|0:0,0:0:0:0:
291,246,52414,6,0,L|407:236,1,101.999996887207,10|0,0:2|0:2,0:0:0:0:
153,94,52761,2,0,L|37:84,1,101.999996887207,2|0,1:2|1:2,0:0:0:0:
208,1,53107,1,10,0:2:0:0:
293,164,53281,6,0,P|356:134|480:204,1,203.999993774414,2|0,0:2|0:2,0:0:0:0:
388,334,53801,2,0,L|368:187,1,101.999996887207,10|0,0:2|1:2,0:0:0:0:
484,85,54148,2,0,L|464:232,1,101.999996887207,2|0,0:2|1:2,0:0:0:0:
239,85,54495,2,0,P|311:72|342:82,1,101.999996887207,10|0,0:2|0:2,0:0:0:0:
201,177,54842,6,0,L|69:167,1,101.999996887207,2|0,1:2|0:2,0:0:0:0:
242,277,55188,1,10,0:2:0:0:
351,140,55362,2,0,L|483:130,1,101.999996887207,2|0,0:2|1:2,0:0:0:0:
330,239,55709,1,2,1:2:0:0:
243,98,55882,1,8,0:2:0:0:
351,140,56055,1,2,0:2:0:0:
244,2,56229,6,0,P|189:16|157:57,1,101.999996887207,2|0,1:2|0:2,0:0:0:0:
241,193,56576,2,0,P|256:138|236:90,1,101.999996887207,10|0,0:2|1:2,0:0:0:0:
159,240,56922,2,0,P|198:280|250:287,1,101.999996887207,2|8,1:2|0:2,0:0:0:0:
155,142,57269,1,14,0:2:0:0:
343,38,57616,6,0,L|350:139,1,101.999996887207,6|0,1:2|0:2,0:0:0:0:
493,274,57963,2,0,L|500:172,1,101.999996887207,10|0,0:2|0:2,0:0:0:0:
316,244,58310,2,0,P|366:221|434:233,1,101.999996887207,2|0,1:2|1:2,0:0:0:0:
307,342,58657,2,0,P|256:343|211:321,1,101.999996887207,10|2,0:2|0:2,0:0:0:0:
103,165,59003,6,0,B|156:135|216:158|196:178|254:198|298:163,1,203.999993774414,0|8,1:2|0:2,0:0:0:0:
450,87,59524,2,0,P|370:71|339:87,1,101.999996887207,0|0,1:2|0:2,0:0:0:0:
248,144,59870,1,0,1:2:0:0:
385,256,60044,2,0,L|390:145,1,101.999996887207,10|2,0:2|0:2,0:0:0:0:
247,246,60391,6,0,L|252:357,1,101.999996887207,6|0,1:2|0:2,0:0:0:0:
161,186,60738,1,8,0:2:0:0:
311,171,60911,1,0,0:2:0:0:
165,84,61084,2,0,L|160:195,1,101.999996887207,2|0,1:2|1:2,0:0:0:0:
243,22,61431,1,8,0:2:0:0:
85,28,61605,1,2,0:2:0:0:
308,95,61778,5,10,0:2:0:0:
38,114,61951,1,8,0:2:0:0:
27,129,62472,5,8,0:2:0:0:
332,191,62646,1,10,0:2:0:0:
226,258,62818,2,0,L|237:319,3,50.9999984436036,8|8|8|8,0:2|0:0|0:2|0:0,0:0:0:0:
161,187,63165,6,0,B|169:80|169:80|213:139,1,152.999995330811,4|0,1:2|0:0,0:0:0:0:
264,160,63512,6,0,L|380:170,1,101.999996887207,10|0,0:2|0:2,0:0:0:0:
136,262,63859,2,0,L|20:272,1,101.999996887207,2|0,1:2|1:2,0:0:0:0:
191,355,64205,1,10,0:2:0:0:
256,247,64379,6,0,P|319:277|443:207,1,203.999993774414,2|0,0:2|0:2,0:0:0:0:
350,85,64899,2,0,L|330:232,1,101.999996887207,10|0,0:2|1:2,0:0:0:0:
465,131,65246,2,0,L|445:-16,1,101.999996887207,2|0,0:2|1:2,0:0:0:0:
251,79,65593,2,0,P|323:92|354:82,1,101.999996887207,10|0,0:2|0:2,0:0:0:0:
186,2,65940,6,0,L|54:12,1,101.999996887207,2|0,1:2|0:2,0:0:0:0:
8,91,66286,1,10,0:2:0:0:
136,162,66460,2,0,B|170:172|201:154|201:154|229:165|229:165|287:134|348:152,1,203.999993774414,2|0,0:2|1:2,0:0:0:0:
319,329,66980,2,0,P|295:272|292:233,1,101.999996887207,10|2,0:2|0:2,0:0:0:0:
405,142,67327,6,0,L|393:264,1,101.999996887207,2|0,1:2|0:2,0:0:0:0:
280,99,67674,2,0,L|292:221,1,101.999996887207,10|0,0:2|1:2,0:0:0:0:
504,66,68021,2,0,L|492:188,1,101.999996887207,2|8,1:2|0:2,0:0:0:0:
219,13,68367,1,14,0:2:0:0:
318,272,68714,6,0,L|325:170,1,101.999996887207,6|0,1:2|0:2,0:0:0:0:
189,94,69061,2,0,L|196:195,1,101.999996887207,10|0,0:2|0:2,0:0:0:0:
394,97,69408,2,0,P|344:74|276:86,1,101.999996887207,2|0,1:2|1:2,0:0:0:0:
162,278,69755,2,0,P|212:279|257:257,1,101.999996887207,10|2,0:2|0:2,0:0:0:0:
88,194,70102,6,0,P|132:278|89:372,1,203.999993774414,0|8,1:2|0:2,0:0:0:0:
28,128,70622,2,0,P|108:112|139:128,1,101.999996887207,0|0,1:2|0:2,0:0:0:0:
242,203,70968,1,0,1:2:0:0:
368,100,71142,2,0,L|373:211,1,101.999996887207,10|2,0:2|0:2,0:0:0:0:
230,110,71489,6,0,L|235:-1,1,101.999996887207,6|0,1:2|0:2,0:0:0:0:
144,170,71836,1,8,0:2:0:0:
294,185,72009,1,0,0:2:0:0:
148,272,72182,2,0,L|143:161,1,101.999996887207,2|0,1:2|1:2,0:0:0:0:
226,334,72529,1,8,0:2:0:0:
68,328,72703,1,2,0:2:0:0:
155,177,72876,1,14,0:2:0:0:
148,272,73049,1,0,1:2:0:0:
82,113,73223,5,10,0:2:0:0:
237,233,73396,1,6,1:2:0:0:
246,248,73744,5,2,1:2:0:0:
269,30,73917,1,8,0:2:0:0:
340,163,74090,2,0,L|394:154,1,50.9999984436036,8|8,0:2|0:0,0:0:0:0:
479,140,74264,6,0,L|469:267,1,127.500004863739,4|2,1:2|0:2,0:0:0:0:
234,92,74957,2,0,L|244:219,1,127.500004863739,10|2,0:2|0:2,0:0:0:0:
381,15,75651,5,2,0:2:0:0:
109,47,75998,1,2,0:2:0:0:
109,47,76171,2,0,L|118:133,1,63.7500024318696,2|8,1:2|0:2,0:0:0:0:
218,283,76691,1,4,1:2:0:0:
320,55,77038,5,6,1:2:0:0:
412,243,77385,2,0,L|330:234,1,63.7500024318696,2|2,0:2|1:2,0:0:0:0:
125,194,77732,1,10,0:2:0:0:
386,132,78079,2,0,L|479:127,1,63.7500024318696,2|2,0:2|1:2,0:0:0:0:
315,184,78425,6,0,P|298:139|299:109,1,63.7500024318696,2|10,0:2|0:2,0:0:0:0:
193,61,78772,2,0,P|210:106|209:136,1,63.7500024318696,2|2,0:2|1:2,0:0:0:0:
62,105,79119,2,0,L|126:109,1,63.7500024318696,8|0,0:2|1:2,0:0:0:0:
297,123,79466,1,4,1:2:0:0:
69,250,79813,5,4,1:2:0:0:
292,285,80159,2,0,L|201:267,1,63.7500024318696,2|2,0:2|1:2,0:0:0:0:
102,170,80506,1,10,0:2:0:0:
264,149,80680,1,2,1:2:0:0:
164,56,80853,2,0,L|157:5,3,31.8750012159348,8|8|2|0,0:2|0:0|1:2|1:0,0:0:0:0:
180,152,81200,5,10,0:2:0:0:
424,79,81373,1,10,0:2:0:0:
433,95,82067,1,2,0:2:0:0:
168,57,82240,6,0,L|179:152,1,95.6250036478044,12|0,0:2|0:0,0:0:0:0:
252,203,82587,6,0,L|260:112,1,85,4|0,1:2|0:2,0:0:0:0:
442,178,82934,2,0,L|450:269,1,85,8|0,0:2|0:2,0:0:0:0:
296,324,83281,1,0,1:2:0:0:
366,264,83455,1,0,1:2:0:0:
459,372,83628,2,0,L|362:360,1,85,8|0,0:2|0:2,0:2:0:0:
251,204,83974,6,0,P|157:196|95:252,1,170,0|8,1:2|0:2,0:0:0:0:
22,115,84495,1,0,1:2:0:0:
22,115,84668,2,0,L|123:124,1,85,0|0,0:2|1:2,0:0:0:0:
276,82,85015,2,0,L|175:91,1,85,8|0,0:2|0:2,0:0:0:0:
332,152,85362,6,0,P|359:102|354:47,1,85,0|0,1:2|0:2,0:0:0:0:
464,223,85709,2,0,P|437:173|442:118,1,85,8|0,0:2|0:2,0:0:0:0:
331,315,86055,2,0,P|358:265|353:210,1,85,0|0,1:2|1:2,0:0:0:0:
471,384,86402,2,0,P|444:334|449:279,1,85,8|0,0:2|0:2,0:0:0:0:
239,370,86749,6,0,L|58:361,1,170,0|8,1:2|0:2,0:0:0:0:
167,201,87269,1,0,1:2:0:0:
167,201,87443,2,0,L|160:298,1,85,0|8,1:2|0:2,0:0:0:0:
42,180,87790,2,0,L|35:83,1,85,8|0,0:2|1:2,0:0:0:0:
312,137,88136,6,0,B|268:161|226:131|226:131|192:99|144:113,1,170,4|8,1:2|0:2,0:0:0:0:
167,201,88657,1,0,0:2:0:0:
271,62,88830,2,0,P|316:52|368:73,1,85,0|0,1:2|1:2,0:0:0:0:
451,206,89177,2,0,P|406:216|354:195,1,85,8|0,0:2|0:2,0:0:0:0:
497,121,89524,6,0,L|486:307,1,170,0|8,1:2|0:2,0:0:0:0:
416,369,90044,1,0,1:2:0:0:
291,301,90217,2,0,L|386:289,1,85,0|0,0:2|1:2,0:0:0:0:
235,379,90564,2,0,L|140:367,1,85,8|0,0:2|0:2,0:0:0:0:
178,210,90911,6,0,P|202:265|186:316,1,85,0|0,1:2|0:2,0:0:0:0:
84,183,91258,2,0,P|84:140|105:104,1,85,8|0,0:2|0:2,0:0:0:0:
281,76,91605,1,0,1:2:0:0:
201,131,91778,1,0,1:2:0:0:
287,182,91951,2,0,L|295:78,1,85,8|0,0:2|0:2,0:0:0:0:
98,19,92298,6,0,L|106:123,1,85,0|0,1:2|0:2,0:0:0:0:
281,76,92645,1,8,0:2:0:0:
281,76,92818,2,0,L|177:68,1,85,0|0,1:2|1:2,0:0:0:0:
17,63,93165,1,8,0:2:0:0:
116,209,93339,2,0,L|127:272,3,42.5,0|8|0|0,1:2|0:0|1:2|0:0,0:0:0:0:
107,119,93685,6,0,P|192:121|223:141,1,85,4|0,1:2|0:2,0:0:0:0:
402,195,94032,5,10,0:2:0:0:
175,264,94206,1,0,1:2:0:0:
441,281,94379,5,8,0:2:0:0:
154,274,94553,1,0,1:2:0:0:
479,205,94726,5,10,0:2:0:0:
132,287,94899,1,0,1:2:0:0:
319,125,95073,5,0,1:2:0:0:
381,350,95246,1,0,0:2:0:0:
236,81,95420,5,10,0:2:0:0:
167,316,95593,1,0,1:2:0:0:
310,36,95766,5,8,0:2:0:0:
366,269,95940,1,0,1:2:0:0:
240,0,96113,5,10,0:2:0:0:
162,232,96286,1,0,1:2:0:0:
398,63,96460,5,0,1:2:0:0:
111,103,96633,1,0,0:2:0:0:
401,151,96807,5,10,0:2:0:0:
93,110,96980,1,0,1:2:0:0:
475,104,97154,5,8,0:2:0:0:
75,116,97327,1,0,1:2:0:0:
484,192,97501,5,10,0:2:0:0:
57,120,97674,1,0,1:2:0:0:
308,246,97847,5,0,1:2:0:0:
332,67,98021,1,0,1:2:0:0:
223,281,98194,5,10,0:2:0:0:
165,48,98368,1,0,1:2:0:0:
336,332,98541,5,8,0:2:0:0:
362,152,98714,1,0,1:2:0:0:
190,362,98888,5,10,0:2:0:0:
145,136,99061,1,0,1:2:0:0:
399,255,99235,6,0,L|301:246,1,85,4|0,1:2|0:2,0:0:0:0:
105,369,99581,2,0,L|203:360,1,85,10|0,0:2|1:2,0:0:0:0:
213,163,99928,5,8,0:2:0:0:
180,263,100102,1,0,1:2:0:0:
322,165,100275,2,0,L|313:67,1,85,10|0,0:2|1:2,0:0:0:0:
131,149,100622,6,0,P|192:166|239:151,1,85,0|0,1:2|0:2,0:0:0:0:
365,16,100969,2,0,P|304:-1|257:14,1,85,10|0,0:2|1:2,0:0:0:0:
268,236,101316,5,8,0:2:0:0:
314,80,101489,1,0,1:2:0:0:
402,295,101662,5,10,0:2:0:0:
388,139,101836,1,0,1:2:0:0:
258,328,102009,5,0,1:2:0:0:
455,223,102183,1,0,0:2:0:0:
218,159,102356,5,10,0:2:0:0:
473,226,102529,1,0,1:2:0:0:
169,259,102703,5,8,0:2:0:0:
491,228,102876,1,0,1:2:0:0:
141,110,103050,5,10,0:2:0:0:
512,233,103223,1,0,1:2:0:0:
96,327,103396,5,8,0:2:0:0:
258,97,103570,1,8,0:2:0:0:
272,108,104090,5,8,0:2:0:0:
365,363,104264,1,8,0:2:0:0:
404,228,104437,2,0,L|478:217,3,42.5,0|8|8|8,1:2|0:0|0:2|0:3,0:0:0:0:
333,280,104784,6,0,P|277:246|213:260,1,127.500004863739,4|4,0:3|0:2,0:0:0:0:
256,192,105217,12,0,114495,0:0:0:0:
