osu file format v14

[General]
AudioFilename: audio.mp3
AudioLeadIn: 0
PreviewTime: 50594
Countdown: 0
SampleSet: Soft
StackLeniency: 0.7
Mode: 0
LetterboxInBreaks: 0
WidescreenStoryboard: 0

[Editor]
Bookmarks: 114495
DistanceSpacing: 1.5
BeatDivisor: 4
GridSize: 4
TimelineZoom: 2

[Metadata]
Title:Snow Halation (feat. BeasttrollMC)
TitleUnicode:Snow Halation (feat. BeasttrollMC)
Artist:Will Stetson
ArtistUnicode:Will Stetson
Creator:Sotarks
Version:Gift
Source:ラブライブ! School idol project
Tags:Love Live! µ's u's 2nd season dictate thinking fam edit remix mix cut short ver version christmas noel collab collaboration girls anime fortnite trynna seto_kousuke seto kousuke ayyri eiri- yuii- shunao shogunmoon lasse snownino_ namki akitoshi corinn -laura- doormat toybot kalibe reform kujinn onlybiscuit nevo armin a_r_m_i_n single
BeatmapID:1843589
BeatmapSetID:881764

[Difficulty]
HPDrainRate:5
CircleSize:4
OverallDifficulty:9.4
ApproachRate:9.2
SliderMultiplier:1.4
SliderTickRate:1

[Events]
//Background and Video events
0,0,"bg.jpg",0,0
//Break Periods
//Storyboard Layer 0 (Background)
//Storyboard Layer 1 (Fail)
//Storyboard Layer 2 (Pass)
//Storyboard Layer 3 (Foreground)
//Storyboard Sound Samples

[TimingPoints]
31,346.820809248555,3,2,22,32,1,0
738,346.820809248555,4,2,22,42,1,0
738,-138.888888888889,4,2,22,42,0,0
10448,-192.307692307692,4,2,22,42,0,0
13223,-138.888888888889,4,2,22,52,0,0
22934,-138.888888888889,4,2,22,62,0,0
23281,-161.290322580645,4,2,22,62,0,0
23628,-121.951219512195,4,2,22,52,0,0
24321,-108.695652173913,4,2,22,62,0,0
32992,-161.290322580645,4,2,22,32,0,0
33252,-161.290322580645,4,2,22,5,0,0
33339,-138.888888888889,4,2,22,42,0,0
33599,-138.888888888889,4,2,22,5,0,0
33685,-121.951219512195,4,2,22,52,0,0
33946,-121.951219512195,4,2,22,5,0,0
34032,-108.695652173913,4,2,22,62,0,0
34292,-108.695652173913,4,2,22,5,0,0
34379,-98.0392156862745,4,2,22,72,0,0
34639,-98.0392156862745,4,2,22,5,0,0
34726,-98.0392156862745,4,2,22,72,0,0
35420,-108.695652173913,4,2,22,72,0,0
40969,-98.0392156862745,4,2,22,72,0,0
49292,-98.0392156862745,4,2,22,82,0,0
51200,-98.0392156862745,4,2,22,62,0,0
51720,-98.0392156862745,4,2,22,72,0,0
52067,-89.2857142857143,4,2,22,82,0,0
74264,-108.695652173913,4,2,22,72,0,0
81547,-108.695652173913,4,2,22,52,0,0
82240,-108.695652173913,4,2,22,62,0,0
82587,-98.0392156862745,4,2,22,72,0,0
93685,-89.2857142857143,4,2,22,82,0,0
105131,-714.285714285714,4,2,22,52,0,0
108946,-714.285714285714,4,2,22,42,0,0
113107,-714.285714285714,4,2,22,32,0,0
114495,-714.285714285714,4,2,22,12,0,0

[Colours]
Combo1 : 94,150,255
Combo2 : 250,255,43
Combo3 : 255,23,23
Combo4 : 176,255,60
Combo5 : 255,177,72

[HitObjects]
141,84,31,5,0,3:2:0:0:
200,302,204,1,0,3:2:0:0:
277,134,377,1,0,3:2:0:0:
308,119,463,1,0,3:0:0:0:
343,120,550,1,0,3:2:0:0:
374,136,637,1,0,3:0:0:0:
394,164,738,6,0,P|400:207|405:232,1,50.4000012304688,2|0,0:2|0:2,0:0:0:0:
303,308,1084,1,2,0:2:0:0:
320,207,1258,1,0,0:2:0:0:
187,271,1431,2,0,P|140:258|86:252,1,100.800002460938,2|2,0:2|0:2,0:0:0:0:
167,143,1951,1,2,0:2:0:0:
287,226,2125,6,0,P|293:259|301:289,2,50.4000012304688,2|0|2,0:2|0:2|0:2,0:0:0:0:
342,74,2645,1,2,0:2:0:0:
342,74,2992,1,2,0:2:0:0:
281,192,3165,1,0,0:2:0:0:
200,62,3339,1,2,0:2:0:0:
297,215,3512,6,0,P|290:256|283:328,1,100.800002460938,2|2,0:2|0:2,0:0:0:0:
144,218,4032,2,0,B|259:198|186:134|326:122,1,201.600004921875,2|0,0:2|0:2,0:0:0:0:
384,254,4899,6,0,P|326:242|285:195,1,100.800002460938,2|0,0:2|0:2,0:0:0:0:
321,91,5420,1,2,0:2:0:0:
150,31,5593,2,0,P|168:112|178:193,1,151.200003691406,2|0,0:2|0:2,0:0:0:0:
102,312,6287,6,0,P|89:280|77:257,2,50.4000012304688,2|0|2,0:2|0:2|0:2,0:0:0:0:
208,195,6807,1,2,0:2:0:0:
208,195,7154,1,2,0:2:0:0:
337,258,7327,1,0,0:2:0:0:
190,309,7501,1,2,0:2:0:0:
352,235,7674,6,0,P|356:204|363:174,1,50.4000012304688,2|0,0:2|0:2,0:0:0:0:
276,84,8021,1,2,0:2:0:0:
208,195,8194,2,0,P|164:194|107:149,1,100.800002460938,2|2,0:2|0:2,0:0:0:0:
117,164,9061,6,0,P|127:226|140:320,1,151.200003691406,2|0,0:2|0:2,0:0:0:0:
226,165,9755,1,2,0:2:0:0:
297,315,9928,1,0,0:2:0:0:
262,180,10102,1,2,0:2:0:0:
218,291,10275,1,0,0:2:0:0:
383,86,10448,6,0,B|219:63|303:202|149:228,1,291.199998222656,2|2,0:2|0:2,0:0:0:0:
183,141,13050,5,0,0:0:0:0:
183,141,13136,1,0,0:0:0:0:
183,141,13223,2,0,P|174:104|165:78,1,50.4000012304688,2|0,0:2|0:2,0:0:0:0:
271,29,13570,1,2,0:2:0:0:
317,142,13743,2,0,P|304:205|297:251,1,100.800002460938,2|0,0:2|0:2,0:0:0:0:
350,355,14264,1,2,0:2:0:0:
254,308,14437,2,0,B|197:300|221:271|144:263,1,100.800002460938,2|0,0:2|0:2,0:0:0:0:
171,135,14957,2,0,P|185:173|189:195,1,50.4000012304688,2|0,0:2|0:2,0:0:0:0:
274,227,15304,2,0,P|280:202|290:179,1,50.4000012304688,2|0,0:2|0:2,0:0:0:0:
381,127,15651,1,2,0:2:0:0:
381,127,15998,6,0,P|333:125|283:82,1,100.800002460938,2|2,0:2|0:2,0:0:0:0:
118,118,16518,2,0,P|148:56|283:19,1,201.600004921875,2|0,0:2|0:2,0:0:0:0:
267,15,17558,1,2,0:2:0:0:
330,164,17732,1,0,0:2:0:0:
377,56,17905,1,2,0:2:0:0:
225,128,18079,5,2,0:2:0:0:
367,84,18252,1,0,0:2:0:0:
298,239,18425,1,2,0:2:0:0:
237,102,18599,1,2,0:2:0:0:
176,260,18772,6,0,P|134:263|87:221,1,100.800002460938,2|2,0:2|0:2,0:0:0:0:
125,84,19292,2,0,P|134:119|143:151,1,50.4000012304688,2|0,0:2|0:2,0:0:0:0:
262,209,19639,2,0,P|272:158|280:90,1,100.800002460938,2|2,0:2|0:2,0:0:0:0:
395,41,20159,2,0,P|429:65|438:134,1,100.800002460938,2|2,0:2|0:2,0:0:0:0:
375,227,20680,2,0,P|359:191|352:161,1,50.4000012304688,2|0,0:2|0:2,0:0:0:0:
255,82,21027,2,0,P|248:132|239:182,1,100.800002460938,2|2,0:2|0:2,0:0:0:0:
81,263,21547,6,0,B|207:255|143:322|277:326,1,201.600004921875,2|0,0:2|0:2,0:0:0:0:
386,221,22414,1,2,0:2:0:0:
247,147,22587,1,0,0:2:0:0:
293,300,22761,1,2,0:2:0:0:
339,40,22934,5,2,1:2:0:0:
144,250,23107,1,2,1:2:0:0:
200,84,23281,6,0,P|212:116|218:140,1,43.3999982781983,0|0,0:2|0:2,0:0:0:0:
378,339,23628,5,2,1:2:0:0:
63,219,23801,1,2,1:2:0:0:
312,138,23974,1,8,0:0:0:0:
315,166,24060,1,8,0:2:0:0:
319,194,24147,1,8,0:2:0:0:
323,223,24234,1,8,0:0:0:0:
328,255,24321,6,0,P|310:296|301:326,1,64.3999978381348,6|0,1:2|0:2,0:0:0:0:
193,195,24668,1,2,1:2:0:0:
380,88,24842,2,0,P|393:117|403:148,1,64.3999978381348,2|0,0:2|1:2,0:0:0:0:
361,267,25188,1,0,0:2:0:0:
219,116,25362,1,2,1:2:0:0:
379,180,25535,1,2,0:2:0:0:
214,284,25709,6,0,P|149:269|77:258,1,128.79999567627,0|2,1:2|1:2,0:0:0:0:
199,146,26229,1,0,0:2:0:0:
288,324,26402,1,2,1:2:0:0:
151,235,26576,1,0,0:2:0:0:
321,126,26749,2,0,P|319:180|315:214,1,64.3999978381348,2|0,1:2|3:2,0:0:0:0:
134,86,27096,6,0,P|89:69|65:64,1,64.3999978381348,2|0,0:2|0:2,0:0:0:0:
250,244,27443,2,0,P|281:235|310:223,1,64.3999978381348,2|0,1:2|0:2,0:0:0:0:
247,61,27790,1,2,1:2:0:0:
173,193,27963,1,0,0:2:0:0:
335,88,28136,2,0,P|364:75|395:67,1,64.3999978381348,2|0,1:2|0:2,0:0:0:0:
354,234,28483,5,0,1:2:0:0:
229,94,28657,1,0,0:2:0:0:
131,261,28830,1,0,1:2:0:0:
276,188,29003,1,0,0:2:0:0:
136,89,29177,1,0,1:2:0:0:
149,231,29350,1,0,0:2:0:0:
215,66,29524,1,0,1:2:0:0:
352,313,29697,1,8,0:2:0:0:
372,47,29870,6,0,P|349:93|340:124,1,64.3999978381348,2|0,1:2|0:2,0:0:0:0:
334,279,30217,1,2,1:2:0:0:
234,105,30391,2,0,P|181:89|148:88,1,64.3999978381348,2|0,0:2|1:2,0:0:0:0:
242,265,30738,1,2,0:2:0:0:
357,140,30911,1,0,1:2:0:0:
181,176,31084,1,2,0:2:0:0:
346,308,31258,6,0,P|361:253|364:224,1,64.3999978381348,0|0,1:2|0:2,0:0:0:0:
259,134,31605,1,0,1:2:0:0:
174,319,31778,2,0,P|131:309|97:286,1,64.3999978381348,2|0,0:2|1:2,0:0:0:0:
126,97,32125,1,2,0:2:0:0:
242,265,32298,1,0,1:2:0:0:
94,218,32472,1,2,0:2:0:0:
290,114,32645,2,0,P|303:68|304:41,1,64.3999978381348,0|0,1:2|0:2,0:0:0:0:
183,179,32992,6,0,P|195:225|201:259,1,65.0999974172975,4|0,1:2|0:0,0:0:0:0:
242,265,33339,2,0,P|238:300|232:350,1,75.6000018457032,4|0,1:2|0:0,0:0:0:0:
260,366,33685,2,0,P|298:321|341:312,1,86.1000013137818,4|0,1:2|0:0,0:0:0:0:
333,271,34032,2,0,P|288:255|260:213,1,96.5999967572023,4|0,1:2|0:0,0:0:0:0:
273,166,34379,2,0,P|286:110|289:51,1,107.100000653687,4|0,1:2|0:0,0:0:0:0:
259,34,34726,5,0,1:2:0:0:
178,275,34899,1,8,0:2:0:0:
124,73,35073,1,8,0:3:0:0:
247,195,35246,1,4,0:3:0:0:
348,9,35420,6,0,P|352:63|367:148,1,128.79999567627,4|2,1:2|0:2,0:0:0:0:
298,318,35940,1,0,1:2:0:0:
226,169,36113,2,0,P|213:122|209:91,1,64.3999978381348,10|0,0:2|0:2,0:0:0:0:
146,305,36460,1,2,0:2:0:0:
339,215,36633,1,2,1:2:0:0:
126,129,36807,6,0,P|88:117|53:117,1,64.3999978381348,0|0,0:2|0:2,0:0:0:0:
182,318,37154,2,0,P|214:315|244:304,1,64.3999978381348,0|0,1:2|0:2,0:0:0:0:
323,128,37501,1,8,0:2:0:0:
361,304,37674,1,0,1:2:0:0:
334,99,37847,2,0,P|338:52|344:12,1,64.3999978381348,4|0,1:2|0:2,0:0:0:0:
196,222,38194,2,0,P|199:253|200:289,1,64.3999978381348,4|0,0:2|0:2,0:0:0:0:
100,106,38541,1,2,0:2:0:0:
246,138,38714,1,0,1:2:0:0:
80,129,38888,2,0,P|76:160|73:193,1,64.3999978381348,10|0,0:2|0:2,0:0:0:0:
213,56,39235,1,2,0:2:0:0:
281,218,39408,6,0,P|284:249|287:282,1,64.3999978381348,2|0,1:2|0:2,0:0:0:0:
348,67,39755,1,10,0:2:0:0:
149,204,39928,1,2,0:2:0:0:
406,233,40102,1,2,1:2:0:0:
192,36,40275,1,8,0:2:0:0:
338,357,40622,5,4,1:2:0:0:
127,106,40969,6,0,P|119:163|109:201,1,71.400000435791,6|0,1:2|0:2,0:0:0:0:
301,328,41316,2,0,P|293:293|289:257,1,71.400000435791,10|0,0:2|0:2,0:0:0:0:
375,73,41662,1,2,1:2:0:0:
215,183,41836,1,0,1:2:0:0:
408,90,42009,2,0,P|403:125|396:160,1,71.400000435791,10|0,0:2|0:2,0:0:0:0:
221,38,42356,6,0,P|158:27|96:89,1,142.800000871582,2|10,1:2|0:2,0:0:0:0:
182,279,42876,2,0,P|194:226|197:197,1,71.400000435791,2|0,1:2|0:2,0:0:0:0:
289,81,43223,1,0,1:2:0:0:
86,160,43396,2,0,P|91:195|100:229,1,71.400000435791,8|0,0:2|0:2,0:0:0:0:
300,116,43743,6,0,P|355:97|391:95,1,71.400000435791,6|0,1:2|0:2,0:0:0:0:
280,319,44090,2,0,P|245:312|212:298,1,71.400000435791,10|0,0:2|0:2,0:0:0:0:
191,65,44437,1,2,1:2:0:0:
342,233,44610,1,0,1:2:0:0:
164,92,44784,2,0,P|149:146|147:181,1,71.400000435791,10|0,0:2|0:2,0:0:0:0:
397,160,45131,6,0,B|314:156|342:225|249:232,1,142.800000871582,2|10,1:2|0:2,0:0:0:0:
114,190,45651,1,2,1:2:0:0:
298,88,45824,1,0,0:2:0:0:
229,295,45998,1,0,1:2:0:0:
167,64,46171,2,0,P|180:111|195:157,1,71.400000435791,8|0,0:2|0:2,0:0:0:0:
342,294,46518,6,0,P|384:273|406:247,1,71.400000435791,6|0,1:2|0:2,0:0:0:0:
173,217,46865,2,0,P|131:238|109:264,1,71.400000435791,10|0,0:2|0:2,0:0:0:0:
318,185,47211,1,2,1:2:0:0:
152,99,47385,1,0,1:2:0:0:
200,306,47558,1,10,0:2:0:0:
293,53,47732,2,0,P|333:27|371:19,1,71.400000435791,2|0,0:2|1:2,0:0:0:0:
173,217,48079,5,2,0:2:0:0:
405,224,48252,1,8,0:2:0:0:
178,116,48425,1,2,1:2:0:0:
361,292,48599,1,0,0:2:0:0:
160,358,48772,1,2,1:2:0:0:
303,88,48946,1,8,0:2:0:0:
375,327,49119,1,2,1:2:0:0:
75,136,49292,5,14,0:2:0:0:
428,188,49466,1,0,1:2:0:0:
80,293,49639,5,10,0:2:0:0:
272,7,49813,1,0,1:2:0:0:
389,362,49986,5,10,0:2:0:0:
70,101,50159,1,0,1:2:0:0:
452,212,50333,5,10,0:2:0:0:
82,327,50506,1,0,1:2:0:0:
347,47,50680,5,10,1:2:0:0:
385,325,50853,1,8,1:2:0:0:
369,307,51373,6,0,L|373:278,14,17.8500001089478,2|0|0|0|0|0|0|0|8|0|0|0|0|0|0,0:2|0:0|0:0|0:0|1:2|0:0|0:0|0:0|0:2|0:0|0:0|0:0|1:0|0:0|0:0,0:0:0:0:
362,275,52067,6,0,P|312:261|264:255,1,78.4000009570313,4|0,1:2|0:2,0:0:0:0:
144,123,52414,2,0,P|182:116|220:104,1,78.4000009570313,10|0,0:2|0:2,0:0:0:0:
175,297,52761,1,2,1:2:0:0:
344,140,52934,1,0,1:2:0:0:
120,39,53107,1,10,0:2:0:0:
233,197,53281,1,2,0:2:0:0:
374,4,53454,6,0,P|387:55|402:97,1,78.4000009570313,0|0,1:2|0:2,0:0:0:0:
300,310,53801,2,0,P|312:272|321:234,1,78.4000009570313,10|0,0:2|1:2,0:0:0:0:
201,63,54148,1,2,0:2:0:0:
124,263,54321,1,0,1:2:0:0:
344,140,54495,2,0,P|353:178|365:215,1,78.4000009570313,10|0,0:2|0:2,0:0:0:0:
111,68,54842,6,0,P|59:49|31:45,1,78.4000009570313,2|0,1:2|0:2,0:0:0:0:
158,249,55188,1,10,0:2:0:0:
327,111,55362,2,0,P|379:92|407:88,1,78.4000009570313,2|0,0:2|1:2,0:0:0:0:
242,277,55709,1,2,1:2:0:0:
127,79,55882,1,8,0:2:0:0:
313,145,56055,1,2,0:2:0:0:
117,268,56229,5,2,1:2:0:0:
226,59,56402,1,0,0:2:0:0:
359,284,56576,1,10,0:2:0:0:
161,189,56749,1,0,1:2:0:0:
385,83,56922,1,2,1:2:0:0:
232,332,57096,1,8,0:2:0:0:
89,67,57269,1,14,0:2:0:0:
280,155,57443,1,0,1:2:0:0:
121,298,57616,6,0,P|132:242|135:211,1,78.4000009570313,6|0,1:2|0:2,0:0:0:0:
231,54,57963,2,0,P|235:92|244:131,1,78.4000009570313,10|0,0:2|0:2,0:0:0:0:
350,293,58310,1,2,1:2:0:0:
404,98,58483,1,0,1:2:0:0:
218,245,58657,1,10,0:2:0:0:
428,203,58830,1,2,0:2:0:0:
201,63,59003,6,0,B|110:69|149:132|53:145,1,156.800001914063,0|8,1:2|0:2,0:0:0:0:
281,152,59524,2,0,P|291:101|304:55,1,78.4000009570313,0|0,1:2|0:2,0:0:0:0:
179,253,59870,1,0,1:2:0:0:
173,34,60044,1,10,0:2:0:0:
154,278,60217,1,2,0:2:0:0:
328,42,60391,6,0,P|391:71|396:180,1,156.800001914063,6|8,1:2|0:2,0:0:0:0:
305,313,60911,1,0,0:2:0:0:
159,130,61084,1,2,1:2:0:0:
392,191,61258,1,0,1:2:0:0:
165,344,61431,2,0,P|111:328|72:321,1,78.4000009570313,8|2,0:2|0:2,0:0:0:0:
235,80,61778,5,10,0:2:0:0:
320,346,61951,1,8,0:2:0:0:
250,298,62472,5,8,0:2:0:0:
335,32,62645,1,10,0:2:0:0:
168,187,62818,1,8,0:2:0:0:
356,123,62992,5,8,0:2:0:0:
356,123,63079,1,8,0:0:0:0:
356,123,63165,2,0,P|283:104|259:92,1,78.4000009570313,4|0,1:2|0:2,0:0:0:0:
107,239,63512,2,0,P|145:231|182:218,1,78.4000009570313,10|0,0:2|0:2,0:0:0:0:
217,49,63859,1,2,1:2:0:0:
286,250,64032,1,0,1:2:0:0:
80,138,64206,1,10,0:2:0:0:
138,343,64379,1,2,0:2:0:0:
295,155,64553,6,0,P|350:131|389:131,1,78.4000009570313,0|0,1:2|0:2,0:0:0:0:
231,330,64899,2,0,P|192:323|158:304,1,78.4000009570313,10|0,0:2|1:2,0:0:0:0:
146,89,65246,1,2,0:2:0:0:
286,250,65420,1,0,1:2:0:0:
108,103,65593,2,0,P|99:152|89:193,1,78.4000009570313,10|0,0:2|0:2,0:0:0:0:
311,61,65940,6,0,P|359:44|389:37,1,78.4000009570313,2|0,1:2|0:2,0:0:0:0:
255,232,66287,1,10,0:2:0:0:
146,89,66460,2,0,P|98:72|68:65,1,78.4000009570313,2|0,0:2|1:2,0:0:0:0:
182,270,66807,1,0,1:2:0:0:
273,52,66980,2,0,P|292:101|304:147,1,78.4000009570313,10|2,0:2|0:2,0:0:0:0:
155,253,67327,6,0,P|105:238|72:235,1,78.4000009570313,2|0,1:2|0:2,0:0:0:0:
329,317,67674,2,0,P|367:311|404:299,1,78.4000009570313,10|0,0:2|1:2,0:0:0:0:
200,159,68021,1,2,1:2:0:0:
420,51,68194,1,8,0:2:0:0:
241,251,68368,2,0,P|232:290|225:328,1,78.4000009570313,14|0,0:2|1:2,0:0:0:0:
117,109,68714,6,0,P|111:70|102:32,1,78.4000009570313,6|0,1:2|0:2,0:0:0:0:
328,180,69061,2,0,P|391:169|425:152,1,78.4000009570313,10|0,0:2|0:2,0:0:0:0:
239,47,69408,1,2,1:2:0:0:
160,233,69581,1,0,1:2:0:0:
344,94,69755,1,10,0:2:0:0:
397,283,69928,1,2,0:2:0:0:
155,114,70102,6,0,P|110:133|74:230,1,156.800001914063,0|8,1:2|0:2,0:0:0:0:
256,342,70622,2,0,P|244:282|240:242,1,78.4000009570313,0|0,1:2|0:2,0:0:0:0:
334,60,70969,1,0,1:2:0:0:
388,252,71142,1,10,0:2:0:0:
177,135,71316,1,2,0:2:0:0:
428,119,71489,6,0,P|352:91|268:73,1,156.800001914063,6|8,1:2|0:2,0:0:0:0:
126,271,72009,1,0,0:2:0:0:
125,54,72183,1,2,1:2:0:0:
254,246,72356,1,0,1:2:0:0:
93,77,72529,2,0,P|87:129|81:171,1,78.4000009570313,8|2,0:2|0:2,0:0:0:0:
297,31,72876,5,14,0:2:0:0:
372,284,73050,1,0,1:2:0:0:
210,83,73223,1,10,0:2:0:0:
142,338,73396,2,0,P|127:286|115:256,1,78.4000009570313,6|0,1:2|0:2,0:0:0:0:
291,351,73743,1,2,1:2:0:0:
365,85,73917,1,8,0:2:0:0:
257,238,74090,5,8,0:2:0:0:
257,238,74177,1,8,0:0:0:0:
257,238,74264,2,0,B|183:224|224:186|125:177,1,128.79999567627,4|2,1:2|0:2,0:0:0:0:
297,31,74784,1,0,1:2:0:0:
350,212,74957,2,0,P|358:283|369:354,1,128.79999567627,10|2,0:2|0:2,0:0:0:0:
267,154,75477,1,0,1:2:0:0:
195,314,75651,5,2,0:2:0:0:
376,229,75824,1,8,0:2:0:0:
184,165,75998,1,2,0:2:0:0:
229,332,76171,1,2,1:2:0:0:
300,148,76344,2,0,P|304:96|309:60,1,64.3999978381348,8|0,0:2|1:2,0:0:0:0:
111,225,76691,2,0,P|114:257|116:289,1,64.3999978381348,4|0,1:2|0:2,0:0:0:0:
227,46,77038,6,0,P|275:3|356:8,1,128.79999567627,6|2,1:2|0:2,0:0:0:0:
407,168,77558,1,2,1:2:0:0:
257,138,77732,2,0,P|199:126|175:124,1,64.3999978381348,10|0,0:2|0:2,0:0:0:0:
336,222,78079,1,2,0:2:0:0:
223,292,78252,1,2,1:2:0:0:
262,102,78425,5,2,0:2:0:0:
308,302,78599,1,10,0:2:0:0:
262,102,78772,1,2,0:2:0:0:
231,258,78946,1,2,1:2:0:0:
177,75,79119,2,0,P|166:37|160:7,1,64.3999978381348,8|0,0:2|1:2,0:0:0:0:
347,124,79466,2,0,P|340:155|330:186,1,64.3999978381348,4|0,1:2|0:2,0:0:0:0:
120,267,79813,6,0,P|139:205|211:182,1,128.79999567627,4|2,1:2|0:2,0:0:0:0:
314,297,80333,1,2,1:2:0:0:
262,104,80506,1,10,0:2:0:0:
197,308,80680,1,2,1:2:0:0:
365,155,80853,2,0,L|372:101,2,32.1999989190674,8|0|2,0:2|0:0|1:2,0:0:0:0:
283,375,81200,5,10,0:2:0:0:
178,54,81373,1,10,0:2:0:0:
262,104,82067,5,2,0:2:0:0:
197,267,82240,2,0,P|207:216|211:190,1,64.3999978381348,12|2,0:2|0:2,0:0:0:0:
297,29,82587,6,0,P|304:104|356:177,1,142.800000871582,4|8,1:2|0:2,0:0:0:0:
181,86,83107,1,0,0:2:0:0:
290,230,83281,1,0,1:2:0:0:
383,78,83454,1,0,1:2:0:0:
252,215,83628,2,0,P|240:262|233:296,1,71.400000435791,8|0,0:2|0:2,0:0:0:0:
142,72,83974,6,0,P|93:81|55:178,1,142.800000871582,0|8,1:2|0:2,0:0:0:0:
188,320,84495,1,0,1:2:0:0:
315,146,84668,1,0,0:2:0:0:
135,199,84842,1,0,1:2:0:0:
297,330,85015,1,8,0:2:0:0:
231,120,85188,1,0,0:2:0:0:
153,305,85362,6,0,B|224:289|202:240|298:236,1,142.800000871582,0|8,1:2|0:2,0:0:0:0:
419,157,85882,2,0,P|370:136|341:130,1,71.400000435791,0|0,0:2|1:2,0:0:0:0:
171,196,86229,1,0,1:2:0:0:
225,23,86402,2,0,P|245:87|252:106,1,71.400000435791,8|0,0:2|0:2,0:0:0:0:
369,261,86749,6,0,P|311:225|237:251,1,142.800000871582,0|8,1:2|0:2,0:0:0:0:
144,349,87269,1,0,1:2:0:0:
144,349,87356,1,8,0:0:0:0:
144,349,87443,1,0,1:2:0:0:
168,109,87616,1,8,0:2:0:0:
259,349,87790,1,8,0:2:0:0:
322,185,87963,1,0,1:2:0:0:
113,258,88136,6,0,P|102:181|83:104,1,142.800000871582,4|8,1:2|0:2,0:0:0:0:
257,32,88657,2,0,P|246:99|241:130,1,71.400000435791,0|0,0:2|1:2,0:0:0:0:
345,278,89003,1,0,1:2:0:0:
368,53,89177,2,0,P|373:88|379:123,1,71.400000435791,8|0,0:2|0:2,0:0:0:0:
250,295,89524,6,0,P|194:280|169:192,1,142.800000871582,0|8,1:2|0:2,0:0:0:0:
224,22,90044,1,0,1:2:0:0:
343,201,90217,2,0,P|334:258|329:300,1,71.400000435791,0|0,0:2|1:2,0:0:0:0:
203,114,90564,2,0,P|198:78|192:43,1,71.400000435791,8|0,0:2|0:2,0:0:0:0:
143,261,90911,5,0,1:2:0:0:
320,170,91084,1,0,0:2:0:0:
109,104,91258,2,0,P|126:155|135:190,1,71.400000435791,8|0,0:2|0:2,0:0:0:0:
235,308,91605,1,0,1:2:0:0:
297,130,91778,1,0,1:2:0:0:
395,315,91951,2,0,P|404:280|416:246,1,71.400000435791,8|0,0:2|0:2,0:0:0:0:
244,74,92298,6,0,P|255:107|265:142,1,71.400000435791,0|0,1:2|0:2,0:0:0:0:
205,337,92645,1,8,0:2:0:0:
126,145,92818,2,0,P|112:103|109:87,2,35.7000002178955,0|8|0,1:2|0:0|1:2,0:0:0:0:
235,353,93165,1,8,0:2:0:0:
304,161,93339,1,0,1:2:0:0:
304,161,93425,1,8,0:0:0:0:
304,161,93512,1,0,1:2:0:0:
132,296,93685,6,0,L|49:314,1,78.4000009570313,4|0,1:2|0:2,0:0:0:0:
197,54,94032,5,10,0:2:0:0:
307,311,94206,1,0,1:2:0:0:
405,82,94379,5,8,0:2:0:0:
203,242,94553,1,0,1:2:0:0:
262,0,94726,5,10,0:2:0:0:
372,257,94900,1,0,1:2:0:0:
120,99,95073,6,0,L|43:82,1,78.4000009570313,0|0,1:2|0:2,0:0:0:0:
169,340,95420,5,10,0:2:0:0:
306,82,95594,1,0,1:2:0:0:
256,351,95766,5,8,0:2:0:0:
120,99,95940,1,0,1:2:0:0:
79,347,96113,5,10,0:2:0:0:
216,89,96287,1,0,1:2:0:0:
370,340,96460,6,0,L|385:256,1,78.4000009570313,0|0,1:2|0:2,0:0:0:0:
103,189,96807,5,10,0:2:0:0:
404,148,96980,1,0,1:2:0:0:
141,278,97154,5,8,0:2:0:0:
330,95,97327,1,0,1:2:0:0:
177,363,97501,5,10,0:2:0:0:
262,53,97674,1,0,1:2:0:0:
365,306,97847,5,0,1:2:0:0:
134,59,98021,1,0,1:2:0:0:
99,342,98194,5,10,0:2:0:0:
330,95,98368,1,0,1:2:0:0:
312,365,98541,5,8,0:2:0:0:
81,118,98715,1,0,1:2:0:0:
176,384,98888,5,10,0:2:0:0:
407,137,99062,1,0,1:2:0:0:
92,227,99235,6,0,L|-2:208,1,78.4000009570313,4|0,1:2|0:2,0:0:0:0:
249,51,99581,5,10,0:2:0:0:
338,334,99755,1,0,1:2:0:0:
107,142,99928,5,8,0:2:0:0:
438,57,100102,1,0,1:2:0:0:
252,345,100275,5,10,0:2:0:0:
156,48,100448,1,0,1:2:0:0:
434,247,100622,6,0,L|420:343,1,78.4000009570313,0|0,1:2|0:2,0:0:0:0:
249,51,100969,5,10,0:2:0:0:
134,332,101142,1,0,1:2:0:0:
440,152,101316,5,8,0:2:0:0:
156,48,101489,1,0,1:2:0:0:
254,347,101662,5,10,0:2:0:0:
443,65,101836,1,0,1:2:0:0:
145,220,102009,6,0,L|54:193,1,78.4000009570313,0|0,1:2|0:2,0:0:0:0:
367,106,102356,5,10,0:2:0:0:
113,123,102529,1,0,1:2:0:0:
436,192,102703,5,8,0:2:0:0:
156,48,102876,1,0,1:2:0:0:
443,65,103050,5,10,0:2:0:0:
69,197,103223,1,0,1:2:0:0:
291,15,103396,5,8,0:2:0:0:
397,334,103570,1,8,0:2:0:0:
262,358,104090,5,8,0:2:0:0:
368,39,104264,2,0,L|376:94,1,39.2000004785156,8|8,0:2|0:0,0:0:0:0:
273,264,104437,1,0,1:2:0:0:
273,264,104524,1,8,0:0:0:0:
273,264,104610,1,8,0:2:0:0:
82,325,105131,6,0,B|368:316|180:44|475:41,1,529.200006459961,4|0,0:2|0:0,0:0:0:0:
