osu file format v14

[General]
AudioFilename: audio.mp3
AudioLeadIn: 0
PreviewTime: 2931
Countdown: 0
SampleSet: Soft
StackLeniency: 0
Mode: 0
LetterboxInBreaks: 0
WidescreenStoryboard: 0

[Editor]
Bookmarks: 431,3764,17097,30431,43764,57097,67097,70431,97097,110431,117097,123764,133764,137097,177097
DistanceSpacing: 0.5
BeatDivisor: 4
GridSize: 16
TimelineZoom: 2.5

[Metadata]
Title:Rainy Boots
TitleUnicode:レイニーブーツ
Artist:Will Stetson
ArtistUnicode:Will Stetson
Creator:- Clubber -
Version:Plead
Source:
Tags:inabakumori Sayri Dictate cover 稲葉曇 ぬくぬくにぎりめし nukunukunigirimeshi アンチサイクロン anticyclone English Rock Pop inaba cumori Shii ShiiTsuin Pop Rock
BeatmapID:3182073
BeatmapSetID:1557729

[Difficulty]
HPDrainRate:6.5
CircleSize:3
OverallDifficulty:8.5
ApproachRate:9.2
SliderMultiplier:2.5
SliderTickRate:1

[Events]
//Background and Video events
0,0,"bg.jpg",0,0
Video,0,"william my beloved.mp4"
//Break Periods
//Storyboard Layer 0 (Background)
//Storyboard Layer 1 (Fail)
//Storyboard Layer 2 (Pass)
//Storyboard Layer 3 (Foreground)
//Storyboard Layer 4 (Overlay)
//Storyboard Sound Samples

[TimingPoints]
431,416.666666666667,4,2,1,69,1,0
3764,-66.6666666666667,4,2,1,69,0,0
4597,-80,4,2,1,69,0,0
10431,-66.6666666666667,4,2,1,69,0,0
11264,-80,4,2,1,69,0,0
17097,-80,4,2,3,69,0,0
17514,-100,4,2,3,69,0,0
20431,-100,4,2,1,69,0,0
23764,-100,4,2,3,69,0,0
27097,-100,4,2,1,69,0,0
43764,-90.9090909090909,4,2,1,69,0,0
57097,-117.647058823529,4,2,1,69,0,0
70431,-57.1428571428571,4,2,1,69,0,0
71264,-71.4285714285714,4,2,1,69,0,0
77097,-57.1428571428571,4,2,1,69,0,0
77931,-71.4285714285714,4,2,1,69,0,0
90014,-83.3333333333333,4,2,1,69,0,0
90431,-66.6666666666667,4,2,1,69,0,0
91681,-71.4285714285714,4,2,1,69,0,0
97097,-76.9230769230769,4,2,3,69,0,0
100431,-76.9230769230769,4,2,1,69,0,0
103764,-76.9230769230769,4,2,3,69,0,0
107097,-76.9230769230769,4,2,1,69,0,0
110431,-90.9090909090909,4,2,1,69,0,0
117097,-111.111111111111,4,2,1,69,0,0
123764,-125,4,2,1,69,0,0
135431,-86.9565217391304,4,2,1,69,0,0
137097,-50,4,2,1,69,0,1
137931,-64.5161290322581,4,2,1,69,0,1
143764,-50,4,2,1,69,0,1
144597,-58.8235294117647,4,2,1,69,0,1
146472,-64.5161290322581,4,2,1,69,0,1
150326,-64.5161290322581,4,2,1,69,0,0
150431,-64.5161290322581,4,2,1,69,0,1
150743,-64.5161290322581,4,2,1,69,0,0
150847,-64.5161290322581,4,2,1,69,0,1
151160,-64.5161290322581,4,2,1,69,0,0
151264,-64.5161290322581,4,2,1,69,0,1
151576,-64.5161290322581,4,2,1,69,0,0
151681,-64.5161290322581,4,2,1,69,0,1
156993,-64.5161290322581,4,2,1,69,0,0
157097,-64.5161290322581,4,2,1,69,0,1
157410,-64.5161290322581,4,2,1,69,0,0
157514,-64.5161290322581,4,2,1,69,0,1
157826,-64.5161290322581,4,2,1,69,0,0
157931,-64.5161290322581,4,2,1,69,0,1
158243,-64.5161290322581,4,2,1,69,0,0
158347,-64.5161290322581,4,2,1,69,0,1
162826,-64.5161290322581,4,2,1,69,0,0
162930,-64.5161290322581,4,2,1,69,0,1
163139,-64.5161290322581,4,2,1,69,0,0
163243,-64.5161290322581,4,2,1,69,0,1
163451,-64.5161290322581,4,2,1,69,0,0
163555,-64.5161290322581,4,2,1,69,0,1
163660,-64.5161290322581,4,2,1,69,0,0
163764,-64.5161290322581,4,2,1,69,0,1
166993,-64.5161290322581,4,2,1,69,0,0
167097,-64.5161290322581,4,2,1,69,0,1
167410,-64.5161290322581,4,2,1,69,0,0
167514,-64.5161290322581,4,2,1,69,0,1
167826,-64.5161290322581,4,2,1,69,0,0
167930,-64.5161290322581,4,2,1,69,0,1
168243,-64.5161290322581,4,2,1,69,0,0
168347,-64.5161290322581,4,2,1,69,0,1
168660,-64.5161290322581,4,2,1,69,0,0
168764,-64.5161290322581,4,2,1,69,0,1
169076,-64.5161290322581,4,2,1,69,0,0
169180,-64.5161290322581,4,2,1,69,0,1
169493,-64.5161290322581,4,2,1,69,0,0
169597,-64.5161290322581,4,2,1,69,0,1
169910,-64.5161290322581,4,2,1,69,0,0
170014,-64.5161290322581,4,2,1,69,0,1
170326,-64.5161290322581,4,2,1,69,0,0
170430,-64.5161290322581,4,2,1,69,0,1
176160,-64.5161290322581,4,2,1,69,0,0
176264,-64.5161290322581,4,2,1,69,0,1
176368,-64.5161290322581,4,2,1,69,0,0
176472,-64.5161290322581,4,2,1,69,0,1
176576,-64.5161290322581,4,2,1,69,0,0
176680,-64.5161290322581,4,2,1,69,0,1
176785,-64.5161290322581,4,2,1,69,0,0
176889,-64.5161290322581,4,2,1,69,0,1
176993,-64.5161290322581,4,2,1,69,0,0
177097,-111.111111111111,4,2,2,69,0,1
177201,-111.111111111111,4,2,2,69,0,0

[Colours]
Combo1 : 128,128,128
Combo2 : 192,192,192

[HitObjects]
421,260,431,5,8,1:2:0:0:
397,250,535,1,0,1:2:0:0:
372,252,639,1,8,1:2:0:0:
349,263,743,1,0,1:2:0:0:
345,279,847,5,8,1:2:0:0:
372,265,951,1,8,1:2:0:0:
402,263,1055,1,8,1:2:0:0:
431,275,1159,1,8,1:2:0:0:
436,252,1264,5,8,1:2:0:0:
401,237,1368,1,0,1:2:0:0:
365,240,1472,1,8,1:2:0:0:
333,257,1576,1,0,1:2:0:0:
330,303,1681,5,8,1:2:0:0:
369,283,1785,1,8,1:2:0:0:
412,279,1889,1,8,1:2:0:0:
454,297,1993,1,8,1:2:0:0:
473,375,2097,5,8,1:2:0:0:
431,306,2201,1,0,1:2:0:0:
418,227,2305,1,8,1:2:0:0:
435,149,2409,1,0,1:2:0:0:
505,69,2514,5,8,1:2:0:0:
458,153,2618,1,8,1:2:0:0:
383,214,2722,1,8,1:2:0:0:
292,243,2826,1,8,1:2:0:0:
287,258,2931,5,0,3:2:0:0:
305,22,3243,1,4,3:3:0:0:
284,29,3347,1,4,3:3:0:0:
512,231,3556,1,4,3:3:0:0:
388,370,3764,6,0,L|416:91,1,281.250010728836,6|0,3:2|0:0,0:0:0:0:
325,154,4181,2,0,B|336:204|336:204|417:235|417:235|457:207,1,187.500007152558,10|0,1:2|0:0,0:0:0:0:
284,321,4597,2,0,L|128:339,1,156.25,2|2,3:2|1:2,0:0:0:0:
0,273,4910,1,2,0:0:0:0:
8,297,5014,2,0,L|163:315,1,156.25,10|2,1:2|0:0,0:0:0:0:
325,154,5431,1,2,3:2:0:0:
148,238,5639,2,0,L|162:314,1,78.125,2|0,1:2|0:0,0:0:0:0:
132,221,5847,2,0,L|153:66,1,156.25,10|2,1:2|0:0,0:0:0:0:
272,368,6264,6,0,L|242:215,1,156.25,2|0,3:2|1:2,0:0:0:0:
384,306,6576,1,0,0:0:0:0:
404,316,6681,2,0,B|481:353|481:353|466:283,1,156.25,10|0,1:2|0:0,0:0:0:0:
452,108,6993,1,0,0:0:0:0:
396,191,7097,6,0,L|236:215,1,156.25,2|2,3:2|1:2,0:0:0:0:
50,104,7410,1,0,0:0:0:0:
75,90,7514,2,0,L|174:104,1,78.125,10|0,1:2|0:0,0:0:0:0:
241,214,7722,2,0,L|163:203,1,78.125,2|0,0:0|0:0,0:0:0:0:
71,383,7931,6,0,L|46:219,1,156.25,2|2,3:2|1:2,0:0:0:0:
173,89,8243,1,0,0:0:0:0:
196,89,8347,2,0,L|295:57,1,78.125,10|0,1:2|0:0,0:0:0:0:
490,76,8556,1,2,0:0:0:0:
459,47,8660,1,2,0:0:0:0:
428,18,8764,2,0,L|441:117,1,78.125,2|0,3:2|0:0,0:0:0:0:
396,191,8972,2,0,L|447:249,1,78.125,2|0,1:2|0:0,0:0:0:0:
196,89,9181,2,0,P|273:100|350:114,1,156.25,10|2,1:2|0:0,0:0:0:0:
353,357,9493,1,2,0:0:0:0:
319,334,9597,6,0,L|300:250,1,78.125,2|0,3:2|0:0,0:0:0:0:
170,274,9806,2,0,L|194:200,1,78.125,2|0,1:2|0:0,0:0:0:0:
70,68,10014,1,10,1:2:0:0:
75,110,10118,1,0,0:0:0:0:
80,152,10222,1,10,1:2:0:0:
85,194,10326,1,0,0:0:0:0:
49,275,10431,6,0,L|105:0,1,281.250010728836,6|0,3:2|0:0,0:0:0:0:
43,94,10847,2,0,B|71:123|71:123|211:80,1,187.500007152558,10|0,1:2|0:0,0:0:0:0:
433,10,11264,2,0,L|407:164,1,156.25,2|0,3:2|1:2,0:0:0:0:
476,305,11576,1,2,0:0:0:0:
478,268,11681,2,0,L|358:145,1,156.25,10|2,1:2|0:0,0:0:0:0:
296,327,12097,6,0,L|372:310,1,78.125,2|0,3:2|0:0,0:0:0:0:
235,216,12306,1,2,3:2:0:0:
174,204,12410,1,0,0:0:0:0:
113,191,12514,2,0,P|78:209|54:239,1,78.125,10|0,1:2|0:0,0:0:0:0:
167,371,12722,2,0,P|167:332|153:295,1,78.125,2|0,0:0|0:0,0:0:0:0:
315,73,12931,2,0,L|294:227,1,156.25,2|0,3:2|1:2,0:0:0:0:
162,98,13243,1,0,0:0:0:0:
141,75,13347,2,0,B|104:48|104:48|41:87|41:87|43:172,1,156.25,10|0,1:2|0:0,0:0:0:0:
56,351,13764,5,2,3:2:0:0:
269,324,13972,1,2,1:2:0:0:
310,339,14076,1,0,0:0:0:0:
351,354,14181,1,10,1:2:0:0:
133,219,14389,1,2,0:0:0:0:
174,204,14493,1,0,0:0:0:0:
215,189,14598,1,2,3:2:0:0:
41,123,14806,1,2,1:2:0:0:
62,85,14910,1,0,0:0:0:0:
84,47,15015,1,10,1:2:0:0:
375,164,15222,1,2,0:0:0:0:
360,205,15326,1,2,0:0:0:0:
376,261,15431,6,0,L|472:228,1,78.125,2|0,3:2|0:0,0:0:0:0:
448,138,15639,2,0,L|352:171,1,78.125,2|0,1:2|0:0,0:0:0:0:
182,341,15847,2,0,L|214:188,1,156.25,10|2,1:2|0:0,0:0:0:0:
233,180,16160,1,2,0:0:0:0:
252,173,16264,2,0,L|291:99,1,78.125,2|0,3:2|0:0,0:0:0:0:
151,256,16472,2,0,L|130:180,1,78.125,2|0,3:2|0:0,0:0:0:0:
36,384,16681,2,0,L|346:349,1,312.5,2|6,1:2|3:2,0:0:0:0:
498,359,17306,5,2,0:0:0:0:
437,259,17514,2,0,P|394:303|381:363,1,125,10|2,1:2|0:0,0:0:0:0:
450,168,17931,2,0,P|389:179|344:222,1,125,2|2,3:2|0:0,0:0:0:0:
512,100,18347,2,0,P|455:74|394:84,1,125,10|2,1:2|0:0,0:0:0:0:
498,359,18972,1,2,0:0:0:0:
437,259,19180,2,0,P|394:303|381:363,1,125,10|2,1:2|0:0,0:0:0:0:
450,168,19597,2,0,P|389:179|344:222,1,125,2|2,3:2|0:0,0:0:0:0:
512,100,20013,2,0,P|455:74|394:84,1,125,10|2,1:2|0:0,0:0:0:0:
230,363,20326,5,0,0:0:0:0:
229,327,20431,2,0,P|214:266|191:207,1,125,2|2,3:2|0:0,0:0:0:0:
259,0,20847,1,10,1:2:0:0:
297,181,21056,1,2,0:0:0:0:
303,157,21160,1,0,0:0:0:0:
309,133,21264,1,2,3:2:0:0:
209,258,21472,1,2,0:0:0:0:
203,234,21576,1,2,0:0:0:0:
197,210,21681,1,10,1:2:0:0:
273,384,21889,1,2,0:0:0:0:
279,360,21993,1,0,0:0:0:0:
285,336,22097,2,0,P|299:275|322:216,1,125,2|2,3:2|0:0,0:0:0:0:
182,13,22410,1,0,0:0:0:0:
202,32,22514,2,0,P|224:90|239:151,1,125,10|2,1:2|0:0,0:0:0:0:
285,336,22931,2,0,P|299:275|322:216,1,125,2|2,3:2|0:0,0:0:0:0:
202,32,23347,2,0,P|224:90|239:151,1,125,10|0,1:2|3:2,0:0:0:0:
23,341,23764,6,0,B|52:282|52:282|108:265,1,125,6|2,3:2|0:0,0:0:0:0:
23,341,24181,2,0,B|52:282|52:282|108:265,1,125,10|2,1:2|0:0,0:0:0:0:
48,66,24597,2,0,B|105:83|105:83|134:142,1,125,2|2,3:2|0:0,0:0:0:0:
48,66,25014,2,0,B|105:83|105:83|134:142,1,125,10|2,1:2|0:0,0:0:0:0:
133,141,25431,1,0,3:2:0:0:
122,361,25639,1,2,0:0:0:0:
74,348,25743,1,0,0:0:0:0:
23,341,25847,2,0,B|52:282|52:282|108:265,1,125,10|2,1:2|0:0,0:0:0:0:
23,341,26264,2,0,B|52:282|52:282|108:265,1,125,2|2,3:2|0:0,0:0:0:0:
27,86,26576,1,0,0:0:0:0:
48,66,26681,2,0,B|105:83|105:83|134:142,1,125,10|2,1:2|0:0,0:0:0:0:
176,323,26993,1,0,0:0:0:0:
147,353,27097,2,0,L|22:340,1,125,2|2,3:2|0:0,0:0:0:0:
166,230,27514,2,0,L|41:217,1,125,10|2,1:2|0:0,0:0:0:0:
208,125,27826,1,0,0:0:0:0:
185,107,27931,2,0,L|60:94,1,125,2|2,3:2|0:0,0:0:0:0:
189,248,28243,1,2,0:0:0:0:
166,230,28348,2,0,L|41:217,1,125,10|2,1:2|0:0,0:0:0:0:
170,371,28660,1,0,0:0:0:0:
147,353,28765,2,0,L|22:340,1,125,2|2,3:2|0:0,0:0:0:0:
39,111,29076,1,0,0:0:0:0:
60,94,29181,2,0,L|184:106,1,125,10|2,1:2|0:0,0:0:0:0:
147,353,29597,2,0,L|22:340,1,125,2|2,3:2|3:0,0:0:0:0:
104,224,30014,1,10,1:2:0:0:
104,224,30222,1,0,3:2:0:0:
320,348,30431,6,0,B|314:295|364:228|419:248|460:218,1,187.5,4|0,3:2|0:0,0:0:0:0:
471,247,30847,2,0,L|449:370,1,125,10|2,1:2|0:0,0:0:0:0:
318,102,31264,2,0,L|340:224,1,125,2|2,3:2|0:0,0:0:0:0:
358,200,31576,1,0,0:0:0:0:
379,177,31681,2,0,L|401:54,1,125,10|2,1:2|0:0,0:0:0:0:
375,352,32306,5,2,0:0:0:0:
365,364,32410,1,0,0:0:0:0:
354,375,32514,2,0,L|324:244,1,125,8|2,1:2|0:0,0:0:0:0:
305,242,32931,1,2,3:2:0:0:
494,81,33139,2,0,L|482:142,1,62.5,2|0,0:0|0:0,0:0:0:0:
463,199,33347,2,0,L|332:229,1,125,10|2,1:2|0:0,0:0:0:0:
418,362,33764,6,0,B|473:329|473:329|511:376,1,125,0|2,3:2|0:0,0:0:0:0:
463,199,34181,2,0,L|444:75,1,125,10|0,1:2|0:0,0:0:0:0:
424,55,34493,1,2,0:0:0:0:
402,37,34597,2,0,L|270:7,1,125,2|2,3:2|0:0,0:0:0:0:
349,131,35014,1,10,1:2:0:0:
342,333,35222,1,2,0:0:0:0:
333,315,35326,1,0,0:0:0:0:
323,299,35431,5,0,3:2:0:0:
512,55,35639,2,0,L|503:129,1,62.5,2|0,0:0|0:0,0:0:0:0:
492,226,35847,1,8,1:2:0:0:
451,306,36056,2,0,L|460:232,1,62.5,2|0,0:0|0:0,0:0:0:0:
424,334,36264,1,0,3:2:0:0:
418,349,36368,1,0,0:0:0:0:
411,364,36472,1,2,0:0:0:0:
301,198,36681,2,0,L|429:152,1,125,10|2,1:2|3:2,0:0:0:0:
441,164,36993,1,0,0:0:0:0:
480,74,37097,6,0,B|422:44|422:44|370:79|370:79|315:54,1,187.5,4|0,3:2|0:0,0:0:0:0:
288,47,37514,2,0,L|267:170,1,125,8|2,1:2|0:0,0:0:0:0:
448,298,37931,2,0,L|431:156,1,125,2|2,3:2|0:0,0:0:0:0:
323,294,38347,2,0,L|200:270,1,125,10|2,1:2|0:0,0:0:0:0:
447,377,38972,6,0,L|464:316,1,62.5,2|0,0:0|0:0,0:0:0:0:
498,226,39181,2,0,L|461:103,1,125,10|2,1:2|0:0,0:0:0:0:
469,73,39493,1,2,0:0:0:0:
477,40,39597,2,0,L|391:68,1,62.5,2|0,3:2|0:0,0:0:0:0:
327,189,39806,2,0,L|241:161,1,62.5,2|0,0:0|0:0,0:0:0:0:
512,254,40014,1,10,1:2:0:0:
335,9,40222,1,2,0:0:0:0:
324,25,40326,1,0,0:0:0:0:
312,41,40431,6,0,B|289:63|289:63|291:21,1,62.5,2|2,3:2|0:0,0:0:0:0:
378,384,40847,2,0,L|442:139,3,250,10|2|10|0,1:2|3:2|1:2|3:2,0:0:0:0:
496,317,42306,1,0,0:0:0:0:
500,330,42410,1,0,0:0:0:0:
504,344,42514,2,0,L|437:332,1,62.5,8|0,1:2|0:0,0:0:0:0:
441,142,42722,2,0,L|374:130,1,62.5
509,249,42931,2,0,L|345:219,1,125,0|8,3:2|1:2,0:0:0:0:
162,25,43347,1,8,1:2:0:0:
253,356,43556,1,8,1:2:0:0:
242,316,43660,1,8,0:0:0:0:
181,243,43764,6,0,L|212:82,1,137.500004196167,4|2,3:2|0:0,0:0:0:0:
253,356,44181,2,0,L|326:230,1,137.500004196167,10|2,1:2|0:0,0:0:0:0:
337,263,44493,1,2,0:0:0:0:
353,289,44597,2,0,L|264:276,1,68.7500020980836,2|0,3:2|0:0,0:0:0:0:
148,144,44806,2,0,L|219:99,1,68.7500020980836,2|0,0:0|0:0,0:0:0:0:
340,12,45014,2,0,L|307:145,1,137.500004196167,10|2,1:2|0:0,0:0:0:0:
177,366,45639,6,0,B|174:297|207:262|207:262|212:190|186:158|186:158|193:125|213:93,1,275.000008392334,2|2,0:0|0:0,0:0:0:0:
303,255,46264,2,0,L|285:341,1,68.7500020980836,2|0,3:2|0:0,0:0:0:0:
114,242,46472,2,0,L|99:174,1,68.7500020980836,2|0,0:0|0:0,0:0:0:0:
252,29,46681,1,10,1:2:0:0:
252,29,46889,1,2,0:0:0:0:
288,322,47306,5,2,0:0:0:0:
216,234,47514,2,0,L|176:381,1,137.500004196167,10|2,1:2|0:0,0:0:0:0:
314,221,47931,2,0,L|290:85,1,137.500004196167,2|2,3:2|0:0,0:0:0:0:
167,345,48347,1,10,1:2:0:0:
196,221,48556,2,0,L|175:155,2,68.7500020980836,2|0|0,0:0|0:0|3:2,0:0:0:0:
290,85,48972,6,0,L|342:40,1,68.7500020980836,2|0,0:0|0:0,0:0:0:0:
330,248,49181,2,0,L|195:220,1,137.500004196167,10|2,1:2|0:0,0:0:0:0:
195,220,49597,1,2,3:2:0:0:
260,365,49806,1,10,1:2:0:0:
198,43,50014,1,10,1:2:0:0:
283,335,50222,1,0,3:2:0:0:
271,350,50326,1,0,3:0:0:0:
260,365,50431,6,0,P|230:348|196:351,1,68.7500020980836,4|0,3:2|0:0,0:0:0:0:
275,180,50639,2,0,P|308:173|342:165,1,68.7500020980836,2|0,0:0|0:0,0:0:0:0:
256,198,50847,2,0,L|119:180,1,137.500004196167,10|2,1:2|0:0,0:0:0:0:
203,10,51264,2,0,L|332:55,1,137.500004196167,2|2,3:2|0:0,0:0:0:0:
333,85,51576,1,0,0:0:0:0:
342,165,51681,2,0,L|293:315,1,137.500004196167,10|2,1:2|0:0,0:0:0:0:
299,295,52097,6,0,L|314:362,3,68.7500020980836,0|0|2|0,3:2|0:0|0:0|0:0,0:0:0:0:
342,165,52514,2,0,L|311:30,1,137.500004196167,10|2,1:2|0:0,0:0:0:0:
174,185,52931,2,0,L|261:205,1,68.7500020980836,2|0,3:2|0:0,0:0:0:0:
145,48,53139,2,0,L|232:68,1,68.7500020980836,2|0,0:0|0:0,0:0:0:0:
335,182,53347,1,10,1:2:0:0:
234,354,53556,1,2,0:0:0:0:
205,345,53660,1,0,0:0:0:0:
176,337,53764,6,0,L|148:196,1,137.500004196167,2|0,3:2|0:0,0:0:0:0:
198,42,54076,1,2,0:0:0:0:
213,64,54181,2,0,L|175:339,3,275.000008392334,10|2|10|0,1:2|3:2|1:2|3:2,0:0:0:0:
327,212,55639,5,2,0:0:0:0:
321,185,55743,1,0,0:0:0:0:
315,158,55847,1,10,1:2:0:0:
324,303,56056,2,0,L|307:223,1,68.7500020980836,2|0,0:0|0:0,0:0:0:0:
309,131,56264,1,2,3:2:0:0:
310,331,56472,5,10,1:2:0:0:
228,48,56681,1,2,3:2:0:0:
131,7,56889,1,2,3:2:0:0:
237,32,57097,6,0,L|132:24,2,106.250002026558,6|2|2,3:2|0:2|3:2,0:0:0:0:
44,54,57931,2,0,L|149:45,2,106.250002026558,2|2|10,3:2|0:2|1:2,0:0:0:0:
230,78,58764,2,0,B|191:41|191:41|230:6,1,106.250002026558,2|2,3:2|0:2,0:0:0:0:
87,102,59181,2,0,B|108:52|108:52|58:36,1,106.250002026558,2|0,3:2|0:0,0:0:0:0:
164,142,59597,2,0,L|180:267,2,106.250002026558,2|0|8,3:2|0:0|1:2,0:0:0:0:
310,47,60222,2,0,L|350:81,1,53.125001013279
467,214,60431,6,0,L|452:342,2,106.250002026558,2|2|2,3:2|0:2|3:2,0:0:0:0:
484,96,61160,1,2,0:2:0:0:
471,116,61264,2,0,L|499:218,2,106.250002026558,2|2|10,3:2|0:2|1:2,0:0:0:0:
404,212,61993,1,2,0:2:0:0:
366,221,62097,2,0,L|306:237,1,53.125001013279,2|0,3:2|0:0,0:0:0:0:
411,148,62306,2,0,B|514:171|514:171|450:256,1,212.500004053116,2|2,0:2|0:0,0:0:0:0:
339,248,62826,1,2,0:0:0:0:
314,234,62931,2,0,L|211:260,2,106.250002026558,2|2|10,3:2|1:2|1:2,0:0:0:0:
209,39,63556,5,0,0:0:0:0:
197,26,63660,1,2,0:0:0:0:
184,14,63764,2,0,L|169:127,1,106.250002026558,6|2,3:2|0:0,0:0:0:0:
236,370,64181,2,0,L|255:211,1,159.375003039837,2|0,3:2|0:0,0:0:0:0:
273,98,64597,2,0,L|286:203,1,106.250002026558,2|2,3:2|0:0,0:0:0:0:
139,0,65014,2,0,L|158:158,1,159.375003039837,10|0,1:2|0:0,0:0:0:0:
287,81,65431,6,0,L|392:92,1,106.250002026558,2|2,3:2|0:0,0:0:0:0:
155,176,65847,2,0,L|260:187,1,106.250002026558,2|2,3:2|0:0,0:0:0:0:
442,323,66264,2,0,L|453:217,1,106.250002026558,2|2,3:2|0:0,0:0:0:0:
115,323,66681,1,10,1:2:0:0:
126,28,67097,5,2,3:2:0:0:
95,55,67201,2,0,P|72:103|61:155,1,106.250002026558,0|2,1:2|1:2,0:0:0:0:
61,176,67514,1,2,3:2:0:0:
71,210,67618,1,0,1:2:0:0:
99,253,67722,1,10,1:2:0:0:
141,283,67826,1,0,1:2:0:0:
210,292,67931,5,2,3:2:0:0:
241,273,68035,1,2,0:0:0:0:
311,328,68139,5,2,0:0:0:0:
342,347,68243,1,2,3:2:0:0:
410,288,68347,5,2,3:2:0:0:
441,269,68451,1,2,0:0:0:0:
510,330,68556,5,10,1:2:0:0:
453,248,68660,1,10,1:2:0:0:
487,363,68764,5,2,3:2:0:0:
487,363,69389,1,10,1:2:0:0:
71,210,69806,1,10,1:2:0:0:
50,231,69910,1,8,1:2:0:0:
39,262,70014,1,0,3:2:0:0:
118,127,70222,1,2,3:2:0:0:
465,262,70431,6,0,P|301:269|137:279,1,328.125003129244,6|0,3:2|0:0,0:0:0:0:
134,384,70847,2,0,B|204:360|204:360|247:243|247:243|291:232,1,218.750002086163,10|0,1:2|0:0,0:0:0:0:
101,259,71264,2,0,L|62:89,1,174.999994659424,2|2,3:2|1:2,0:0:0:0:
352,159,71576,1,2,0:0:0:0:
357,208,71681,2,0,L|165:164,1,174.999994659424,10|2,1:2|0:0,0:0:0:0:
55,333,72097,1,2,3:2:0:0:
16,93,72306,2,0,L|96:59,1,87.499997329712,2|0,1:2|0:0,0:0:0:0:
73,208,72514,1,10,1:2:0:0:
101,37,72722,1,2,0:0:0:0:
242,272,72931,6,0,L|267:98,1,174.999994659424,2|0,3:2|1:2,0:0:0:0:
488,295,73243,1,0,0:0:0:0:
512,322,73347,2,0,B|286:360|286:360|255:395,1,262.499991989136,10|0,1:2|0:0,0:0:0:0:
395,368,73764,6,0,L|347:294,1,87.499997329712,2|0,3:2|0:0,0:0:0:0:
443,186,73972,2,0,L|358:163,1,87.499997329712,2|0,1:2|0:0,0:0:0:0:
67,288,74181,2,0,L|241:271,1,174.999994659424,10|2,1:2|0:0,0:0:0:0:
460,326,74493,1,0,0:0:0:0:
434,344,74597,2,0,L|265:298,1,174.999994659424,2|2,3:2|1:2,0:0:0:0:
198,25,75014,2,0,L|273:182,1,174.999994659424,10|2,1:2|0:0,0:0:0:0:
280,133,75326,1,2,0:0:0:0:
286,81,75431,2,0,L|383:58,1,87.499997329712,2|0,3:2|0:0,0:0:0:0:
498,26,75639,2,0,L|475:110,1,87.499997329712,2|0,1:2|0:0,0:0:0:0:
403,299,75847,2,0,L|447:129,1,174.999994659424,10|2,1:2|0:0,0:0:0:0:
475,110,76160,1,2,0:0:0:0:
499,133,76264,6,0,L|511:246,1,87.499997329712,2|0,3:2|0:0,0:0:0:0:
273,182,76472,2,0,L|307:262,1,87.499997329712,2|0,1:2|0:0,0:0:0:0:
375,50,76681,1,10,1:2:0:0:
296,42,76785,1,0,0:0:0:0:
218,34,76889,1,10,1:2:0:0:
120,24,76993,1,8,1:2:0:0:
22,14,77097,6,0,B|-7:107|-7:107|136:137|136:137|115:229,1,328.125003129244,6|0,3:2|0:0,0:0:0:0:
25,272,77514,2,0,B|36:172|36:172|99:121|99:121|135:128,1,218.750002086163,10|0,1:2|0:0,0:0:0:0:
366,287,77931,2,0,L|191:301,1,174.999994659424,2|0,3:2|1:2,0:0:0:0:
333,146,78243,1,2,0:0:0:0:
338,117,78347,2,0,L|169:52,1,174.999994659424,10|2,1:2|0:0,0:0:0:0:
315,273,78764,6,0,L|239:318,1,87.499997329712,2|0,3:2|0:0,0:0:0:0:
469,204,78972,1,2,1:2:0:0:
446,183,79076,1,0,0:0:0:0:
423,162,79181,2,0,L|243:182,1,174.999994659424,10|2,1:2|0:0,0:0:0:0:
394,354,79597,2,0,L|137:296,1,262.499991989136,2|0,3:2|0:0,0:0:0:0:
393,88,80014,2,0,L|321:247,1,174.999994659424,10|0,1:2|0:0,0:0:0:0:
136,203,80431,6,0,L|71:40,1,174.999994659424,2|2,3:2|1:2,0:0:0:0:
240,0,80743,1,0,0:0:0:0:
251,30,80847,2,0,L|142:182,1,174.999994659424,10|2,1:2|0:0,0:0:0:0:
261,349,81264,1,2,3:2:0:0:
393,88,81472,5,2,1:2:0:0:
409,65,81576,1,0,0:0:0:0:
425,42,81681,1,10,1:2:0:0:
493,153,81889,2,0,L|412:186,1,87.499997329712,2|2,0:0|0:0,0:0:0:0:
176,276,82097,6,0,L|22:155,1,174.999994659424,2|2,3:2|1:2,0:0:0:0:
272,113,82410,1,0,0:0:0:0:
272,210,82514,2,0,L|205:41,1,174.999994659424,10|2,1:2|3:2,0:0:0:0:
430,296,82826,1,0,3:2:0:0:
350,350,82931,2,0,L|426:151,1,174.999994659424,2|2,3:2|3:2,0:0:0:0:
266,304,83347,1,10,1:2:0:0:
436,99,83764,6,0,P|351:103|301:171,1,174.999994659424,6|0,3:2|1:2,0:0:0:0:
434,266,84076,1,2,0:0:0:0:
436,99,84181,2,0,P|351:103|301:171,1,174.999994659424,10|0,1:2|1:2,0:0:0:0:
434,266,84493,1,2,0:0:0:0:
436,99,84597,2,0,P|351:103|301:171,1,174.999994659424,2|0,3:2|1:2,0:0:0:0:
434,266,84909,1,2,0:0:0:0:
434,266,85014,6,0,L|396:181,1,87.499997329712,10|0,1:2|0:0,0:0:0:0:
230,235,85222,2,0,L|131:209,2,87.499997329712,2|0|2,1:2|0:0|3:2,0:0:0:0:
66,37,85639,2,0,B|98:41|98:41|52:72,1,87.499997329712,0|0,1:2|0:0,0:0:0:0:
266,99,85847,2,0,B|235:52|235:52|453:102,1,262.499991989136,10|0,1:2|0:0,0:0:0:0:
512,233,86264,6,0,L|341:194,1,174.999994659424,2|2,3:2|1:2,0:0:0:0:
187,317,86576,1,0,0:0:0:0:
211,315,86681,2,0,L|377:216,1,174.999994659424,10|0,1:2|0:0,0:0:0:0:
108,375,87097,6,0,L|156:117,1,262.499991989136,2|2,3:2|0:0,0:0:0:0:
131,22,87514,2,0,L|248:151,1,174.999994659424,10|0,1:2|0:0,0:0:0:0:
376,116,87826,1,2,0:0:0:0:
412,104,87931,2,0,P|404:60|391:19,1,87.499997329712,2|0,3:2|0:0,0:0:0:0:
256,258,88139,2,0,P|295:239|332:216,1,87.499997329712,2|0,1:2|0:0,0:0:0:0:
66,147,88347,2,0,P|94:180|125:210,1,87.499997329712,10|0,1:2|0:0,0:0:0:0:
242,75,88556,1,2,0:0:0:0:
225,62,88660,1,0,0:0:0:0:
209,51,88764,6,0,L|36:19,1,174.999994659424,2|2,3:2|1:2,0:0:0:0:
244,165,89076,1,0,0:0:0:0:
279,173,89181,2,0,L|449:132,1,174.999994659424,10|2,1:2|0:0,0:0:0:0:
209,157,89597,1,10,1:2:0:0:
484,140,89806,1,8,1:2:0:0:
277,138,90014,2,0,L|425:166,1,149.999995422363,10|0,1:2|0:0,0:0:0:0:
449,177,90431,6,0,P|358:165|279:212,1,187.500007152558,6|0,3:2|1:2,0:0:0:0:
128,82,90743,1,2,0:0:0:0:
63,207,90847,2,0,P|154:219|233:172,1,187.500007152558,10|0,1:2|1:2,0:0:0:0:
384,302,91160,1,2,0:0:0:0:
449,177,91264,2,0,P|358:165|279:212,1,187.500007152558,2|0,3:2|1:2,0:0:0:0:
215,316,91576,1,2,0:0:0:0:
225,335,91681,2,0,P|309:346|383:302,1,174.999994659424,10|2,1:2|1:2,0:0:0:0:
464,104,92097,6,0,L|432:290,1,174.999994659424,2|0,3:2|1:2,0:0:0:0:
483,362,92514,2,0,L|416:18,1,349.999989318848,10|2,1:2|3:2,0:0:0:0:
259,324,93139,2,0,L|345:338,1,87.499997329712,2|0,1:2|0:0,0:0:0:0:
361,367,93347,2,0,L|331:194,1,174.999994659424,10|2,1:2|0:0,0:0:0:0:
143,304,93764,6,0,L|172:131,1,174.999994659424,2|0,3:2|1:2,0:0:0:0:
335,30,94076,1,2,0:0:0:0:
346,52,94181,2,0,L|316:224,1,174.999994659424,10|0,1:2|0:0,0:0:0:0:
154,326,94493,1,2,0:0:0:0:
143,304,94598,2,0,L|172:131,1,174.999994659424,2|2,3:2|1:2,0:0:0:0:
259,308,94910,1,0,0:0:0:0:
296,314,95014,2,0,L|398:343,1,87.499997329712,10|0,1:2|0:0,0:0:0:0:
288,95,95222,2,0,L|186:124,1,87.499997329712,2|0,0:0|0:0,0:0:0:0:
40,300,95431,5,2,3:2:0:0:
6,116,95639,1,2,1:2:0:0:
154,326,95847,1,10,1:2:0:0:
154,326,96056,2,0,L|69:302,1,87.499997329712,2|0,0:0|0:0,0:0:0:0:
6,116,96264,5,2,3:2:0:0:
30,82,96368,1,0,0:0:0:0:
84,10,96472,5,10,1:2:0:0:
115,33,96576,1,0,0:0:0:0:
188,88,96681,5,10,1:2:0:0:
163,119,96785,1,0,0:0:0:0:
109,193,96889,5,10,1:2:0:0:
78,168,96993,1,0,0:0:0:0:
97,102,97097,2,0,L|91:183,1,81.2499962806703,6|0,3:2|0:0,0:0:0:0:
90,183,97514,2,0,L|84:264,1,81.2499962806703,14|0,1:2|0:0,0:0:0:0:
83,264,97931,6,0,L|77:345,1,81.2499962806703,2|0,3:2|0:0,0:0:0:0:
178,193,98139,2,0,L|172:274,1,81.2499962806703,2|0,0:0|0:0,0:0:0:0:
273,122,98347,1,10,1:2:0:0:
179,96,98556,1,0,0:0:0:0:
138,99,98660,1,0,0:0:0:0:
97,102,98764,6,0,L|16:108,1,81.2499962806703,2|0,3:2|0:0,0:0:0:0:
179,96,99181,2,0,L|98:102,1,81.2499962806703,10|0,1:2|0:0,0:0:0:0:
260,89,99597,6,0,L|179:95,1,81.2499962806703,2|0,3:2|0:0,0:0:0:0:
351,170,99806,2,0,L|270:176,1,81.2499962806703,2|0,0:0|0:0,0:0:0:0:
442,251,100014,2,0,L|361:257,1,81.2499962806703,10|0,1:2|0:0,0:0:0:0:
512,1,100431,6,0,L|506:82,1,81.2499962806703,6|0,3:2|0:0,0:0:0:0:
505,82,100847,2,0,B|502:121|502:121|477:88,1,81.2499962806703,10|0,1:2|0:0,0:0:0:0:
476,87,101264,5,2,3:2:0:0:
466,242,101472,1,2,0:0:0:0:
466,242,101576,1,0,0:0:0:0:
466,242,101681,1,10,1:2:0:0:
401,171,101889,1,0,0:0:0:0:
308,194,102097,5,0,3:2:0:0:
299,289,102306,1,0,0:0:0:0:
299,289,102410,1,0,0:0:0:0:
299,289,102514,1,8,1:2:0:0:
210,325,102722,1,0,0:0:0:0:
160,239,102931,5,2,3:2:0:0:
160,239,103035,1,2,1:2:0:0:
160,239,103139,1,10,1:2:0:0:
160,239,103243,1,2,1:2:0:0:
181,236,103347,2,0,B|197:234|212:226|212:226|169:192|118:211|118:211|126:226|141:232,1,162.499992561341,10|2,1:2|0:0,0:0:0:0:
56,384,103764,6,0,L|44:303,1,81.2499962806703,6|0,3:2|0:0,0:0:0:0:
44,303,104181,2,0,L|124:291,1,81.2499962806703,10|0,1:2|0:0,0:0:0:0:
124,291,104597,6,0,L|112:210,1,81.2499962806703,2|0,3:2|0:0,0:0:0:0:
38,146,104806,2,0,L|26:65,1,81.2499962806703,2|0,0:0|0:0,0:0:0:0:
112,210,105014,1,10,1:2:0:0:
187,145,105222,1,0,0:0:0:0:
227,150,105326,1,0,0:0:0:0:
267,156,105431,6,0,L|347:167,1,81.2499962806703,2|0,3:2|0:0,0:0:0:0:
278,75,105847,2,0,L|266:155,1,81.2499962806703,10|0,1:2|0:0,0:0:0:0:
197,63,106264,6,0,L|277:74,1,81.2499962806703,2|0,3:2|0:0,0:0:0:0:
347,167,106472,2,0,L|427:178,1,81.2499962806703,2|0,0:0|0:0,0:0:0:0:
277,74,106681,1,10,1:2:0:0:
497,384,107097,6,0,L|485:303,1,81.2499962806703,6|0,3:2|0:0,0:0:0:0:
485,303,107514,2,0,B|478:261|478:261|456:293,1,81.2499962806703,10|0,1:2|0:0,0:0:0:0:
408,378,107931,5,2,3:2:0:0:
316,348,108139,1,2,0:0:0:0:
291,255,108347,1,10,1:2:0:0:
334,169,108556,1,0,0:0:0:0:
334,169,108660,1,0,0:0:0:0:
334,169,108764,5,2,3:2:0:0:
429,174,108972,1,0,0:0:0:0:
429,174,109076,1,0,0:0:0:0:
429,174,109180,1,10,1:2:0:0:
334,169,109389,1,2,0:0:0:0:
238,164,109597,6,0,L|157:159,1,81.2499962806703,2|0,3:2|0:0,0:0:0:0:
238,164,109806,6,0,L|157:159,1,81.2499962806703,0|0,3:2|3:2,0:0:0:0:
238,164,110014,6,0,L|157:159,1,81.2499962806703,8|0,1:2|0:0,0:0:0:0:
238,164,110222,6,0,L|157:159,1,81.2499962806703
61,176,110431,5,6,3:2:0:0:
61,176,110847,2,0,L|334:149,1,275.000008392334,14|2,1:2|3:2,0:0:0:0:
451,198,111472,1,2,0:0:0:0:
441,186,111576,1,0,0:0:0:0:
429,174,111681,2,0,L|445:37,1,137.500004196167,10|0,1:2|0:0,0:0:0:0:
433,28,111993,1,0,0:0:0:0:
421,16,112097,1,2,3:2:0:0:
322,34,112306,1,2,0:0:0:0:
322,34,112514,1,10,1:2:0:0:
248,229,112722,2,0,L|235:92,2,137.500004196167,2|0|2,0:0|3:2|0:0,0:0:0:0:
267,384,113347,2,0,L|364:254,1,137.500004196167,10|2,1:2|0:0,0:0:0:0:
429,324,113660,1,0,0:0:0:0:
405,349,113764,6,0,L|191:333,1,206.250006294251,6|0,3:2|0:0,0:0:0:0:
109,381,114181,2,0,L|55:227,1,137.500004196167,10|0,1:2|0:0,0:0:0:0:
68,239,114493,1,2,0:0:0:0:
74,228,114597,1,2,3:2:0:0:
194,170,114806,1,2,0:0:0:0:
98,90,115014,1,10,1:2:0:0:
183,16,115222,1,2,0:0:0:0:
201,7,115326,1,2,0:0:0:0:
219,0,115431,6,0,L|210:75,2,68.7500020980836,2|0|2,3:2|0:0|0:0,0:0:0:0:
44,108,115847,2,0,B|35:47|35:47|98:90,1,137.500004196167,8|2,1:2|0:0,0:0:0:0:
236,207,116264,2,0,B|268:154|268:154|193:169,1,137.500004196167,2|8,3:2|1:2,0:0:0:0:
0,267,116681,2,0,B|64:272|64:272|112:327,1,137.500004196167,8|0,1:2|0:0,0:0:0:0:
353,326,117097,6,2,L|18:367,1,337.499989700318,2|0,3:2|0:0,0:1:0:0:
53,303,117931,5,0,0:0:0:0:
27,330,118035,1,0,0:0:0:0:
18,367,118139,1,0,0:0:0:0:
178,321,118347,2,2,L|207:213,1,112.499996566773,2|0,3:2|0:0,0:1:0:0:
33,187,118764,6,2,L|479:128,2,449.99998626709,2|0|2,0:0|0:0|0:0,0:1:0:0:
24,200,120535,5,0,1:2:0:0:
51,160,120639,1,10,1:2:0:0:
132,186,120743,1,8,1:2:0:0:
216,123,120847,2,0,B|252:59|252:59|236:14,1,112.499996566773,2|0,3:2|0:0,0:0:0:0:
363,117,121264,5,2,0:0:0:0:
366,131,121368,1,0,0:0:0:0:
369,145,121472,1,2,0:0:0:0:
372,159,121576,1,0,0:0:0:0:
375,173,121681,2,2,L|392:32,2,112.499996566773,2|2|2,3:2|3:2|3:2,0:1:0:0:
401,275,122306,1,2,0:0:0:0:
405,289,122410,1,0,0:0:0:0:
407,303,122514,2,0,B|441:263|441:263|497:282,1,112.499996566773,10|2,1:2|0:0,0:0:0:0:
311,347,122931,2,0,B|254:366|254:366|220:326,1,112.499996566773,0|10,3:2|1:2,0:0:0:0:
265,137,123347,2,0,L|285:247,1,112.499996566773,10|0,1:2|0:0,0:0:0:0:
487,72,123764,6,0,L|376:60,2,100,6|2|2,3:2|0:0|3:2,0:0:0:0:
375,92,124597,2,0,L|275:105,1,100,2|0,3:2|0:0,0:0:0:0:
189,229,125014,2,0,L|120:155,1,100,10|0,1:2|0:0,0:0:0:0:
28,354,125431,2,0,L|44:255,2,100,2|2|2,3:2|0:0|3:2,0:0:0:0:
24,259,126264,2,0,L|10:159,2,100,2|0|8,3:2|0:0|1:2,0:0:0:0:
24,259,126889,1,0,0:0:0:0:
119,50,127097,6,0,L|167:61,1,50,2|0,3:2|0:0,0:0:0:0:
235,139,127306,2,0,L|283:127,1,50,2|0,0:0|0:0,0:0:0:0:
343,45,127514,2,0,L|310:139,1,100,2|0,3:2|0:0,0:0:0:0:
371,232,127826,1,2,0:0:0:0:
402,215,127931,2,0,L|284:229,1,100,2|2,3:2|0:0,0:0:0:0:
474,384,128347,2,0,L|496:235,1,150,10|2,1:2|0:0,0:0:0:0:
464,150,128764,5,2,3:2:0:0:
293,348,128972,2,0,L|137:331,1,150,2|0,0:0|0:0,0:0:0:0:
129,308,129389,1,2,0:0:0:0:
86,300,129493,1,2,0:0:0:0:
55,328,129597,2,0,L|85:220,2,100,2|2|10,3:2|0:0|1:2,0:0:0:0:
203,177,130326,5,2,0:0:0:0:
216,157,130431,2,0,L|197:47,2,100,6|2|2,3:2|0:0|3:2,0:0:0:0:
293,348,131160,1,2,0:0:0:0:
280,328,131265,2,0,L|299:218,2,100,2|2|10,3:2|0:0|1:2,0:0:0:0:
419,185,131993,1,0,0:0:0:0:
408,154,132097,2,0,L|292:127,1,100,2|2,3:2|0:0,0:0:0:0:
194,245,132514,1,2,3:2:0:0:
226,18,132722,2,0,L|205:216,1,200,2|2,0:0|0:0,0:0:0:0:
494,378,133347,2,0,B|480:329|480:329|447:365,1,100,10|2,1:2|0:0,0:0:0:0:
438,72,133764,5,2,3:2:0:0:
419,62,133868,1,0,1:2:0:0:
396,63,133972,1,0,1:2:0:0:
377,75,134076,1,2,1:2:0:0:
362,126,134181,5,2,3:2:0:0:
318,164,134285,1,0,1:2:0:0:
261,159,134389,1,10,1:2:0:0:
226,113,134493,1,0,1:2:0:0:
226,48,134597,5,2,3:2:0:0:
169,79,134701,1,2,1:2:0:0:
213,148,134806,5,10,1:2:0:0:
200,211,134910,1,2,1:2:0:0:
281,222,135014,5,2,1:2:0:0:
321,272,135118,1,2,1:2:0:0:
381,217,135222,5,10,1:2:0:0:
446,219,135326,1,2,1:2:0:0:
442,136,135431,6,0,L|509:108,1,71.8750013709069,10|8,1:2|1:2,0:0:0:0:
300,78,135639,2,0,L|309:5,1,71.8750013709069,10|8,1:2|1:2,0:0:0:0:
178,171,135847,2,0,L|120:126,1,71.8750013709069,10|8,1:2|1:2,0:0:0:0:
198,322,136056,2,0,L|130:350,1,71.8750013709069,10|8,1:2|1:2,0:0:0:0:
312,219,136264,5,2,3:2:0:0:
487,335,136576,1,0,3:2:0:0:
482,351,136681,1,0,3:2:0:0:
477,250,136889,2,0,L|491:321,1,71.8750013709069,0|0,3:2|0:0,0:0:0:0:
491,321,137097,6,0,B|434:376|347:348|329:277|371:260|339:179|250:159|205:213,1,375,6|0,3:2|0:0,0:0:0:0:
227,303,137514,2,0,P|345:263|467:237,1,250,10|0,1:2|0:0,0:0:0:0:
305,366,137931,2,0,L|113:338,1,193.750001478195,2|2,3:2|1:2,0:0:0:0:
0,149,138243,1,2,0:0:0:0:
27,154,138347,2,0,L|134:327,1,193.750001478195,10|2,1:2|0:0,0:0:0:0:
300,161,138764,1,2,3:2:0:0:
159,39,138972,2,0,L|122:131,1,96.8750007390976,2|0,1:2|0:0,0:0:0:0:
13,298,139181,2,0,L|189:217,1,193.750001478195,10|2,1:2|0:0,0:0:0:0:
413,373,139597,1,2,3:2:0:0:
381,336,139701,1,0,0:0:0:0:
370,288,139806,1,0,1:2:0:0:
378,241,139910,1,0,0:0:0:0:
456,196,140014,6,0,B|441:57|441:57|385:38,1,193.750001478195,10|0,1:2|0:0,0:0:0:0:
122,128,140431,2,0,L|103:320,2,193.750001478195,2|2|10,3:2|1:2|1:2,0:0:0:0:
456,196,141056,1,2,0:0:0:0:
358,344,141264,2,0,L|337:151,1,193.750001478195,2|2,3:2|1:2,0:0:0:0:
383,16,141576,1,0,0:0:0:0:
389,39,141681,2,0,L|370:134,1,96.8750007390976,10|0,1:2|0:0,0:0:0:0:
177,40,141889,1,2,0:0:0:0:
124,22,141993,1,2,0:0:0:0:
70,4,142097,6,0,P|42:43|25:88,1,96.8750007390976,2|0,3:2|0:0,0:0:0:0:
103,153,142306,2,0,P|122:197|153:234,1,96.8750007390976,2|0,1:2|0:0,0:0:0:0:
63,348,142514,2,0,L|255:330,1,193.750001478195,10|2,1:2|0:0,0:0:0:0:
471,327,142826,1,2,0:0:0:0:
455,351,142931,2,0,L|265:309,1,193.750001478195,2|2,3:2|1:2,0:0:0:0:
488,305,143347,5,10,1:2:0:0:
466,261,143451,1,0,0:0:0:0:
478,213,143556,1,8,1:2:0:0:
454,170,143660,1,8,1:2:0:0:
491,93,143764,6,0,B|527:34|445:-27|391:30|391:30|358:67|358:67|357:73|357:73|324:110|324:110|291:144|237:125,1,375,6|0,3:2|0:0,0:0:0:0:
177,48,144181,2,0,P|293:43|332:153,1,250,10|0,1:2|0:0,0:0:0:0:
204,357,144597,2,0,L|225:145,1,212.500004053116,2|0,3:2|1:2,0:0:0:0:
69,33,144910,1,2,0:0:0:0:
54,50,145014,2,0,B|30:95|30:95|82:111,1,106.250002026558,10|0,1:2|0:0,0:0:0:0:
286,174,145222,2,0,B|275:124|275:124|225:145,1,106.250002026558,2|0,0:0|0:0,0:0:0:0:
35,384,145431,6,0,L|0:174,1,212.500004053116,2|2,3:2|1:2,0:0:0:0:
139,196,145743,1,0,0:0:0:0:
160,230,145847,2,0,L|149:335,1,106.250002026558,10|0,1:2|0:0,0:0:0:0:
332,153,146056,2,0,L|269:238,1,106.250002026558,2|0,0:0|0:0,0:0:0:0:
149,335,146264,5,2,3:2:0:0:
149,335,146472,6,0,L|54:313,1,96.8750007390976,0|0,1:2|0:0,0:0:0:0:
158,364,146681,2,0,L|445:323,1,290.625002217293,10|0,1:2|0:0,0:0:0:0:
512,384,147097,5,2,3:2:0:0:
496,237,147306,2,0,L|400:219,1,96.8750007390976,2|0,1:2|0:0,0:0:0:0:
211,257,147514,1,10,1:2:0:0:
384,384,147722,2,0,L|280:326,1,96.8750007390976,2|2,0:0|0:0,0:0:0:0:
261,143,147931,1,2,3:2:0:0:
496,88,148139,2,0,L|385:108,1,96.8750007390976,2|0,1:2|0:0,0:0:0:0:
307,242,148347,1,10,1:2:0:0:
35,77,148556,6,0,B|77:54|77:54|108:92,1,96.8750007390976,2|2,0:0|0:0,0:0:0:0:
221,276,148764,1,2,3:2:0:0:
18,218,148972,2,0,B|49:180|49:180|91:202,1,96.8750007390976,2|0,1:2|0:0,0:0:0:0:
156,348,149181,1,10,1:2:0:0:
113,188,149389,2,0,B|155:138|155:138|143:75,1,96.8750007390976,2|2,0:0|0:0,0:0:0:0:
0,0,149597,1,2,3:2:0:0:
68,298,149806,1,2,3:2:0:0:
13,38,150014,6,0,L|298:92,1,290.625002217293,2|0,3:2|0:0,0:0:0:0:
456,182,150431,6,0,P|363:174|305:247,1,193.750001478195,6|0,3:2|1:2,0:0:0:0:
428,329,150743,1,2,0:0:0:0:
456,182,150847,2,0,P|363:174|305:247,1,193.750001478195,10|0,1:2|1:2,0:0:0:0:
428,329,151159,1,2,0:0:0:0:
456,182,151264,2,0,P|363:174|305:247,1,193.750001478195,2|0,3:2|1:2,0:0:0:0:
428,329,151576,1,2,0:0:0:0:
312,280,151681,2,0,P|254:352|161:345,2,193.750001478195,10|2|2,1:2|1:2|3:2,0:0:0:0:
262,17,152306,5,0,1:2:0:0:
250,27,152410,1,0,0:0:0:0:
237,35,152514,2,0,L|208:228,1,193.750001478195,10|0,1:2|0:0,0:0:0:0:
68,382,152826,1,0,0:0:0:0:
37,366,152931,2,0,L|17:271,1,96.8750007390976,2|0,3:2|0:0,0:0:0:0:
107,159,153139,2,0,L|121:63,1,96.8750007390976,2|0,1:2|0:0,0:0:0:0:
226,237,153347,2,0,L|340:80,1,193.750001478195,10|2,1:2|0:0,0:0:0:0:
411,309,153764,6,0,L|124:261,1,290.625002217293,2|2,3:2|0:0,0:0:0:0:
37,366,154181,2,0,L|323:318,1,290.625002217293,10|2,1:2|0:0,0:0:0:0:
489,362,154597,2,0,B|509:318|509:318|466:179,1,193.750001478195,2|2,3:2|1:2,0:0:0:0:
276,82,154910,1,0,0:0:0:0:
277,123,155014,2,0,B|304:162|304:162|446:194,1,193.750001478195,10|2,1:2|0:0,0:0:0:0:
363,16,155431,2,0,L|170:39,1,193.750001478195,2|2,3:2|1:2,0:0:0:0:
203,275,155847,2,0,L|395:300,1,193.750001478195,10|2,1:2|0:0,0:0:0:0:
406,319,156264,5,10,1:2:0:0:
121,134,156472,1,8,1:2:0:0:
371,384,156681,2,0,L|349:289,3,96.8750007390976,10|0|2|0,1:2|0:0|0:0|0:0,0:0:0:0:
461,179,157097,6,0,P|368:167|292:223,1,193.750001478195,6|0,3:2|1:2,0:0:0:0:
114,97,157410,1,2,0:0:0:0:
51,205,157514,2,0,P|144:217|220:161,1,193.750001478195,10|0,1:2|1:2,0:0:0:0:
398,287,157826,1,2,0:0:0:0:
461,179,157930,2,0,P|368:167|292:223,1,193.750001478195,2|0,3:2|1:2,0:0:0:0:
114,97,158243,1,2,0:0:0:0:
51,205,158347,2,0,P|144:217|220:161,1,193.750001478195,10|2,1:2|1:2,0:0:0:0:
483,57,158764,6,0,L|294:101,1,193.750001478195,2|0,3:2|1:2,0:0:0:0:
67,333,159181,2,0,B|108:39|108:39|23:5,1,387.50000295639,10|2,1:2|3:2,0:0:0:0:
182,212,159806,1,2,1:2:0:0:
198,0,160014,2,0,L|208:193,1,193.750001478195,10|2,1:2|0:0,0:0:0:0:
11,95,160431,6,0,L|291:14,1,290.625002217293,2|2,3:2|0:0,0:0:0:0:
401,152,160847,2,0,L|113:110,1,290.625002217293,10|2,1:2|0:0,0:0:0:0:
0,188,161264,1,2,3:2:0:0:
184,2,161472,1,2,1:2:0:0:
245,239,161681,1,10,1:2:0:0:
350,119,161889,1,2,0:0:0:0:
303,126,162097,6,0,L|287:221,1,96.8750007390976,2|0,3:2|0:0,0:0:0:0:
409,32,162306,2,0,L|439:123,1,96.8750007390976,10|0,1:2|0:0,0:0:0:0:
209,7,162514,2,0,L|316:28,1,96.8750007390976,10|0,1:2|0:0,0:0:0:0:
53,141,162722,2,0,L|128:80,1,96.8750007390976,2|0,0:0|0:0,0:0:0:0:
31,238,162931,5,2,3:2:0:0:
77,254,163035,1,0,0:0:0:0:
123,270,163139,1,8,1:2:0:0:
211,175,163243,1,0,0:0:0:0:
257,191,163347,1,8,1:2:0:0:
303,207,163451,1,0,0:0:0:0:
391,112,163556,1,8,1:2:0:0:
437,128,163660,1,8,1:2:0:0:
483,144,163764,6,0,B|422:260|422:260|433:336,1,193.750001478195,6|0,3:2|1:2,0:0:0:0:
307,384,164076,1,2,0:0:0:0:
264,360,164181,2,0,B|380:299|380:299|456:310,1,193.750001478195,10|0,1:2|1:2,0:0:0:0:
391,112,164493,1,2,0:0:0:0:
371,92,164597,2,0,B|270:77|270:77|211:6,1,193.750001478195,2|0,3:2|1:2,0:0:0:0:
88,152,164910,1,2,0:0:0:0:
108,172,165014,2,0,B|209:187|209:187|267:257,1,193.750001478195,10|2,1:2|1:2,0:0:0:0:
124,339,165431,6,0,L|313:0,2,387.50000295639,2|10|2,3:2|1:2|3:2,0:0:0:0:
367,277,166472,2,0,L|352:181,1,96.8750007390976,2|0,1:2|0:0,0:0:0:0:
236,351,166681,1,10,1:2:0:0:
479,257,166889,1,2,0:0:0:0:
467,216,166993,1,0,0:0:0:0:
456,182,167097,6,0,P|363:174|305:247,1,193.750001478195,2|0,3:2|1:2,0:0:0:0:
428,329,167410,1,2,0:0:0:0:
468,182,167514,2,0,P|377:157|305:218,1,193.750001478195,10|0,1:2|0:0,0:0:0:0:
428,329,167826,1,2,0:0:0:0:
481,184,167930,2,0,P|396:144|310:191,1,193.750001478195,2|2,3:2|1:2,0:0:0:0:
428,329,168243,1,0,0:0:0:0:
494,188,168347,2,0,P|417:134|325:161,1,193.750001478195,10|2,1:2|0:0,0:0:0:0:
428,329,168660,1,0,0:0:0:0:
456,182,168764,6,0,P|363:174|305:247,1,193.750001478195,2|2,3:2|1:2,0:0:0:0:
456,182,169181,2,0,P|363:174|305:247,1,193.750001478195,10|2,1:2|0:0,0:0:0:0:
455,181,169597,6,0,P|410:166|363:174,1,96.8750007390976,10|8,1:2|1:2,0:0:0:0:
305,247,169806,1,8,1:2:0:0:
305,247,170014,2,0,P|247:319|154:312,1,193.750001478195,10|10,1:2|1:2,0:0:0:0:
411,273,170431,6,0,L|436:80,1,193.750001478195,6|0,3:2|1:2,0:0:0:0:
280,153,170743,1,2,0:0:0:0:
246,142,170847,2,0,L|421:60,1,193.750001478195,10|0,1:2|1:2,0:0:0:0:
320,242,171160,1,2,0:0:0:0:
302,269,171264,2,0,L|211:234,1,96.8750007390976,2|0,3:2|0:0,0:0:0:0:
63,312,171472,2,0,L|40:217,1,96.8750007390976,0|2,1:2|0:0,0:0:0:0:
289,374,171681,2,0,L|411:223,1,193.750001478195,10|2,1:2|1:2,0:0:0:0:
447,207,171993,1,0,0:0:0:0:
482,190,172097,6,0,L|290:161,1,193.750001478195,2|0,3:2|1:2,0:0:0:0:
93,131,172514,6,0,B|130:90|135:43|135:43|200:-13|285:-7|285:-7|328:43|395:45,1,387.50000295639,10|2,1:2|3:2,0:0:0:0:
279,201,173139,1,2,1:2:0:0:
420,362,173347,2,0,P|464:343|512:336,1,96.8750007390976,10|0,1:2|0:0,0:0:0:0:
301,342,173556,2,0,P|263:312|218:292,1,96.8750007390976,2|0,0:0|0:0,0:0:0:0:
21,384,173764,6,0,L|212:307,1,193.750001478195,2|0,3:2|1:2,0:0:0:0:
315,212,174076,1,2,0:0:0:0:
360,235,174181,2,0,L|508:359,1,193.750001478195,10|0,1:2|0:0,0:0:0:0:
474,211,174493,1,2,0:0:0:0:
461,179,174597,2,0,P|476:133|497:90,1,96.8750007390976,2|0,3:2|0:0,0:0:0:0:
307,11,174806,2,0,P|340:47|367:87,1,96.8750007390976,2|0,1:2|0:0,0:0:0:0:
315,212,175014,2,0,P|278:180|237:154,1,96.8750007390976,10|0,1:2|0:0,0:0:0:0:
208,311,175222,2,0,P|254:324|298:344,1,96.8750007390976,2|0,0:0|0:0,0:0:0:0:
59,375,175431,6,0,B|26:205|26:205|46:200,1,193.750001478195,2|2,3:2|1:2,0:0:0:0:
453,9,175847,2,0,B|486:179|486:179|465:183,1,193.750001478195,10|2,1:2|3:2,0:0:0:0:
208,272,176264,5,2,3:2:0:0:
197,231,176368,1,2,0:2:0:0:
176,144,176472,5,2,3:2:0:0:
214,135,176576,1,2,0:2:0:0:
303,114,176681,5,10,1:2:0:0:
311,153,176785,1,2,0:2:0:0:
333,242,176889,5,2,0:2:0:0:
294,250,176993,1,2,0:2:0:0:
256,192,177097,6,0,L|256:21,1,168.749994850159,6|0,3:2|0:0,0:0:0:0:
359,273,177514,2,0,L|359:102,1,168.749994850159,8|0,3:2|0:0,0:0:0:0:
157,350,177931,2,0,L|157:179,1,168.749994850159,0|2,3:2|0:3,0:0:0:0:
54,221,178347,2,0,L|54:50,1,168.749994850159,8|0,3:2|0:0,0:0:0:0:
234,0,178764,6,0,L|234:84,1,56.2499982833863,2|0,3:2|0:0,0:0:0:0:
278,384,179597,2,0,L|278:299,1,56.2499982833863,2|0,3:2|0:0,0:0:0:0:
402,0,180431,6,0,L|233:0,1,168.749994850159,2|0,3:2|0:0,0:0:0:0:
479,99,180847,2,0,L|310:99,1,168.749994850159,8|0,3:2|0:0,0:0:0:0:
364,290,181264,2,0,L|195:290,1,168.749994850159,0|2,3:2|0:3,0:0:0:0:
422,194,181681,2,0,L|253:194,1,168.749994850159,8|0,3:2|0:0,0:0:0:0:
0,208,182097,6,0,L|56:208,1,56.2499982833863,2|0,3:2|0:0,0:0:0:0:
455,176,182931,2,0,L|512:176,1,56.2499982833863,2|0,3:2|0:0,0:0:0:0:
4,379,183764,6,0,B|4:3|4:3|97:3|97:3|97:379,1,843.749974250794,6|0,3:2|0:0,0:0:0:0:
508,379,185431,2,0,B|508:3|508:3|414:3|414:3|414:379,1,843.749974250794,2|0,3:2|0:0,0:0:0:0:
246,376,187097,2,0,B|246:357|246:357|264:357|264:357|264:376,1,56.2499982833863,2|0,3:0|0:0,0:0:0:0:
368,192,187514,6,0,L|143:192,6,224.999993133545,0|0|0|2|0|2|10,3:0|3:0|3:0|0:0|0:0|0:0|0:2,0:0:0:0:
