osu file format v14

[General]
AudioFilename: audio.mp3
AudioLeadIn: 0
PreviewTime: 2931
Countdown: 0
SampleSet: Soft
StackLeniency: 0.4
Mode: 0
LetterboxInBreaks: 0
WidescreenStoryboard: 1

[Editor]
Bookmarks: 431,3764,17097,30431,43764,57097,67097,70431,97097,105431,110431,117097,123764,133764,137097,177097
DistanceSpacing: 0.5
BeatDivisor: 4
GridSize: 16
TimelineZoom: 2.5

[Metadata]
Title:Rainy Boots
TitleUnicode:レイニーブーツ
Artist:Will Stetson
ArtistUnicode:Will Stetson
Creator:- Clubber -
Version:Normal
Source:
Tags:inabakumori Sayri Dictate cover 稲葉曇 ぬくぬくにぎりめし nukunukunigirimeshi アンチサイクロン anticyclone English Rock Pop inaba cumori Shii ShiiTsuin Pop Rock
BeatmapID:3186992
BeatmapSetID:1557729

[Difficulty]
HPDrainRate:4
CircleSize:2.7
OverallDifficulty:4
ApproachRate:6
SliderMultiplier:1.2
SliderTickRate:1

[Events]
//Background and Video events
0,0,"bg.jpg",0,0
Video,0,"william my beloved.mp4"
//Break Periods
//Storyboard Layer 0 (Background)
//Storyboard Layer 1 (Fail)
//Storyboard Layer 2 (Pass)
//Storyboard Layer 3 (Foreground)
//Storyboard Layer 4 (Overlay)
//Storyboard Sound Samples

[TimingPoints]
431,416.666666666667,4,2,1,69,1,0
3764,-90.9090909090909,4,2,1,69,0,0
5014,-95.2380952380952,4,2,1,69,0,0
10431,-90.9090909090909,4,2,1,69,0,0
11681,-95.2380952380952,4,2,1,69,0,0
17097,-100,4,2,3,69,0,0
20431,-100,4,2,1,69,0,0
23764,-100,4,2,3,69,0,0
27097,-100,4,2,1,69,0,0
70431,-86.9565217391304,4,2,1,69,0,0
71264,-90.9090909090909,4,2,1,69,0,0
77097,-86.9565217391304,4,2,1,69,0,0
77930,-90.9090909090909,4,2,1,69,0,0
97097,-100,4,2,3,69,0,0
100431,-100,4,2,1,69,0,0
103764,-100,4,2,3,69,0,0
107097,-100,4,2,1,69,0,0
137097,-83.3333333333333,4,2,1,69,0,1
150326,-83.3333333333333,4,2,1,69,0,0
150431,-83.3333333333333,4,2,1,69,0,1
150743,-83.3333333333333,4,2,1,69,0,0
150848,-83.3333333333333,4,2,1,69,0,1
151160,-83.3333333333333,4,2,1,69,0,0
151265,-83.3333333333333,4,2,1,69,0,1
151576,-83.3333333333333,4,2,1,69,0,0
151681,-83.3333333333333,4,2,1,69,0,1
156993,-83.3333333333333,4,2,1,69,0,0
157098,-83.3333333333333,4,2,1,69,0,1
157410,-83.3333333333333,4,2,1,69,0,0
157515,-83.3333333333333,4,2,1,69,0,1
157826,-83.3333333333333,4,2,1,69,0,0
157931,-83.3333333333333,4,2,1,69,0,1
158243,-83.3333333333333,4,2,1,69,0,0
158348,-83.3333333333333,4,2,1,69,0,1
162826,-83.3333333333333,4,2,1,69,0,0
162931,-83.3333333333333,4,2,1,69,0,1
163139,-83.3333333333333,4,2,1,69,0,0
163244,-83.3333333333333,4,2,1,69,0,1
163451,-83.3333333333333,4,2,1,69,0,0
163556,-83.3333333333333,4,2,1,69,0,1
163660,-83.3333333333333,4,2,1,69,0,0
163765,-83.3333333333333,4,2,1,69,0,1
166993,-83.3333333333333,4,2,1,69,0,0
167098,-83.3333333333333,4,2,1,69,0,1
167410,-83.3333333333333,4,2,1,69,0,0
167515,-83.3333333333333,4,2,1,69,0,1
167826,-83.3333333333333,4,2,1,69,0,0
167931,-83.3333333333333,4,2,1,69,0,1
168243,-83.3333333333333,4,2,1,69,0,0
168348,-83.3333333333333,4,2,1,69,0,1
168660,-83.3333333333333,4,2,1,69,0,0
168765,-83.3333333333333,4,2,1,69,0,1
169076,-83.3333333333333,4,2,1,69,0,0
169181,-83.3333333333333,4,2,1,69,0,1
169493,-83.3333333333333,4,2,1,69,0,0
169598,-83.3333333333333,4,2,1,69,0,1
169910,-83.3333333333333,4,2,1,69,0,0
170015,-83.3333333333333,4,2,1,69,0,1
170326,-83.3333333333333,4,2,1,69,0,0
170431,-83.3333333333333,4,2,1,69,0,1
176160,-83.3333333333333,4,2,1,69,0,0
176265,-83.3333333333333,4,2,1,69,0,1
176368,-83.3333333333333,4,2,1,69,0,0
176473,-83.3333333333333,4,2,1,69,0,1
176576,-83.3333333333333,4,2,1,69,0,0
176681,-83.3333333333333,4,2,1,69,0,1
176785,-83.3333333333333,4,2,1,69,0,0
176890,-83.3333333333333,4,2,1,69,0,1
176993,-83.3333333333333,4,2,1,69,0,0
177097,-83.3333333333333,4,2,2,69,0,0

[Colours]
Combo1 : 128,128,128
Combo2 : 192,192,192

[HitObjects]
385,45,431,6,0,L|395:164,1,120,8|8,1:2|1:2,0:0:0:0:
400,213,1056,1,8,1:2:0:0:
406,261,1264,2,0,L|279:217,1,120,8|8,1:2|1:2,0:0:0:0:
246,203,1889,1,8,1:2:0:0:
202,181,2097,2,0,P|143:196|87:215,1,120,8|8,1:2|1:2,0:0:0:0:
62,257,2722,1,8,1:2:0:0:
50,305,2931,5,0,3:2:0:0:
213,162,3764,6,0,B|209:112|209:112|189:92|189:92|185:38,2,132.00000402832,6|10|2,3:2|1:2|3:2,0:0:0:0:
223,215,4806,1,2,1:2:0:0:
256,254,5014,2,0,L|329:268,1,62.9999980773926,10|2,1:2|0:0,0:0:0:0:
368,278,5431,2,0,L|390:358,2,62.9999980773926,2|2|10,3:2|1:2|1:2,0:0:0:0:
393,232,6056,1,2,0:0:0:0:
418,187,6264,1,2,3:2:0:0:
372,94,6681,5,10,1:2:0:0:
290,157,7097,2,0,L|225:176,1,62.9999980773926,2|2,3:2|1:2,0:0:0:0:
181,193,7514,1,10,1:2:0:0:
123,279,7931,2,0,L|188:298,1,62.9999980773926,2|2,3:2|1:2,0:0:0:0:
231,315,8348,1,10,1:2:0:0:
328,348,8764,5,2,3:2:0:0:
402,275,9181,1,10,1:2:0:0:
306,234,9597,2,0,P|306:172|343:122,1,125.999996154785,2|10,3:2|1:2,0:0:0:0:
444,160,10431,6,0,P|443:224|405:276,2,132.00000402832,6|10|2,3:2|1:2|3:2,0:0:0:0:
343,122,11681,2,0,L|262:134,1,62.9999980773926,10|2,1:2|0:0,0:0:0:0:
230,143,12097,1,2,3:2:0:0:
179,155,12306,1,2,3:2:0:0:
128,162,12514,2,0,P|93:135|78:108,1,62.9999980773926,10|2,1:2|0:0,0:0:0:0:
77,68,12931,1,2,3:2:0:0:
179,55,13347,1,10,1:2:0:0:
282,46,13764,6,0,B|301:39|322:38|322:38|343:43|364:58|364:58|374:78|391:97,1,125.999996154785,2|10,3:2|1:2,0:0:0:0:
433,108,14389,1,2,0:0:0:0:
454,154,14597,1,2,3:2:0:0:
396,239,15014,1,10,1:2:0:0:
298,205,15431,5,2,3:2:0:0:
233,285,15847,2,0,P|272:318|297:330,1,62.9999980773926,10|2,1:2|0:0,0:0:0:0:
332,334,16264,2,0,P|363:330|393:323,1,62.9999980773926,2|2,3:2|3:2,0:0:0:0:
420,278,16681,1,2,1:2:0:0:
498,344,17097,5,6,3:2:0:0:
511,246,17514,1,10,1:2:0:0:
465,158,17931,1,2,3:2:0:0:
498,65,18347,1,10,1:2:0:0:
365,131,18972,2,0,L|376:197,1,60,2|10,0:0|1:2,0:0:0:0:
445,259,19597,1,2,3:2:0:0:
419,353,20014,1,10,1:2:0:0:
341,291,20431,6,0,P|290:278|261:277,1,60,2|2,3:2|0:0,0:0:0:0:
235,288,20847,1,10,1:2:0:0:
194,316,21056,1,2,0:0:0:0:
172,360,21264,1,2,3:2:0:0:
91,303,21681,1,10,1:2:0:0:
140,218,22097,1,2,3:2:0:0:
223,166,22514,1,10,1:2:0:0:
233,68,22931,2,0,P|208:38|181:23,2,60,2|2|10,3:2|0:0|1:2,0:0:0:0:
145,113,23764,6,0,B|106:106|76:80|76:80|52:96|46:119,1,120,6|10,3:2|1:2,0:0:0:0:
54,160,24389,1,2,0:0:0:0:
62,208,24597,2,0,L|70:289,1,60,2|2,3:2|0:0,0:0:0:0:
72,316,25014,2,0,L|6:324,1,60,10|2,1:2|0:0,0:0:0:0:
30,176,25847,6,0,P|60:169|91:174,1,60,10|2,1:2|0:0,0:0:0:0:
132,196,26264,2,0,P|170:168|184:137,1,60,2|2,3:2|0:0,0:0:0:0:
194,111,26681,2,0,P|178:61|148:48,1,60,10|2,1:2|0:0,0:0:0:0:
125,47,27097,1,2,3:2:0:0:
31,78,27514,1,10,1:2:0:0:
25,176,27931,1,2,3:2:0:0:
106,231,28347,1,10,1:2:0:0:
102,329,28764,1,2,3:2:0:0:
3,319,29181,2,0,P|8:268|15:239,1,60,10|2,1:2|0:0,0:0:0:0:
17,210,29597,1,2,3:2:0:0:
62,230,29806,1,2,3:0:0:0:
108,246,30014,1,10,1:2:0:0:
201,278,30431,6,0,B|256:298|300:267|282:251|322:223|369:243,1,180,4|2,3:2|0:0,0:0:0:0:
411,262,31264,2,0,P|401:216|399:184,1,60,2|2,3:2|0:0,0:0:0:0:
401,153,31681,2,0,P|411:107|423:77,1,60,10|2,1:2|0:0,0:0:0:0:
482,22,32306,6,0,P|427:-2|369:7,1,120,2|2,0:0|0:0,0:0:0:0:
321,17,32931,2,0,P|296:71|306:129,1,120,2|10,3:2|1:2,0:0:0:0:
366,207,33764,5,0,3:2:0:0:
412,192,33972,1,2,0:0:0:0:
459,179,34181,2,0,L|442:313,1,120,10|2,1:2|3:2,0:0:0:0:
439,347,34806,1,2,0:0:0:0:
392,361,35014,2,0,P|362:356|332:356,1,60,10|2,1:2|0:0,0:0:0:0:
307,261,35639,2,0,P|251:261|238:315,2,120,2|2|2,0:0|0:0|0:0,0:0:0:0:
356,262,36681,2,0,P|397:247|422:221,1,60,10|2,1:2|3:2,0:0:0:0:
430,192,37097,5,4,3:2:0:0:
433,142,37306,2,0,L|420:63,2,60,2|8|2,0:0|1:2|0:0,0:0:0:0:
473,170,37931,1,2,3:2:0:0:
502,263,38347,2,0,L|491:330,1,60,10|2,1:2|0:0,0:0:0:0:
398,352,38972,5,2,0:0:0:0:
353,330,39181,2,0,L|297:305,1,60,10|2,1:2|0:0,0:0:0:0:
286,257,39597,2,0,L|286:182,1,60,2|2,3:2|0:0,0:0:0:0:
309,153,40014,2,0,L|375:112,1,60,10|2,1:2|0:0,0:0:0:0:
401,94,40431,1,2,3:2:0:0:
469,164,40847,1,10,1:2:0:0:
213,86,43764,6,0,L|206:26,2,60,4|2|10,3:2|0:0|1:2,0:0:0:0:
220,134,44389,1,2,0:0:0:0:
223,182,44597,2,0,L|208:249,1,60,2|2,3:2|0:0,0:0:0:0:
199,288,45014,1,10,1:2:0:0:
189,336,45222,1,2,0:0:0:0:
91,321,45639,6,0,B|83:277|102:235|102:235|101:213|93:197,1,120,2|2,0:0|0:0,0:0:0:0:
93,154,46264,2,0,P|101:112|113:94,1,60,2|2,3:2|0:0,0:0:0:0:
155,78,46681,2,0,L|235:90,1,60,10|2,1:2|0:0,0:0:0:0:
310,109,47306,5,2,0:0:0:0:
291,154,47514,1,10,1:2:0:0:
274,200,47722,2,0,L|283:280,2,60,2|2|2,0:0|3:2|0:0,0:0:0:0:
234,170,48347,1,10,1:2:0:0:
194,199,48556,1,2,0:0:0:0:
182,296,48972,5,2,0:0:0:0:
134,283,49181,2,0,L|83:234,1,60,10|2,1:2|0:0,0:0:0:0:
103,193,49597,2,0,L|115:124,2,60,2|10|10,3:2|1:2|1:2,0:0:0:0:
220,282,50639,5,2,0:0:0:0:
263,260,50847,2,0,P|272:231|276:201,1,60,10|2,1:2|0:0,0:0:0:0:
266,153,51264,2,0,P|256:124|252:95,1,60,2|2,3:2|0:0,0:0:0:0:
273,50,51681,1,10,1:2:0:0:
318,30,51889,1,2,0:0:0:0:
221,11,52306,6,0,P|192:4|161:1,2,60,2|10|2,0:0|1:2|0:0,0:0:0:0:
234,58,52931,2,0,P|214:108|207:137,1,60,2|2,3:2|0:0,0:0:0:0:
213,162,53347,2,0,L|223:238,1,60,10|2,1:2|0:0,0:0:0:0:
230,269,53764,2,0,B|284:290|284:290|289:306|289:306|339:325,1,120,2|10,3:2|1:2,0:0:0:0:
159,309,55639,6,0,L|151:368,2,60,2|10|2,0:0|1:2|0:0,0:0:0:0:
182,266,56264,2,0,L|169:182,1,60,2|10,3:2|1:2,0:0:0:0:
166,158,56681,1,2,3:2:0:0:
160,110,56889,1,2,3:2:0:0:
149,62,57097,6,0,P|121:37|92:31,2,60,6|2|2,3:2|0:2|3:2,0:0:0:0:
243,91,57931,2,0,L|256:152,2,60,2|2|10,3:2|0:2|1:2,0:0:0:0:
149,62,58764,2,0,P|121:87|92:93,2,60,2|2|2,3:2|0:2|3:2,0:0:0:0:
243,91,59597,1,2,3:2:0:0:
393,218,60431,6,0,L|468:199,2,60,2|2|2,3:2|0:2|3:2,0:0:0:0:
296,239,61264,2,0,L|217:253,2,60,2|2|10,3:2|0:2|1:2,0:0:0:0:
366,307,62097,2,0,L|419:358,2,60,2|2|0,3:2|0:2|3:2,0:0:0:0:
367,257,62722,2,0,L|382:188,1,60,2|2,0:0|3:2,0:0:0:0:
389,150,63139,1,2,1:2:0:0:
437,144,63347,1,10,1:2:0:0:
396,54,63764,6,0,P|367:43|337:42,2,60,6|2|2,3:2|0:0|3:2,0:0:0:0:
343,137,64597,2,0,P|296:135|266:127,1,60,2|2,3:2|0:0,0:0:0:0:
234,124,65014,1,10,1:2:0:0:
184,38,65431,2,0,P|204:16|232:4,2,60,2|2|2,3:2|0:0|3:2,0:0:0:0:
142,65,66056,1,2,0:0:0:0:
114,105,66264,2,0,P|121:135|125:164,1,60,2|2,3:2|0:0,0:0:0:0:
125,214,66681,1,10,1:2:0:0:
135,311,67097,6,0,L|260:294,1,120,2|2,3:2|3:2,0:0:0:0:
300,311,67722,1,10,1:2:0:0:
346,326,67931,2,0,L|319:197,1,120,2|2,3:2|3:2,0:0:0:0:
336,161,68556,1,10,1:2:0:0:
356,116,68764,5,2,3:2:0:0:
466,214,69389,1,10,1:2:0:0:
505,123,69806,1,10,1:2:0:0:
471,30,70222,1,2,3:2:0:0:
422,18,70431,6,0,B|329:1|329:1|279:15,1,138.000002632141,6|10,3:2|1:2,0:0:0:0:
192,65,71264,2,0,P|159:68|128:58,1,66.0000020141602,2|2,3:2|1:2,0:0:0:0:
85,24,71681,1,10,1:2:0:0:
33,41,71889,1,2,0:0:0:0:
24,94,72097,2,0,L|35:164,1,66.0000020141602,2|2,3:2|1:2,0:0:0:0:
63,204,72514,2,0,L|28:279,1,66.0000020141602,10|2,1:2|0:0,0:0:0:0:
59,312,72931,2,0,L|210:291,1,132.00000402832,2|10,3:2|1:2,0:0:0:0:
287,340,73764,6,0,B|322:325|322:325|413:347,1,132.00000402832,2|10,3:2|1:2,0:0:0:0:
462,323,74389,1,2,0:0:0:0:
496,281,74597,2,0,P|508:234|508:200,1,66.0000020141602,2|2,3:2|1:2,0:0:0:0:
500,163,75014,2,0,P|486:132|469:104,1,66.0000020141602,10|2,1:2|0:0,0:0:0:0:
417,87,75431,1,2,3:2:0:0:
377,187,75847,1,10,1:2:0:0:
279,138,76264,2,0,L|207:148,1,66.0000020141602,2|2,3:2|1:2,0:0:0:0:
160,156,76681,1,10,1:2:0:0:
116,123,76889,1,10,1:2:0:0:
118,66,77097,6,0,B|131:37|158:27|158:27|239:38,1,138.000002632141,6|10,3:2|1:2,0:0:0:0:
346,45,77931,2,0,B|399:32|399:32|407:24,1,66.0000020141602,2|0,3:2|1:2,0:0:0:0:
461,25,78347,2,0,P|485:65|500:98,1,66.0000020141602,10|2,1:2|0:0,0:0:0:0:
485,136,78764,1,2,3:2:0:0:
489,189,78972,1,2,1:2:0:0:
479,242,79181,2,0,P|449:297|439:307,1,66.0000020141602,10|2,1:2|0:0,0:0:0:0:
401,327,79597,2,0,B|352:307|352:307|261:330,1,132.00000402832,2|10,3:2|1:2,0:0:0:0:
170,354,80431,6,0,L|145:287,1,66.0000020141602,2|2,3:2|1:2,0:0:0:0:
162,240,80847,1,10,1:2:0:0:
131,136,81264,1,2,3:2:0:0:
212,64,81681,1,10,1:2:0:0:
261,160,82097,2,0,P|303:177|346:185,1,66.0000020141602,2|2,3:2|1:2,0:0:0:0:
327,235,82514,2,0,P|367:279|381:303,1,66.0000020141602,10|2,1:2|3:2,0:0:0:0:
411,319,82931,1,2,3:2:0:0:
462,304,83139,2,0,P|487:262|504:246,1,66.0000020141602,2|10,3:2|1:2,0:0:0:0:
471,144,83764,6,0,L|400:161,1,66.0000020141602,6|0,3:2|1:2,0:0:0:0:
354,174,84181,2,0,L|283:191,1,66.0000020141602,10|0,1:2|1:2,0:0:0:0:
237,205,84597,2,0,L|166:222,1,66.0000020141602,2|0,3:2|1:2,0:0:0:0:
123,244,85014,2,0,P|96:203|87:177,1,66.0000020141602,10|2,1:2|1:2,0:0:0:0:
90,133,85431,5,2,3:2:0:0:
196,120,85847,2,0,P|209:58|160:17,1,132.00000402832,10|2,1:2|3:2,0:0:0:0:
106,24,86472,1,2,1:2:0:0:
52,30,86681,2,0,B|24:47|24:47|17:79,1,66.0000020141602,10|0,1:2|0:0,0:0:0:0:
33,131,87097,2,0,P|60:201|67:281,1,132.00000402832,2|10,3:2|1:2,0:0:0:0:
90,363,87931,2,0,P|137:304|202:258,1,132.00000402832,2|10,3:2|1:2,0:0:0:0:
263,198,88764,2,0,P|188:186|116:152,2,132.00000402832,2|10|10,3:2|1:2|1:2,0:0:0:0:
316,191,89806,1,8,1:2:0:0:
369,181,90014,1,10,1:2:0:0:
346,75,90431,6,0,P|313:77|280:84,1,66.0000020141602,6|0,3:2|1:2,0:0:0:0:
231,106,90847,2,0,P|232:62|228:26,1,66.0000020141602,10|0,1:2|1:2,0:0:0:0:
180,17,91264,2,0,P|146:11|107:11,1,66.0000020141602,2|0,3:2|1:2,0:0:0:0:
66,35,91681,1,10,1:2:0:0:
46,85,91889,1,2,1:2:0:0:
53,138,92097,1,2,3:2:0:0:
105,232,92514,6,0,L|236:219,1,132.00000402832,10|2,1:2|3:2,0:0:0:0:
281,249,93139,1,2,1:2:0:0:
325,280,93347,2,0,L|419:271,1,66.0000020141602,10|2,1:2|0:0,0:0:0:0:
444,268,93764,2,0,P|436:235|468:123,2,132.00000402832,2|10|2,3:2|1:2|3:2,0:0:0:0:
472,314,94806,1,2,1:2:0:0:
498,360,95014,2,0,P|432:352|366:350,1,132.00000402832,10|2,1:2|3:2,0:0:0:0:
258,354,95847,1,10,1:2:0:0:
153,333,96264,5,2,3:2:0:0:
162,279,96472,1,10,1:2:0:0:
171,225,96681,1,10,1:2:0:0:
180,171,96889,1,10,1:2:0:0:
189,117,97097,5,6,3:2:0:0:
202,19,97514,1,14,1:2:0:0:
299,28,97931,2,0,L|366:35,2,60,2|2|10,3:2|0:0|1:2,0:0:0:0:
317,124,98764,5,2,3:2:0:0:
346,217,99181,1,10,1:2:0:0:
375,310,99597,2,0,L|392:372,2,60,2|2|10,3:2|0:0|1:2,0:0:0:0:
293,365,100431,6,0,L|173:350,1,120,6|10,3:2|1:2,0:0:0:0:
76,337,101264,2,0,L|91:217,1,120,2|10,3:2|1:2,0:0:0:0:
104,120,102097,2,0,L|224:135,1,120,0|8,3:2|1:2,0:0:0:0:
327,168,102931,1,2,3:2:0:0:
327,168,103139,1,10,1:2:0:0:
327,168,103347,2,0,P|286:164|268:184,1,60,10|2,1:2|0:0,0:0:0:0:
259,221,103764,5,6,3:2:0:0:
274,318,104181,1,10,1:2:0:0:
371,308,104597,2,0,L|381:373,2,60,2|2|10,3:2|0:0|1:2,0:0:0:0:
447,246,105431,5,2,3:2:0:0:
460,148,105847,1,10,1:2:0:0:
473,50,106264,2,0,L|509:2,2,60,2|2|10,3:2|0:0|1:2,0:0:0:0:
382,89,107097,6,0,P|325:78|279:35,1,120,6|10,3:2|1:2,0:0:0:0:
186,67,107931,2,0,P|175:124|132:170,1,120,2|10,3:2|1:2,0:0:0:0:
164,263,108764,2,0,P|221:274|267:317,1,120,2|10,3:2|1:2,0:0:0:0:
360,285,109597,2,0,P|364:247|382:212,1,60,2|0,3:2|3:2,0:0:0:0:
404,189,110014,1,8,1:2:0:0:
449,170,110222,1,0,0:0:0:0:
495,187,110431,6,0,B|468:88|468:88|474:72,1,120,6|14,3:2|1:2,0:0:0:0:
388,23,111264,2,0,L|268:30,1,120,2|10,3:2|1:2,0:0:0:0:
180,74,112097,2,0,L|112:56,1,60,2|2,3:2|0:0,0:0:0:0:
74,45,112514,1,10,1:2:0:0:
40,81,112722,1,2,0:0:0:0:
72,174,113139,6,0,P|77:203|79:233,1,60,2|10,0:0|1:2,0:0:0:0:
78,282,113556,1,2,0:0:0:0:
67,329,113764,2,0,B|102:318|131:327|125:336|154:348|183:341,1,120,6|10,3:2|1:2,0:0:0:0:
264,260,114597,1,2,3:2:0:0:
327,353,115014,6,0,L|405:345,1,60,10|2,1:2|0:0,0:0:0:0:
435,342,115431,1,2,3:2:0:0:
463,301,115639,2,0,B|483:217|483:217|461:163,1,120,2|2,0:0|0:0,0:0:0:0:
443,144,116264,1,2,3:2:0:0:
416,102,116472,1,8,1:2:0:0:
441,59,116681,1,8,1:2:0:0:
354,12,117097,6,2,B|252:-18|201:73|228:91|156:192|50:136,1,360,2|2,3:2|3:2,0:1:0:0:
111,57,118764,2,2,B|157:123|157:123|113:281,2,240,2|0|2,0:0|0:0|0:0,0:1:0:0:
53,137,120847,1,2,3:2:0:0:
66,234,121264,2,2,B|196:224|196:224|216:277,1,180,2|2,0:0|3:2,0:1:0:0:
496,63,123764,6,0,P|499:33|505:3,2,60,6|2|2,3:2|0:0|3:2,0:0:0:0:
437,142,124597,1,2,3:2:0:0:
437,240,125014,1,10,1:2:0:0:
495,319,125431,2,0,P|498:348|504:378,2,60,2|2|2,3:2|0:0|3:2,0:0:0:0:
437,240,126264,1,2,3:2:0:0:
437,142,126681,1,8,1:2:0:0:
496,63,127097,6,0,P|499:33|505:3,2,60,2|2|2,3:2|0:0|3:2,0:0:0:0:
437,142,127930,1,2,3:2:0:0:
437,240,128347,1,10,1:2:0:0:
495,319,128764,2,0,P|498:348|504:378,2,60,2|2|0,3:2|0:0|3:2,0:0:0:0:
437,240,129597,1,2,3:2:0:0:
437,142,130014,1,10,1:2:0:0:
496,63,130431,6,0,P|444:38|388:56,1,120,6|2,3:2|3:2,0:0:0:0:
340,142,131264,2,0,P|284:160|231:134,1,120,2|10,3:2|1:2,0:0:0:0:
189,45,132097,2,0,P|164:26|120:20,1,60,2|2,3:2|0:0,0:0:0:0:
88,29,132514,1,2,3:2:0:0:
62,70,132722,2,0,L|72:189,1,120,2|2,0:0|0:0,0:0:0:0:
78,238,133347,1,10,1:2:0:0:
150,303,133764,6,0,P|208:292|268:290,1,120,2|2,3:2|3:2,0:0:0:0:
315,307,134389,1,10,1:2:0:0:
355,334,134597,2,0,P|412:323|442:274,1,120,2|2,3:2|1:2,0:0:0:0:
437,225,135222,1,10,1:2:0:0:
397,195,135431,2,0,P|382:155|388:130,1,60,10|10,1:2|1:2,0:0:0:0:
414,99,135847,2,0,P|414:58|395:40,1,60,10|10,1:2|1:2,0:0:0:0:
353,41,136264,1,2,3:2:0:0:
163,181,137097,6,0,B|150:72|150:72|172:46,2,143.999995605469,6|10|2,3:2|1:2|3:2,0:0:0:0:
179,237,138139,1,2,1:2:0:0:
190,294,138347,2,0,L|115:278,1,71.9999978027344,10|2,1:2|0:0,0:0:0:0:
67,306,138764,1,2,3:2:0:0:
17,273,138972,1,2,1:2:0:0:
24,214,139181,1,10,1:2:0:0:
78,190,139389,1,2,0:0:0:0:
108,139,139597,2,0,P|99:70|38:36,1,143.999995605469,2|10,3:2|1:2,0:0:0:0:
152,67,140431,6,0,P|187:74|226:79,1,71.9999978027344,2|2,3:2|1:2,0:0:0:0:
273,108,140847,2,0,P|308:100|347:96,1,71.9999978027344,10|2,1:2|0:0,0:0:0:0:
399,76,141264,1,2,3:2:0:0:
448,44,141472,1,2,1:2:0:0:
497,11,141681,2,0,L|481:103,1,71.9999978027344,10|2,1:2|0:0,0:0:0:0:
489,140,142097,5,2,3:2:0:0:
455,189,142306,1,2,1:2:0:0:
449,247,142514,2,0,P|465:294|483:321,1,71.9999978027344,10|2,1:2|0:0,0:0:0:0:
509,362,142931,2,0,B|462:350|462:350|422:364,1,71.9999978027344,2|2,3:2|1:2,0:0:0:0:
389,379,143347,1,10,1:2:0:0:
282,305,143764,6,0,B|241:288|210:304|215:311|178:327|143:318,1,143.999995605469,6|10,3:2|1:2,0:0:0:0:
99,276,144389,1,0,0:0:0:0:
83,219,144597,2,0,B|101:155|101:155|120:152|120:152|141:78,1,143.999995605469,2|10,3:2|1:2,0:0:0:0:
158,41,145222,1,2,0:0:0:0:
212,17,145431,2,0,P|262:10|296:12,1,71.9999978027344,2|2,3:2|1:2,0:0:0:0:
332,42,145847,1,10,1:2:0:0:
339,100,146056,1,2,0:0:0:0:
384,137,146264,1,2,3:2:0:0:
450,39,146681,1,10,1:2:0:0:
332,42,147097,6,0,P|275:63|253:79,1,71.9999978027344,2|2,3:2|1:2,0:0:0:0:
228,115,147514,2,0,L|135:95,1,71.9999978027344,10|2,1:2|0:0,0:0:0:0:
101,120,147931,2,0,P|86:169|96:209,1,71.9999978027344,2|2,3:2|1:2,0:0:0:0:
56,239,148347,1,10,1:2:0:0:
152,311,148764,2,0,P|192:300|242:293,1,71.9999978027344,2|2,3:2|1:2,0:0:0:0:
279,310,149181,1,10,1:2:0:0:
335,327,149389,1,2,0:0:0:0:
390,307,149597,2,0,P|411:268|446:244,1,71.9999978027344,2|2,3:2|3:2,0:0:0:0:
490,240,150014,1,2,3:2:0:0:
456,126,150431,6,0,L|379:142,1,71.9999978027344,6|0,3:2|1:2,0:0:0:0:
327,153,150847,2,0,L|250:169,1,71.9999978027344,10|0,1:2|1:2,0:0:0:0:
198,181,151264,2,0,L|121:197,1,71.9999978027344,2|0,3:2|1:2,0:0:0:0:
98,247,151681,2,0,L|10:210,1,71.9999978027344,10|2,1:2|1:2,0:0:0:0:
3,167,152097,1,2,3:2:0:0:
65,66,152514,6,0,B|108:25|108:25|214:46,1,143.999995605469,10|2,1:2|3:2,0:0:0:0:
247,58,153139,1,2,1:2:0:0:
305,60,153347,2,0,P|361:48|390:31,2,71.9999978027344,10|2|2,1:2|0:0|3:2,0:0:0:0:
232,153,154181,6,0,P|256:220|275:290,1,143.999995605469,10|2,1:2|3:2,0:0:0:0:
280,349,154806,1,2,1:2:0:0:
331,378,155014,2,0,P|396:375|421:363,1,71.9999978027344,10|2,1:2|0:0,0:0:0:0:
451,340,155431,1,2,3:2:0:0:
418,226,155847,1,10,1:2:0:0:
508,149,156264,2,0,P|493:116|454:92,1,71.9999978027344,10|8,1:2|1:2,0:0:0:0:
419,133,156681,1,10,1:2:0:0:
361,236,157097,6,0,P|325:238|289:245,1,71.9999978027344,6|0,3:2|1:2,0:0:0:0:
240,278,157514,2,0,P|254:225|256:185,1,71.9999978027344,10|0,1:2|1:2,0:0:0:0:
245,149,157931,2,0,P|209:151|173:158,1,71.9999978027344,2|0,3:2|1:2,0:0:0:0:
124,191,158348,2,0,P|138:138|140:98,1,71.9999978027344,10|2,1:2|1:2,0:0:0:0:
116,66,158764,1,2,3:2:0:0:
30,147,159181,6,0,B|8:185|8:185|30:282,1,143.999995605469,10|2,1:2|3:2,0:0:0:0:
55,336,159806,1,2,1:2:0:0:
105,364,160014,2,0,P|175:353|247:352,1,143.999995605469,10|2,1:2|3:2,0:0:0:0:
365,357,160847,2,0,P|374:323|393:292,1,71.9999978027344,10|0,1:2|0:0,0:0:0:0:
351,250,161264,2,0,P|341:215|322:184,1,71.9999978027344,2|2,3:2|1:2,0:0:0:0:
273,151,161681,2,0,P|238:160|207:179,1,71.9999978027344,10|2,1:2|0:0,0:0:0:0:
182,232,162097,1,2,3:2:0:0:
172,290,162306,1,10,1:2:0:0:
170,348,162514,6,0,L|94:335,1,71.9999978027344,10|2,1:2|0:0,0:0:0:0:
42,317,162931,2,0,B|22:267|22:267|125:144|90:251|182:197,1,215.999993408203,2|8,3:2|1:2,0:0:0:0:
208,178,163764,6,0,P|217:137|179:40,2,143.999995605469,6|10|2,3:2|1:2|3:2,0:0:0:0:
185,232,164806,1,0,1:2:0:0:
194,290,165014,2,0,P|238:320|281:317,1,71.9999978027344,10|2,1:2|1:2,0:0:0:0:
309,297,165431,1,2,3:2:0:0:
413,350,165847,6,0,P|426:279|450:211,1,143.999995605469,10|2,1:2|3:2,0:0:0:0:
489,167,166472,1,2,1:2:0:0:
476,109,166681,1,10,1:2:0:0:
380,31,167097,6,0,P|344:33|315:54,1,71.9999978027344,2|0,3:2|1:2,0:0:0:0:
290,108,167514,2,0,P|292:143|313:172,1,71.9999978027344,10|0,1:2|0:0,0:0:0:0:
367,198,167931,2,0,P|402:195|431:174,1,71.9999978027344,2|2,3:2|1:2,0:0:0:0:
457,121,168347,2,0,P|454:85|433:56,1,71.9999978027344,10|2,1:2|0:0,0:0:0:0:
380,31,168764,6,0,P|344:33|315:54,1,71.9999978027344,2|2,3:2|1:2,0:0:0:0:
290,108,169181,2,0,P|292:143|313:172,1,71.9999978027344,10|2,1:2|0:0,0:0:0:0:
367,198,169598,2,0,P|402:195|431:174,1,71.9999978027344,10|8,1:2|1:2,0:0:0:0:
457,121,170014,2,0,P|454:85|433:56,1,71.9999978027344,10|10,1:2|1:2,0:0:0:0:
380,31,170431,5,6,3:2:0:0:
262,25,170847,1,10,1:2:0:0:
143,20,171264,1,2,3:2:0:0:
48,91,171681,2,0,L|65:178,1,71.9999978027344,10|2,1:2|1:2,0:0:0:0:
77,218,172097,6,0,B|121:207|121:207|210:278,2,143.999995605469,2|10|2,3:2|1:2|3:2,0:0:0:0:
42,265,173139,1,2,1:2:0:0:
56,322,173347,2,0,L|118:369,1,71.9999978027344,10|2,1:2|0:0,0:0:0:0:
171,378,173764,5,2,3:2:0:0:
285,325,174181,2,0,L|451:357,1,143.999995605469,10|2,1:2|3:2,0:0:0:0:
463,305,174806,1,2,1:2:0:0:
442,249,175014,1,10,1:2:0:0:
490,135,175431,5,2,3:2:0:0:
480,76,175639,2,0,P|439:52|391:48,1,71.9999978027344,2|10,1:2|1:2,0:0:0:0:
359,66,176056,1,2,3:2:0:0:
303,85,176264,2,0,L|221:113,1,71.9999978027344,2|2,3:2|3:2,0:0:0:0:
179,130,176681,2,0,L|97:158,1,71.9999978027344,10|2,1:2|0:2,0:0:0:0:
64,192,177097,5,6,3:2:0:0:
256,368,178764,1,2,3:2:0:0:
448,192,179597,1,2,3:2:0:0:
256,16,180431,1,2,3:2:0:0:
64,192,182097,1,2,3:2:0:0:
256,368,182931,1,2,3:2:0:0:
448,192,183764,1,6,3:2:0:0:
256,16,185431,1,2,3:2:0:0:
64,192,186264,1,2,3:2:0:0:
256,368,187097,1,2,3:0:0:0:
448,192,188764,1,2,0:0:0:0:
256,16,189597,1,2,0:0:0:0:
