osu file format v14

[General]
AudioFilename: audio.mp3
AudioLeadIn: 0
PreviewTime: 2931
Countdown: 0
SampleSet: Soft
StackLeniency: 0.3
Mode: 0
LetterboxInBreaks: 0
WidescreenStoryboard: 1

[Editor]
Bookmarks: 431,3764,17097,30431,43764,57097,67097,70431,97097,110431,117097,123764,133764,137097,177097
DistanceSpacing: 0.6
BeatDivisor: 4
GridSize: 16
TimelineZoom: 2.5

[Metadata]
Title:Rainy Boots
TitleUnicode:レイニーブーツ
Artist:Will Stetson
ArtistUnicode:Will Stetson
Creator:- Clubber -
Version:Insane
Source:
Tags:inabakumori Sayri Dictate cover 稲葉曇 ぬくぬくにぎりめし nukunukunigirimeshi アンチサイクロン anticyclone English Rock Pop inaba cumori Shii ShiiTsuin Pop Rock
BeatmapID:3183925
BeatmapSetID:1557729

[Difficulty]
HPDrainRate:5.5
CircleSize:2.9
OverallDifficulty:8
ApproachRate:9
SliderMultiplier:2.2
SliderTickRate:1

[Events]
//Background and Video events
0,0,"bg.jpg",0,0
Video,0,"william my beloved.mp4"
//Break Periods
//Storyboard Layer 0 (Background)
//Storyboard Layer 1 (Fail)
//Storyboard Layer 2 (Pass)
//Storyboard Layer 3 (Foreground)
//Storyboard Layer 4 (Overlay)
//Storyboard Sound Samples

[TimingPoints]
431,416.666666666667,4,2,1,69,1,0
3764,-71.4285714285714,4,2,1,69,0,0
4597,-83.3333333333333,4,2,1,69,0,0
10431,-71.4285714285714,4,2,1,69,0,0
11264,-83.3333333333333,4,2,1,69,0,0
17097,-83.3333333333333,4,2,3,69,0,0
17514,-105.263157894737,4,2,3,69,0,0
20431,-105.263157894737,4,2,1,69,0,0
23764,-105.263157894737,4,2,3,69,0,0
27097,-105.263157894737,4,2,1,69,0,0
30431,-95.2380952380952,4,2,1,69,0,0
57097,-117.647058823529,4,2,1,69,0,0
69389,-100,4,2,1,69,0,0
70431,-66.6666666666667,4,2,1,69,0,0
71264,-80,4,2,1,69,0,0
77097,-66.6666666666667,4,2,1,69,0,0
77930,-80,4,2,1,69,0,0
97097,-100,4,2,3,69,0,0
100431,-100,4,2,1,69,0,0
103764,-100,4,2,3,69,0,0
107097,-100,4,2,1,69,0,0
110431,-105.263157894737,4,2,1,69,0,0
116681,-133.333333333333,4,2,1,69,0,0
117097,-200,4,2,1,69,0,0
123764,-105.263157894737,4,2,1,69,0,0
137097,-62.5,4,2,1,69,0,1
137931,-76.9230769230769,4,2,1,69,0,1
143764,-62.5,4,2,1,69,0,1
145014,-71.4285714285714,4,2,1,69,0,1
147306,-76.9230769230769,4,2,1,69,0,1
150326,-76.9230769230769,4,2,1,69,0,0
150430,-76.9230769230769,4,2,1,69,0,1
150743,-76.9230769230769,4,2,1,69,0,0
150847,-76.9230769230769,4,2,1,69,0,1
151160,-76.9230769230769,4,2,1,69,0,0
151264,-76.9230769230769,4,2,1,69,0,1
151576,-76.9230769230769,4,2,1,69,0,0
151680,-76.9230769230769,4,2,1,69,0,1
156993,-76.9230769230769,4,2,1,69,0,0
157097,-76.9230769230769,4,2,1,69,0,1
157410,-76.9230769230769,4,2,1,69,0,0
157514,-76.9230769230769,4,2,1,69,0,1
157826,-76.9230769230769,4,2,1,69,0,0
157930,-76.9230769230769,4,2,1,69,0,1
158243,-76.9230769230769,4,2,1,69,0,0
158347,-76.9230769230769,4,2,1,69,0,1
162826,-76.9230769230769,4,2,1,69,0,0
162931,-76.9230769230769,4,2,1,69,0,1
163139,-76.9230769230769,4,2,1,69,0,0
163244,-76.9230769230769,4,2,1,69,0,1
163451,-76.9230769230769,4,2,1,69,0,0
163556,-76.9230769230769,4,2,1,69,0,1
163660,-76.9230769230769,4,2,1,69,0,0
163765,-76.9230769230769,4,2,1,69,0,1
166993,-76.9230769230769,4,2,1,69,0,0
167097,-76.9230769230769,4,2,1,69,0,1
167410,-76.9230769230769,4,2,1,69,0,0
167514,-76.9230769230769,4,2,1,69,0,1
167826,-76.9230769230769,4,2,1,69,0,0
167930,-76.9230769230769,4,2,1,69,0,1
168243,-76.9230769230769,4,2,1,69,0,0
168347,-76.9230769230769,4,2,1,69,0,1
168660,-76.9230769230769,4,2,1,69,0,0
168764,-76.9230769230769,4,2,1,69,0,1
169076,-76.9230769230769,4,2,1,69,0,0
169180,-76.9230769230769,4,2,1,69,0,1
169493,-76.9230769230769,4,2,1,69,0,0
169597,-76.9230769230769,4,2,1,69,0,1
169910,-76.9230769230769,4,2,1,69,0,0
170014,-76.9230769230769,4,2,1,69,0,1
170326,-76.9230769230769,4,2,1,69,0,0
170430,-76.9230769230769,4,2,1,69,0,1
176160,-64.5161290322581,4,2,1,69,0,0
176264,-64.5161290322581,4,2,1,69,0,1
176368,-64.5161290322581,4,2,1,69,0,0
176472,-64.5161290322581,4,2,1,69,0,1
176576,-64.5161290322581,4,2,1,69,0,0
176680,-64.5161290322581,4,2,1,69,0,1
176785,-64.5161290322581,4,2,1,69,0,0
176889,-64.5161290322581,4,2,1,69,0,1
176993,-64.5161290322581,4,2,1,69,0,0
177097,-100,4,2,2,69,0,0
183764,-125,4,2,2,69,0,0

[Colours]
Combo1 : 128,128,128
Combo2 : 192,192,192

[HitObjects]
205,365,431,5,8,1:2:0:0:
205,365,535,1,0,1:2:0:0:
205,365,639,2,0,L|213:303,1,55,8|0,1:2|1:2,0:0:0:0:
286,236,847,1,8,1:2:0:0:
286,236,951,1,8,1:2:0:0:
286,236,1055,2,0,L|278:174,1,55,8|8,1:2|1:2,0:0:0:0:
405,342,1264,5,8,1:2:0:0:
405,342,1368,1,0,1:2:0:0:
405,342,1472,2,0,L|467:350,1,55,8|0,1:2|1:2,0:0:0:0:
508,248,1681,1,8,1:2:0:0:
508,248,1785,1,8,1:2:0:0:
508,248,1889,2,0,L|446:256,1,55,8|8,1:2|1:2,0:0:0:0:
381,180,2097,5,8,1:2:0:0:
367,139,2201,1,0,1:2:0:0:
370,95,2306,1,8,1:2:0:0:
394,60,2410,1,0,1:2:0:0:
441,44,2514,5,8,1:2:0:0:
406,79,2618,1,8,1:2:0:0:
356,84,2722,1,8,1:2:0:0:
309,65,2826,1,8,1:2:0:0:
309,65,2931,5,0,3:2:0:0:
178,172,3243,1,4,3:3:0:0:
178,172,3347,1,4,3:3:0:0:
214,36,3556,1,4,3:3:0:0:
59,75,3764,6,0,B|93:261|93:261|53:301,1,230.99999295044,6|0,3:2|0:0,0:0:0:0:
43,319,4181,2,0,L|195:340,1,153.999995300293,10|0,1:2|0:0,0:0:0:0:
318,384,4597,2,0,L|357:258,1,131.99999597168,2|2,3:2|1:2,0:0:0:0:
479,196,4910,1,2,0:0:0:0:
495,174,5014,2,0,L|462:45,1,131.99999597168,10|2,1:2|0:0,0:0:0:0:
385,161,5431,5,2,3:2:0:0:
465,309,5639,1,2,1:2:0:0:
465,309,5743,1,0,0:0:0:0:
465,309,5847,1,10,1:2:0:0:
319,284,6056,2,0,L|279:232,1,65.9999979858399,2|0,0:0|0:0,0:0:0:0:
303,69,6264,2,0,L|276:198,1,131.99999597168,2|0,3:2|1:2,0:0:0:0:
380,364,6681,2,0,L|183:384,1,197.99999395752,10|0,1:2|0:0,0:0:0:0:
145,373,7097,6,0,L|121:311,1,65.9999979858399,2|0,3:2|0:0,0:0:0:0:
159,185,7306,1,2,1:2:0:0:
349,273,7514,2,0,L|372:211,1,65.9999979858399,10|0,1:2|0:0,0:0:0:0:
335,85,7723,1,2,0:0:0:0:
253,297,7931,2,0,L|86:314,1,131.99999597168,2|2,3:2|1:2,0:0:0:0:
27,186,8243,1,0,0:0:0:0:
47,170,8347,2,0,L|106:287,1,131.99999597168,10|2,1:2|0:0,0:0:0:0:
187,182,8660,1,2,0:0:0:0:
208,151,8764,6,0,L|218:76,1,65.9999979858399,2|0,3:2|0:0,0:0:0:0:
347,70,8972,2,0,L|322:8,1,65.9999979858399,2|0,1:2|0:0,0:0:0:0:
427,220,9181,2,0,L|304:171,1,131.99999597168,10|2,1:2|0:0,0:0:0:0:
199,68,9493,1,2,0:0:0:0:
178,51,9597,2,0,L|48:78,1,131.99999597168,2|2,3:2|1:2,0:0:0:0:
214,166,10014,1,10,1:2:0:0:
206,205,10118,1,0,0:0:0:0:
198,244,10222,1,10,1:2:0:0:
190,283,10326,1,0,0:0:0:0:
182,322,10431,6,0,B|131:128|131:128|104:157,1,230.99999295044,6|0,3:2|0:0,0:0:0:0:
100,172,10847,2,0,B|153:189|153:189|200:76,1,153.999995300293,10|0,1:2|0:0,0:0:0:0:
296,0,11264,2,0,L|331:127,1,131.99999597168,2|0,3:2|1:2,0:0:0:0:
424,217,11576,1,2,0:0:0:0:
428,245,11681,2,0,L|321:322,1,131.99999597168,10|2,1:2|0:0,0:0:0:0:
124,233,12097,6,0,L|99:171,1,65.9999979858399,2|0,3:2|0:0,0:0:0:0:
221,291,12306,2,0,L|233:226,1,65.9999979858399,2|0,3:2|0:0,0:0:0:0:
343,163,12514,2,0,L|386:102,1,65.9999979858399,10|0,1:2|0:0,0:0:0:0:
410,99,12722,1,2,0:0:0:0:
220,90,12931,2,0,L|191:19,3,65.9999979858399,2|0|0|0,3:2|0:0|1:2|0:0,0:0:0:0:
216,8,13347,2,0,L|136:189,1,197.99999395752,10|0,1:2|0:0,0:0:0:0:
139,218,13764,6,0,L|58:189,1,65.9999979858399,2|0,3:2|0:0,0:0:0:0:
255,179,13972,1,2,1:2:0:0:
216,325,14181,2,0,L|135:354,1,65.9999979858399,10|0,1:2|0:0,0:0:0:0:
332,364,14389,1,2,0:0:0:0:
397,234,14597,2,0,L|267:210,1,131.99999597168,2|2,3:2|1:2,0:0:0:0:
411,364,15014,2,0,L|348:384,1,65.9999979858399,10|0,1:2|0:0,0:0:0:0:
140,355,15222,5,2,0:0:0:0:
111,339,15326,1,2,0:0:0:0:
82,323,15431,2,0,L|234:292,1,131.99999597168,2|2,3:2|1:2,0:0:0:0:
0,161,15847,2,0,L|120:215,1,131.99999597168,10|2,1:2|0:0,0:0:0:0:
221,197,16160,1,2,0:0:0:0:
256,187,16264,2,0,L|293:127,1,65.9999979858399,2|0,3:2|0:0,0:0:0:0:
377,284,16472,2,0,L|379:207,1,65.9999979858399,2|0,3:2|0:0,0:0:0:0:
512,351,16681,2,0,L|463:91,1,263.99999194336,2|6,1:2|3:2,0:0:0:0:
512,0,17306,5,2,0:0:0:0:
447,73,17514,2,0,L|465:175,1,104.499997209549,10|2,1:2|0:0,0:0:0:0:
422,260,17931,2,0,L|440:362,1,104.499997209549,2|2,3:2|0:0,0:0:0:0:
494,152,18347,2,0,L|512:254,1,104.499997209549,10|2,1:2|0:0,0:0:0:0:
512,0,18972,1,2,0:0:0:0:
447,73,19180,2,0,L|465:175,1,104.499997209549,10|2,1:2|0:0,0:0:0:0:
422,260,19597,2,0,L|440:362,1,104.499997209549,2|2,3:2|0:0,0:0:0:0:
494,152,20013,2,0,L|512:254,1,104.499997209549,10|2,1:2|0:0,0:0:0:0:
392,242,20326,1,0,0:0:0:0:
359,226,20431,6,0,L|256:253,1,104.499997209549,2|2,3:2|0:0,0:0:0:0:
234,384,20847,2,0,P|185:365|147:330,1,104.499997209549,10|2,1:2|0:0,0:0:0:0:
190,244,21264,2,0,P|238:225|276:190,2,104.499997209549,2|2|10,3:2|0:0|1:2,0:0:0:0:
121,104,21889,1,2,0:0:0:0:
174,235,22097,2,0,P|169:180|152:132,1,104.499997209549,2|2,3:2|0:0,0:0:0:0:
306,283,22514,2,0,P|287:330|277:403,2,104.499997209549,10|2|2,1:2|0:0|3:2,0:0:0:0:
306,283,23035,1,0,0:0:0:0:
306,283,23139,1,2,0:0:0:0:
202,325,23347,2,0,L|80:226,1,156.749995814324,10|0,1:2|0:0,0:0:0:0:
71,280,23764,6,0,L|88:176,1,104.499997209549,6|2,3:2|0:0,0:0:0:0:
22,104,24181,2,0,L|39:0,1,104.499997209549,10|2,1:2|0:0,0:0:0:0:
165,0,24597,2,0,L|147:103,1,104.499997209549,2|2,3:2|0:0,0:0:0:0:
129,201,25014,2,0,L|111:304,1,104.499997209549,10|2,1:2|0:0,0:0:0:0:
111,304,25639,1,2,0:0:0:0:
88,176,25847,2,0,L|71:280,1,104.499997209549,10|2,1:2|0:0,0:0:0:0:
22,104,26264,2,0,L|39:0,1,104.499997209549,2|2,3:2|0:0,0:0:0:0:
164,0,26680,2,0,L|146:103,1,104.499997209549,10|2,1:2|0:0,0:0:0:0:
129,201,26993,1,0,0:0:0:0:
129,201,27097,2,0,L|111:304,1,104.499997209549,2|2,3:2|0:0,0:0:0:0:
17,384,27514,2,0,P|-3:336|0:284,1,104.499997209549,10|2,1:2|0:0,0:0:0:0:
129,201,27931,2,0,P|149:153|146:101,1,104.499997209549,2|2,3:2|0:0,0:0:0:0:
20,257,28347,2,0,P|5:306|14:357,1,104.499997209549,10|2,1:2|0:0,0:0:0:0:
118,178,28764,2,0,P|126:126|112:77,1,104.499997209549,2|2,3:2|0:0,0:0:0:0:
116,313,29181,2,0,P|166:302|206:268,1,104.499997209549,10|2,1:2|0:0,0:0:0:0:
21,135,29597,1,2,3:2:0:0:
21,135,29806,1,2,3:0:0:0:
21,135,30014,2,0,L|125:125,1,104.499997209549,10|0,1:2|3:2,0:0:0:0:
352,20,30431,6,0,L|376:132,1,115.49999647522,4|2,3:2|0:0,0:0:0:0:
407,265,30847,2,0,L|477:173,1,115.49999647522,10|2,1:2|0:0,0:0:0:0:
512,330,31264,2,0,L|401:295,1,115.49999647522,2|2,3:2|0:0,0:0:0:0:
272,384,31681,2,0,L|248:270,2,115.49999647522,10|2|0,1:2|0:0|3:2,0:0:0:0:
401,295,32306,6,0,L|428:65,1,230.99999295044,2|2,0:0|0:0,0:0:0:0:
357,159,32931,2,0,L|464:202,1,115.49999647522,2|2,3:2|0:0,0:0:0:0:
512,370,33347,2,0,L|397:384,1,115.49999647522,10|2,1:2|0:0,0:0:0:0:
265,186,33764,5,0,3:2:0:0:
265,186,33972,1,2,0:0:0:0:
357,159,34181,2,0,L|275:49,1,115.49999647522,10|0,1:2|0:0,0:0:0:0:
300,40,34493,1,2,0:0:0:0:
310,13,34597,2,0,L|440:29,1,115.49999647522,2|2,3:2|0:0,0:0:0:0:
389,161,35014,2,0,L|490:215,2,115.49999647522,10|2|0,1:2|0:0|3:2,0:0:0:0:
427,332,35639,6,0,L|454:102,2,230.99999295044,2|2|2,0:0|0:0|0:0,0:0:0:0:
328,280,36681,2,0,L|311:224,1,57.7499982376099,10|0,1:2|0:0,0:0:0:0:
280,126,36889,2,0,L|336:113,1,57.7499982376099,2|0,3:2|0:0,0:0:0:0:
469,11,37097,5,4,3:2:0:0:
469,11,37306,1,2,0:0:0:0:
427,112,37514,2,0,L|457:223,1,115.49999647522,8|2,1:2|0:0,0:0:0:0:
480,237,37826,1,2,0:0:0:0:
502,254,37931,2,0,L|371:230,1,115.49999647522,2|2,3:2|0:0,0:0:0:0:
431,373,38347,2,0,L|316:384,2,115.49999647522,10|2|0,1:2|0:0|3:2,0:0:0:0:
284,285,38972,5,2,0:0:0:0:
293,262,39076,1,0,0:0:0:0:
303,239,39181,2,0,L|283:115,1,115.49999647522,10|2,1:2|0:0,0:0:0:0:
303,99,39493,1,2,0:0:0:0:
324,75,39597,2,0,L|211:134,1,115.49999647522,2|2,3:2|0:0,0:0:0:0:
490,206,40014,2,0,L|367:144,1,115.49999647522,10|2,1:2|0:0,0:0:0:0:
361,331,40431,1,2,3:2:0:0:
386,315,40535,2,0,L|508:338,1,115.49999647522,2|0,0:0|0:0,0:0:0:0:
506,364,40847,2,0,B|458:331|458:331|479:277,1,115.49999647522,10|0,1:2|0:0,0:0:0:0:
386,154,41264,5,2,3:2:0:0:
386,154,41681,1,10,1:2:0:0:
386,154,42097,1,0,3:2:0:0:
386,154,42514,1,8,1:2:0:0:
386,154,42931,1,0,3:2:0:0:
400,58,43139,2,0,L|452:84,1,57.7499982376099,8|0,1:2|0:0,0:0:0:0:
431,237,43347,2,0,L|364:252,1,57.7499982376099,8|0,1:2|0:0,0:0:0:0:
292,157,43556,1,8,1:2:0:0:
298,129,43660,1,8,0:0:0:0:
305,101,43764,5,4,3:2:0:0:
241,17,43972,1,2,0:0:0:0:
201,148,44181,1,10,1:2:0:0:
165,274,44389,2,0,L|151:217,1,57.7499982376099,2|2,0:0|0:0,0:0:0:0:
187,296,44597,2,0,L|317:318,1,115.49999647522,2|2,3:2|0:0,0:0:0:0:
314,294,44910,1,0,0:0:0:0:
324,272,45014,2,0,L|213:347,1,115.49999647522,10|2,1:2|0:0,0:0:0:0:
227,329,45639,6,0,B|206:252|228:176|228:176|223:136|223:136|240:104,1,230.99999295044,2|2,0:0|0:0,0:0:0:0:
319,212,46264,1,2,3:2:0:0:
325,60,46472,1,2,0:0:0:0:
184,170,46681,1,10,1:2:0:0:
235,80,46889,2,0,L|223:23,1,57.7499982376099,2|0,0:0|0:0,0:0:0:0:
348,67,47097,6,0,L|318:178,1,115.49999647522,0|2,3:2|0:0,0:0:0:0:
180,194,47514,2,0,L|218:302,1,115.49999647522,10|2,1:2|0:0,0:0:0:0:
341,171,47931,1,2,3:2:0:0:
309,348,48139,1,2,0:0:0:0:
157,270,48347,1,10,1:2:0:0:
202,88,48556,1,2,0:0:0:0:
191,74,48660,1,0,0:0:0:0:
180,59,48764,6,0,L|152:185,1,115.49999647522,0|2,3:2|0:0,0:0:0:0:
289,358,49181,2,0,L|265:224,1,115.49999647522,10|2,1:2|0:0,0:0:0:0:
268,244,49597,1,2,3:2:0:0:
157,270,49806,1,10,1:2:0:0:
265,130,50014,1,10,1:2:0:0:
377,173,50222,1,0,3:2:0:0:
377,173,50326,1,0,3:0:0:0:
377,173,50431,6,0,L|236:148,1,115.49999647522,4|2,3:2|0:0,0:0:0:0:
183,281,50847,2,0,L|70:309,1,115.49999647522,10|2,1:2|0:0,0:0:0:0:
173,185,51264,2,0,L|125:152,1,57.7499982376099,2|0,3:2|0:0,0:0:0:0:
172,57,51472,2,0,L|218:23,1,57.7499982376099,2|0,0:0|0:0,0:0:0:0:
373,142,51681,2,0,L|259:121,1,115.49999647522,10|2,1:2|0:0,0:0:0:0:
296,299,52097,6,0,L|283:236,3,57.7499982376099,0|0|2|0,3:2|0:0|0:0|0:0,0:0:0:0:
243,230,52514,6,0,L|186:270,1,57.7499982376099,10|0,1:2|0:0,0:0:0:0:
115,328,52722,1,2,0:0:0:0:
154,167,52931,1,2,3:2:0:0:
276,115,53139,1,2,0:0:0:0:
128,10,53347,1,10,1:2:0:0:
146,143,53556,1,2,0:0:0:0:
327,36,53764,6,0,L|291:205,1,173.24999471283,2|2,3:2|0:0,0:0:0:0:
299,229,54181,2,0,L|313:298,1,57.7499982376099,10|0,1:2|0:0,0:0:0:0:
227,12,54597,5,2,3:2:0:0:
227,12,55014,1,10,1:2:0:0:
227,12,55431,1,0,3:2:0:0:
227,12,55848,1,10,1:2:0:0:
189,25,56264,5,2,3:2:0:0:
120,140,56472,1,10,1:2:0:0:
51,255,56681,1,2,3:2:0:0:
51,255,56889,1,2,3:2:0:0:
174,222,57097,6,0,L|149:36,1,187.000003566742,6|2,3:2|3:2,0:0:0:0:
150,37,57931,2,0,L|239:64,1,93.500001783371,2|2,3:2|0:2,0:0:0:0:
81,100,58347,2,0,L|150:37,1,93.500001783371,10|0,1:2|0:0,0:0:0:0:
254,180,58764,2,0,L|165:153,1,93.500001783371,2|2,3:2|0:2,0:0:0:0:
164,153,59180,2,0,L|96:217,1,93.500001783371,2|0,3:2|0:0,0:0:0:0:
101,239,59493,1,0,0:0:0:0:
109,273,59597,2,0,L|117:159,1,93.500001783371,2|0,3:2|0:0,0:0:0:0:
239,83,60014,2,0,L|197:0,1,93.500001783371,8|0,1:2|0:0,0:0:0:0:
245,253,60431,6,0,L|335:229,2,93.500001783371,2|2|2,3:2|0:2|3:2,0:0:0:0:
396,310,61160,1,2,0:2:0:0:
420,294,61264,2,0,L|461:185,1,93.500001783371,2|2,3:2|0:2,0:0:0:0:
389,137,61681,2,0,L|452:206,1,93.500001783371,10|0,1:2|0:0,0:0:0:0:
478,202,61993,1,2,0:2:0:0:
504,194,62097,1,2,3:2:0:0:
350,228,62306,6,0,L|163:275,1,187.000003566742,2|2,0:2|0:0,0:0:0:0:
168,273,62826,1,2,0:0:0:0:
168,273,62931,1,2,3:2:0:0:
280,154,63139,1,2,1:2:0:0:
396,310,63347,1,10,1:2:0:0:
439,140,63556,1,0,0:0:0:0:
443,122,63660,1,2,0:0:0:0:
448,104,63764,6,0,B|411:36|411:36|374:32,2,93.500001783371,6|2|2,3:2|0:0|3:2,0:0:0:0:
227,10,64597,2,0,L|133:29,2,93.500001783371,2|2|10,3:2|0:0|1:2,0:0:0:0:
280,154,65431,2,0,L|249:242,1,93.500001783371,2|2,3:2|0:0,0:0:0:0:
150,365,65847,2,0,L|242:353,1,93.500001783371,2|2,3:2|0:0,0:0:0:0:
101,233,66264,2,0,L|112:140,1,93.500001783371,2|2,3:2|0:0,0:0:0:0:
0,354,66681,1,10,1:2:0:0:
344,337,67097,6,0,L|336:290,1,46.7500008916855,2|0,3:2|1:2,0:0:0:0:
168,47,67410,2,0,L|175:93,1,46.7500008916855,2|2,1:2|3:2,0:0:0:0:
223,357,67722,5,10,1:2:0:0:
216,310,67826,1,0,1:2:0:0:
209,264,67931,5,2,3:2:0:0:
223,224,68035,1,2,0:0:0:0:
256,191,68139,5,2,0:0:0:0:
289,158,68243,1,2,3:2:0:0:
302,118,68347,5,2,3:2:0:0:
295,72,68451,1,2,0:0:0:0:
289,26,68556,5,10,1:2:0:0:
233,65,68660,1,10,1:2:0:0:
230,0,68764,1,2,3:2:0:0:
230,0,69389,6,0,B|300:-17|300:-17|339:14,1,110,10|0,1:2|3:2,0:0:0:0:
305,141,69806,1,10,1:2:0:0:
282,149,69910,1,8,1:2:0:0:
265,132,70014,1,0,3:2:0:0:
328,286,70222,1,2,3:2:0:0:
69,300,70431,6,0,B|8:314|8:314|206:351,1,247.500009441376,6|0,3:2|0:0,0:0:0:0:
211,348,70847,2,0,B|204:290|204:290|152:280|152:280|117:322,1,165.000006294251,10|0,1:2|0:0,0:0:0:0:
92,191,71264,2,0,L|72:54,1,137.5,2|2,3:2|1:2,0:0:0:0:
200,148,71576,1,2,0:0:0:0:
225,170,71681,2,0,L|359:199,1,137.5,10|2,1:2|0:0,0:0:0:0:
457,45,72097,6,0,L|322:73,1,137.5,2|2,3:2|1:2,0:0:0:0:
503,272,72514,2,0,L|392:189,1,137.5,10|2,1:2|0:0,0:0:0:0:
302,384,72931,2,0,L|288:247,1,137.5,2|0,3:2|1:2,0:0:0:0:
150,167,73243,1,0,0:0:0:0:
162,134,73347,2,0,B|200:91|200:91|274:221,1,206.25,10|0,1:2|0:0,0:0:0:0:
195,280,73764,6,0,L|60:259,1,137.5,2|2,3:2|1:2,0:0:0:0:
291,363,74181,2,0,L|156:384,2,137.5,10|2|2,1:2|0:0|3:2,0:0:0:0:
446,351,74806,2,0,L|470:286,1,68.75,2|0,1:2|0:0,0:0:0:0:
386,196,75014,2,0,L|350:63,1,137.5,10|2,1:2|0:0,0:0:0:0:
325,41,75326,1,2,0:0:0:0:
298,23,75431,6,0,P|369:11|458:2,1,137.5,2|2,3:2|1:2,0:0:0:0:
475,193,75847,2,0,P|491:126|512:60,1,137.5,10|2,1:2|0:0,0:0:0:0:
341,137,76160,1,2,0:0:0:0:
331,163,76264,2,0,P|355:227|377:292,1,137.5,2|2,3:2|1:2,0:0:0:0:
512,384,76681,1,10,1:2:0:0:
476,379,76785,1,0,0:0:0:0:
440,375,76889,1,10,1:2:0:0:
411,348,76993,1,8,1:2:0:0:
363,370,77097,6,0,B|248:326|248:326|226:347|226:347|123:338,1,247.500009441376,6|0,3:2|0:0,0:0:0:0:
118,356,77514,2,0,B|99:298|99:298|202:307,1,165.000006294251,10|0,1:2|0:0,0:0:0:0:
358,266,77931,2,0,L|448:163,1,137.5,2|0,3:2|1:2,0:0:0:0:
421,18,78243,1,2,0:0:0:0:
393,6,78347,2,0,L|425:155,1,137.5,10|2,1:2|0:0,0:0:0:0:
494,286,78764,6,0,L|357:265,1,137.5,2|2,3:2|1:2,0:0:0:0:
272,160,79076,1,0,0:0:0:0:
257,187,79181,2,0,L|123:219,1,137.5,10|2,1:2|0:0,0:0:0:0:
318,339,79597,2,0,L|288:129,1,206.25,2|0,3:2|0:0,0:0:0:0:
371,39,80014,2,0,L|338:253,1,206.25,10|0,1:2|0:0,0:0:0:0:
356,263,80431,6,0,L|294:301,1,68.75,2|0,3:2|0:0,0:0:0:0:
402,375,80639,1,2,1:2:0:0:
510,206,80847,2,0,L|378:167,1,137.5,10|2,1:2|0:0,0:0:0:0:
283,330,81264,2,0,L|146:349,1,137.5,2|2,3:2|1:2,0:0:0:0:
294,193,81681,2,0,L|173:126,1,137.5,10|2,1:2|0:0,0:0:0:0:
294,28,81993,1,2,0:0:0:0:
333,42,82097,2,0,L|165:103,1,137.5,2|2,3:2|1:2,0:0:0:0:
283,330,82514,2,0,P|215:318|149:297,1,137.5,10|2,1:2|3:2,0:0:0:0:
309,184,82931,1,2,3:2:0:0:
372,344,83139,1,2,3:2:0:0:
423,117,83347,5,10,1:2:0:0:
423,117,83764,6,0,P|355:119|302:162,1,137.5,6|0,3:2|1:2,0:0:0:0:
391,207,84076,1,2,0:0:0:0:
363,102,84181,2,0,P|302:133|272:193,1,137.5,10|0,1:2|1:2,0:0:0:0:
372,197,84493,1,2,0:0:0:0:
302,113,84598,2,0,P|260:166|259:234,1,137.5,2|0,3:2|1:2,0:0:0:0:
343,382,84910,1,2,0:0:0:0:
359,356,85014,2,0,P|333:293|275:258,1,137.5,10|2,1:2|1:2,0:0:0:0:
151,332,85431,5,2,3:2:0:0:
45,215,85639,2,0,L|30:147,1,68.75,0|0,1:2|0:0,0:0:0:0:
66,83,85847,2,0,L|6:294,1,206.25,10|0,1:2|0:0,0:0:0:0:
5,300,86264,2,0,L|130:244,1,137.5,2|2,3:2|1:2,0:0:0:0:
259,234,86576,1,0,0:0:0:0:
278,203,86681,2,0,L|241:64,1,137.5,10|0,1:2|0:0,0:0:0:0:
391,134,87097,6,0,L|425:0,1,137.5,2|2,3:2|1:2,0:0:0:0:
417,278,87514,2,0,L|498:167,1,137.5,10|0,1:2|0:0,0:0:0:0:
505,195,87826,1,2,0:0:0:0:
511,223,87931,2,0,L|374:147,1,137.5,2|2,3:2|1:2,0:0:0:0:
304,218,88243,1,0,0:0:0:0:
278,203,88347,2,0,L|242:70,1,137.5,10|2,1:2|0:0,0:0:0:0:
85,28,88764,6,0,L|32:155,1,137.5,2|2,3:2|1:2,0:0:0:0:
145,303,89181,2,0,L|156:165,1,137.5,10|2,1:2|0:0,0:0:0:0:
262,41,89597,1,10,1:2:0:0:
179,237,89806,1,8,1:2:0:0:
432,209,90014,1,10,1:2:0:0:
432,209,90431,6,0,P|363:213|298:235,1,137.5,6|0,3:2|1:2,0:0:0:0:
109,196,90743,1,2,0:0:0:0:
80,175,90847,2,0,P|148:170|213:148,1,137.5,10|0,1:2|1:2,0:0:0:0:
403,188,91160,1,2,0:0:0:0:
432,209,91264,2,0,P|363:213|298:235,1,137.5,2|0,3:2|1:2,0:0:0:0:
234,310,91576,1,2,0:0:0:0:
214,340,91681,2,0,P|145:335|80:313,1,137.5,10|2,1:2|1:2,0:0:0:0:
13,238,92097,5,2,3:2:0:0:
478,323,92514,2,0,L|495:117,1,206.25,10|0,1:2|0:0,0:0:0:0:
461,93,92931,2,0,L|482:158,1,68.75,2|0,3:2|0:0,0:0:0:0:
389,228,93139,2,0,L|444:268,1,68.75,2|0,1:2|0:0,0:0:0:0:
297,143,93347,2,0,L|362:121,1,68.75,10|0,1:2|0:0,0:0:0:0:
290,256,93556,1,2,0:0:0:0:
177,112,93764,6,0,L|183:318,1,206.25,2|2,3:2|0:0,0:0:0:0:
150,344,94181,2,0,L|284:370,1,137.5,10|0,1:2|0:0,0:0:0:0:
314,352,94493,1,2,0:0:0:0:
341,330,94597,2,0,L|204:363,1,137.5,2|2,3:2|1:2,0:0:0:0:
218,194,95014,2,0,L|90:142,1,137.5,10|2,1:2|0:0,0:0:0:0:
27,302,95431,5,2,3:2:0:0:
84,123,95639,1,2,1:2:0:0:
172,307,95847,2,0,B|53:339|53:339|41:330,1,137.5,10|2,1:2|0:0,0:0:0:0:
7,188,96264,5,2,3:2:0:0:
0,171,96368,1,0,0:0:0:0:
54,152,96472,5,10,1:2:0:0:
53,132,96576,1,0,0:0:0:0:
96,133,96681,5,10,1:2:0:0:
105,101,96785,1,0,0:0:0:0:
138,117,96889,5,10,1:2:0:0:
165,70,96993,1,0,0:0:0:0:
216,114,97097,6,0,L|282:68,1,55,6|0,3:2|0:0,0:0:0:0:
261,82,97514,2,0,L|329:78,1,55,14|0,1:2|0:0,0:0:0:0:
315,78,97931,2,0,L|373:113,1,55,2|0,3:2|0:0,0:0:0:0:
362,106,98139,2,0,L|337:187,1,55,2|0,0:0|0:0,0:0:0:0:
345,158,98347,1,10,1:2:0:0:
455,333,98764,6,0,L|387:319,1,55,2|0,3:2|0:0,0:0:0:0:
401,321,99181,2,0,L|341:355,1,55,10|0,1:2|0:0,0:0:0:0:
353,348,99597,2,0,L|286:325,1,55,2|0,3:2|0:0,0:0:0:0:
300,330,99806,2,0,L|304:249,1,55,2|0,0:0|0:0,0:0:0:0:
302,275,100014,1,10,1:2:0:0:
93,365,100431,5,6,3:2:0:0:
92,365,100847,1,10,1:2:0:0:
92,365,101264,2,0,L|52:262,1,110,2|2,3:2|0:0,0:0:0:0:
106,202,101681,2,0,L|135:81,1,110,10|0,1:2|0:0,0:0:0:0:
211,86,102097,2,0,L|302:11,1,110,0|0,3:2|0:0,0:0:0:0:
371,43,102514,2,0,L|498:86,1,110,8|0,1:2|0:0,0:0:0:0:
327,190,102931,5,2,3:2:0:0:
327,190,103035,1,2,1:2:0:0:
327,190,103139,1,10,1:2:0:0:
327,190,103243,1,2,1:2:0:0:
327,190,103347,2,0,B|333:169|333:169|268:175|268:175|277:195,1,110,10|2,1:2|0:0,0:0:0:0:
155,298,103764,6,0,L|166:244,1,55,6|0,3:2|0:0,0:0:0:0:
166,244,104181,2,0,L|139:195,1,55,10|0,1:2|0:0,0:0:0:0:
139,195,104597,2,0,L|81:180,1,55,2|0,3:2|0:0,0:0:0:0:
85,181,104806,2,0,L|74:103,1,55,2|0,0:0|0:0,0:0:0:0:
77,126,105014,1,10,1:2:0:0:
208,5,105431,6,0,L|154:17,1,55,2|0,3:2|0:0,0:0:0:0:
154,17,105847,2,0,L|183:63,1,55,10|0,1:2|0:0,0:0:0:0:
183,63,106264,2,0,L|237:46,1,55,2|0,3:2|0:0,0:0:0:0:
235,46,106472,2,0,L|293:68,1,55,2|0,0:0|0:0,0:0:0:0:
286,65,106681,1,10,1:2:0:0:
420,19,107097,5,6,3:2:0:0:
420,19,107514,1,10,1:2:0:0:
420,19,107931,2,0,L|460:122,1,110,2|2,3:2|0:0,0:0:0:0:
406,182,108348,2,0,L|377:303,1,110,10|0,1:2|0:0,0:0:0:0:
301,298,108764,2,0,L|210:373,1,110,2|0,3:2|0:0,0:0:0:0:
141,341,109181,2,0,L|14:298,1,110,10|2,1:2|0:0,0:0:0:0:
112,176,109597,5,2,3:2:0:0:
208,176,109806,1,0,3:2:0:0:
304,176,110014,1,8,1:2:0:0:
400,176,110222,1,0,0:0:0:0:
455,326,110431,6,0,L|300:297,1,156.749995814324,6|0,3:2|0:0,0:0:0:0:
246,356,110847,1,14,1:2:0:0:
246,356,111264,2,0,L|236:251,1,104.499997209549,2|2,3:2|0:0,0:0:0:0:
330,183,111681,2,0,L|346:79,1,104.499997209549,10|0,1:2|0:0,0:0:0:0:
376,61,111993,1,0,0:0:0:0:
401,85,112097,6,0,L|271:56,2,104.499997209549,2|2|10,3:2|0:0|1:2,0:0:0:0:
434,238,112722,2,0,L|423:186,1,52.2499986047745,2|0,0:0|0:0,0:0:0:0:
423,186,113139,2,0,L|410:289,1,104.499997209549,2|10,0:0|1:2,0:0:0:0:
299,322,113556,1,2,0:0:0:0:
299,322,113660,1,0,0:0:0:0:
299,322,113764,6,0,B|190:281|190:281|154:306,1,156.749995814324,6|0,3:2|0:0,0:0:0:0:
103,364,114181,1,10,1:2:0:0:
19,250,114493,1,2,0:0:0:0:
19,250,114597,2,0,P|34:199|50:150,1,104.499997209549,2|2,3:2|0:0,0:0:0:0:
188,140,115014,2,0,L|142:45,1,104.499997209549,10|2,1:2|0:0,0:0:0:0:
117,24,115326,1,2,0:0:0:0:
87,34,115431,6,0,L|38:10,1,52.2499986047745,2|0,3:2|0:0,0:0:0:0:
76,134,115639,2,0,L|281:96,1,208.999994419098,2|2,0:0|0:0,0:0:0:0:
281,96,116264,1,2,3:2:0:0:
382,180,116472,1,8,1:2:0:0:
500,0,116681,2,0,L|486:122,1,123.750004720688,8|0,1:2|0:0,0:0:0:0:
496,146,117097,6,2,B|139:90|139:90|94:129,1,412.5,2|0,3:2|0:0,0:1:0:0:
86,145,118764,2,2,B|119:204|119:204|99:264|99:264|128:320,1,192.5,2|0,0:0|0:0,0:1:0:0:
156,325,119597,2,2,B|90:267|90:267|14:379,1,220,0|2,0:0|0:0,0:1:0:0:
79,379,120535,1,0,1:2:0:0:
142,377,120639,1,10,1:2:0:0:
205,375,120743,1,8,1:2:0:0:
268,373,120847,2,0,L|358:221,1,165,2|2,3:2|0:0,0:1:0:0:
352,231,121576,1,0,0:0:0:0:
352,231,121681,1,2,3:2:0:0:
480,356,121889,2,2,L|476:383,1,27.5,2|2,3:2|0:0,0:1:0:0:
314,333,122097,2,0,L|306:278,1,55,2|2,3:2|0:0,0:0:0:0:
362,197,122514,2,0,L|374:132,1,55,10|2,1:2|0:0,0:0:0:0:
462,101,122931,1,0,3:2:0:0:
405,283,123139,1,10,1:2:0:0:
398,174,123347,1,10,1:2:0:0:
475,96,123556,1,0,0:0:0:0:
455,213,123764,6,0,L|352:230,1,104.499997209549,6|2,3:2|0:0,0:0:0:0:
301,316,124181,2,0,L|199:290,1,104.499997209549,2|0,3:2|0:0,0:0:0:0:
72,354,124597,1,2,3:2:0:0:
404,111,125014,1,10,1:2:0:0:
497,343,125431,2,0,L|396:313,1,104.499997209549,2|2,3:2|0:0,0:0:0:0:
347,230,125743,1,0,0:0:0:0:
321,214,125847,2,0,L|222:248,1,104.499997209549,2|0,3:2|0:0,0:0:0:0:
251,359,126264,2,0,L|148:337,1,104.499997209549,2|0,3:2|0:0,0:0:0:0:
126,242,126681,1,8,1:2:0:0:
349,328,126889,1,0,0:0:0:0:
376,322,126993,1,0,0:0:0:0:
407,315,127097,6,0,L|291:285,1,104.499997209549,2|2,3:2|0:0,0:0:0:0:
456,183,127514,2,0,L|353:201,1,104.499997209549,2|0,3:2|0:0,0:0:0:0:
325,183,127826,1,2,0:0:0:0:
298,166,127931,2,0,L|204:212,1,104.499997209549,2|2,3:2|0:0,0:0:0:0:
289,384,128347,6,0,L|494:345,1,208.999994419098,10|2,1:2|3:2,0:0:0:0:
262,367,128972,1,2,0:0:0:0:
207,355,129076,1,0,0:0:0:0:
151,343,129181,2,0,L|31:363,1,104.499997209549,0|2,3:2|0:0,0:0:0:0:
159,246,129597,1,2,3:2:0:0:
284,289,129806,1,2,0:0:0:0:
394,216,130014,1,10,1:2:0:0:
494,305,130222,1,0,0:0:0:0:
494,305,130326,1,2,0:0:0:0:
494,305,130431,6,0,L|482:178,1,104.499997209549,6|2,3:2|0:0,0:0:0:0:
381,310,130847,1,2,3:2:0:0:
303,136,131160,1,2,0:0:0:0:
287,110,131264,2,0,L|295:224,1,104.499997209549,2|2,3:2|0:0,0:0:0:0:
389,78,131681,1,10,1:2:0:0:
241,20,131889,5,0,0:0:0:0:
241,20,131993,1,0,0:0:0:0:
241,20,132097,2,0,L|135:52,1,104.499997209549,2|2,3:2|0:0,0:0:0:0:
70,123,132514,1,2,3:2:0:0:
175,273,132722,2,0,L|160:64,1,208.999994419098,2|2,0:0|0:0,0:0:0:0:
68,274,133347,1,10,1:2:0:0:
68,274,133556,1,2,0:0:0:0:
67,80,133764,6,0,L|126:90,1,52.2499986047745,2|0,3:2|1:2,0:0:0:0:
431,301,134077,2,0,L|373:292,1,52.2499986047745,2|2,1:2|3:2,0:0:0:0:
42,232,134389,5,10,1:2:0:0:
101,241,134493,1,0,1:2:0:0:
159,249,134598,5,2,3:2:0:0:
209,232,134702,1,2,1:2:0:0:
250,191,134806,5,10,1:2:0:0:
292,149,134910,1,2,1:2:0:0:
342,133,135014,5,2,1:2:0:0:
400,142,135118,1,2,1:2:0:0:
457,149,135223,5,10,1:2:0:0:
496,192,135326,1,2,1:2:0:0:
482,248,135431,6,0,L|465:316,1,52.2499986047745,10|8,1:2|1:2,0:0:0:0:
353,222,135639,2,0,L|363:288,1,52.2499986047745,10|8,1:2|1:2,0:0:0:0:
226,182,135847,2,0,L|206:241,1,52.2499986047745,10|8,1:2|1:2,0:0:0:0:
42,232,136056,2,0,L|51:292,1,52.2499986047745,10|8,1:2|1:2,0:0:0:0:
125,84,136264,5,2,3:2:0:0:
169,339,136576,1,0,3:2:0:0:
169,339,136681,1,0,3:2:0:0:
226,182,136889,1,0,3:2:0:0:
401,367,137097,6,0,B|419:339|419:339|397:137|397:137|414:116,1,264,6|0,3:2|0:0,0:0:0:0:
445,113,137514,2,0,B|437:175|437:175|411:193|411:193|359:153|359:153|321:164,1,176,10|0,1:2|0:0,0:0:0:0:
246,328,137931,2,0,L|105:299,1,142.99999345398,2|2,3:2|1:2,0:0:0:0:
7,169,138243,1,2,0:0:0:0:
26,145,138347,2,0,L|117:272,1,142.99999345398,10|2,1:2|0:0,0:0:0:0:
190,29,138764,2,0,L|195:171,1,142.99999345398,2|2,3:2|1:2,0:0:0:0:
246,328,139076,1,0,0:0:0:0:
278,346,139181,2,0,L|420:329,1,142.99999345398,10|2,1:2|0:0,0:0:0:0:
488,184,139597,5,2,3:2:0:0:
469,146,139701,1,0,0:0:0:0:
433,120,139806,1,0,1:2:0:0:
391,110,139910,1,0,0:0:0:0:
323,150,140014,2,0,B|478:130|478:130|491:47,1,214.49999018097,10|0,1:2|0:0,0:0:0:0:
474,44,140431,6,0,L|399:25,1,71.4999967269899,2|0,3:2|0:0,0:0:0:0:
299,167,140639,1,2,1:2:0:0:
510,149,140847,2,0,L|489:290,1,142.99999345398,10|2,1:2|0:0,0:0:0:0:
279,280,141264,2,0,L|368:266,1,71.4999967269899,2|0,3:2|0:0,0:0:0:0:
471,313,141472,1,2,1:2:0:0:
331,384,141681,2,0,L|190:357,1,142.99999345398,10|2,1:2|0:0,0:0:0:0:
47,321,141993,1,2,0:0:0:0:
24,357,142097,6,0,L|203:323,1,142.99999345398,2|2,3:2|1:2,0:0:0:0:
36,155,142514,2,0,P|106:164|173:189,1,142.99999345398,10|2,1:2|0:0,0:0:0:0:
289,151,142826,1,2,0:0:0:0:
320,141,142931,2,0,L|289:295,1,142.99999345398,2|2,3:2|1:2,0:0:0:0:
82,339,143347,1,10,1:2:0:0:
34,323,143451,1,0,0:0:0:0:
34,273,143556,1,8,1:2:0:0:
82,258,143660,1,8,1:2:0:0:
111,298,143764,6,0,B|69:158|69:158|95:103|95:103|147:125,1,264,6|0,3:2|0:0,0:0:0:0:
169,139,144181,2,0,B|252:176|252:176|290:90,1,176,10|0,1:2|0:0,0:0:0:0:
499,248,144597,2,0,L|465:75,1,176,2|0,3:2|1:2,0:0:0:0:
362,234,144910,1,2,0:0:0:0:
361,275,145014,2,0,L|482:395,1,153.999995300293,10|2,1:2|0:0,0:0:0:0:
473,228,145431,6,0,L|436:160,1,76.9999976501466,2|0,3:2|0:0,0:0:0:0:
302,174,145639,2,0,L|233:139,1,76.9999976501466,2|0,1:2|0:0,0:0:0:0:
128,232,145847,2,0,L|47:247,1,76.9999976501466,10|0,1:2|0:0,0:0:0:0:
145,334,146056,1,2,0:0:0:0:
145,334,146264,6,0,L|113:27,2,307.999990600586,2|10|2,3:2|1:2|3:2,0:0:0:0:
257,384,147306,2,0,L|327:371,1,71.4999967269899,2|0,1:2|0:0,0:0:0:0:
462,350,147514,2,0,L|349:261,1,142.99999345398,10|2,1:2|0:0,0:0:0:0:
232,170,147826,1,2,0:0:0:0:
231,206,147931,2,0,L|381:153,1,142.99999345398,2|2,3:2|1:2,0:0:0:0:
488,209,148347,2,0,L|461:349,1,142.99999345398,10|2,1:2|0:0,0:0:0:0:
296,322,148660,1,2,0:0:0:0:
271,343,148764,6,0,L|131:371,1,142.99999345398,2|2,3:2|1:2,0:0:0:0:
0,232,149181,2,0,L|147:248,1,142.99999345398,10|2,1:2|0:0,0:0:0:0:
161,225,149493,1,2,0:0:0:0:
181,203,149597,2,0,L|252:248,1,71.4999967269899,2|0,3:2|0:0,0:0:0:0:
184,106,149806,2,0,L|117:130,1,71.4999967269899,2|0,3:2|0:0,0:0:0:0:
280,142,150014,2,0,L|273:0,1,142.99999345398,2|0,3:2|0:0,0:0:0:0:
425,111,150431,6,0,P|354:113|300:157,1,142.99999345398,6|0,3:2|1:2,0:0:0:0:
392,203,150743,1,2,0:0:0:0:
363,95,150848,2,0,P|300:126|269:188,1,142.99999345398,10|0,1:2|1:2,0:0:0:0:
372,193,151160,1,2,0:0:0:0:
300,106,151265,2,0,P|256:160|255:230,1,142.99999345398,2|0,3:2|1:2,0:0:0:0:
342,384,151577,1,2,0:0:0:0:
359,357,151681,2,0,P|332:292|272:255,1,142.99999345398,10|2,1:2|1:2,0:0:0:0:
129,341,152097,5,2,3:2:0:0:
129,341,152514,2,0,L|104:56,1,285.99998690796,10|2,1:2|3:2,0:0:0:0:
133,176,153139,2,0,L|106:242,1,71.4999967269899,2|0,1:2|0:0,0:0:0:0:
0,371,153347,2,0,L|142:360,1,142.99999345398,10|2,1:2|0:0,0:0:0:0:
319,287,153764,6,0,P|323:215|332:144,1,142.99999345398,2|0,3:2|1:2,0:0:0:0:
413,21,154076,1,2,0:0:0:0:
452,25,154181,2,0,L|342:144,1,142.99999345398,10|0,1:2|0:0,0:0:0:0:
240,79,154493,1,2,0:0:0:0:
223,54,154597,2,0,L|74:28,1,142.99999345398,2|2,3:2|1:2,0:0:0:0:
116,206,155014,2,0,L|259:174,1,142.99999345398,10|2,1:2|0:0,0:0:0:0:
405,272,155431,5,2,3:2:0:0:
354,130,155639,1,2,1:2:0:0:
354,130,155743,1,0,0:0:0:0:
354,130,155847,1,10,1:2:0:0:
437,174,156056,1,2,0:0:0:0:
304,271,156264,5,10,1:2:0:0:
217,95,156472,1,8,1:2:0:0:
490,247,156681,2,0,P|470:217|444:192,3,71.4999967269899,10|0|2|0,1:2|0:0|0:0|0:0,0:0:0:0:
438,209,157097,6,0,P|367:213|300:236,1,142.99999345398,6|0,3:2|1:2,0:0:0:0:
106,196,157409,1,2,0:0:0:0:
76,174,157513,2,0,P|146:169|214:146,1,142.99999345398,10|0,1:2|1:2,0:0:0:0:
408,187,157826,1,2,0:0:0:0:
438,209,157930,2,0,P|367:214|300:237,1,142.99999345398,2|0,3:2|1:2,0:0:0:0:
106,196,158243,1,2,0:0:0:0:
76,174,158347,2,0,P|146:169|214:146,1,142.99999345398,10|2,1:2|1:2,0:0:0:0:
296,92,158764,6,0,P|255:191|226:294,1,214.49999018097,2|0,3:2|0:0,0:0:0:0:
271,348,159181,2,0,L|227:65,1,285.99998690796,10|2,1:2|3:2,0:0:0:0:
48,87,159806,2,0,L|68:18,1,71.4999967269899,2|0,1:2|0:0,0:0:0:0:
26,111,160014,2,0,L|53:251,1,142.99999345398,10|2,1:2|0:0,0:0:0:0:
131,362,160431,6,0,B|281:271|281:271|313:292,1,214.49999018097,2|2,3:2|0:0,0:0:0:0:
336,320,160847,2,0,B|322:275|322:275|387:165|387:165|439:137,1,214.49999018097,10|2,1:2|0:0,0:0:0:0:
448,155,161264,2,0,L|306:136,1,142.99999345398,2|2,3:2|1:2,0:0:0:0:
512,1,161681,2,0,L|371:29,1,142.99999345398,10|2,1:2|0:0,0:0:0:0:
249,78,162097,1,2,3:2:0:0:
128,0,162306,1,10,1:2:0:0:
109,134,162514,1,10,1:2:0:0:
0,60,162722,1,2,0:0:0:0:
16,237,162931,5,2,3:2:0:0:
76,226,163035,1,0,0:0:0:0:
136,215,163139,1,8,1:2:0:0:
196,204,163243,1,0,0:0:0:0:
256,193,163347,1,8,1:2:0:0:
316,182,163451,1,0,0:0:0:0:
376,171,163555,1,8,1:2:0:0:
436,160,163659,1,8,1:2:0:0:
496,149,163764,6,0,L|287:96,1,214.49999018097,6|2,3:2|0:0,0:0:0:0:
320,67,164181,2,0,L|266:290,1,214.49999018097,10|2,1:2|0:0,0:0:0:0:
243,249,164597,2,0,L|347:352,1,142.99999345398,2|0,3:2|1:2,0:0:0:0:
512,307,164910,1,2,0:0:0:0:
492,283,165014,2,0,L|338:322,1,142.99999345398,10|2,1:2|1:2,0:0:0:0:
183,377,165431,6,0,L|36:319,1,142.99999345398,2|0,3:2|1:2,0:0:0:0:
15,202,165743,1,0,0:0:0:0:
10,176,165847,2,0,L|47:27,1,142.99999345398,10|0,1:2|0:0,0:0:0:0:
44,37,166264,6,0,L|85:101,1,71.4999967269899,2|0,3:2|0:0,0:0:0:0:
152,42,166472,2,0,L|173:114,1,71.4999967269899,2|0,1:2|0:0,0:0:0:0:
280,87,166681,2,0,L|267:168,1,71.4999967269899,10|0,1:2|0:0,0:0:0:0:
425,111,166889,1,2,0:0:0:0:
425,111,166993,1,0,0:0:0:0:
425,111,167097,6,0,P|354:113|300:157,1,142.99999345398,2|0,3:2|1:2,0:0:0:0:
392,203,167409,1,2,0:0:0:0:
363,95,167514,2,0,P|300:126|269:188,1,142.99999345398,10|0,1:2|0:0,0:0:0:0:
372,193,167826,1,2,0:0:0:0:
300,106,167931,2,0,P|256:160|255:230,1,142.99999345398,2|2,3:2|1:2,0:0:0:0:
350,190,168243,1,0,0:0:0:0:
248,141,168348,2,0,P|230:208|259:272,1,142.99999345398,10|2,1:2|0:0,0:0:0:0:
425,111,168764,6,0,P|354:113|300:157,1,142.99999345398,2|2,3:2|1:2,0:0:0:0:
363,95,169181,2,0,P|300:126|269:188,1,142.99999345398,10|2,1:2|0:0,0:0:0:0:
300,105,169597,2,0,P|273:129|256:160,1,71.4999967269899,10|8,1:2|1:2,0:0:0:0:
255,230,169806,1,8,1:2:0:0:
426,331,170014,2,0,P|430:260|392:203,1,142.99999345398,10|10,1:2|1:2,0:0:0:0:
171,363,170431,6,0,L|142:222,1,142.99999345398,6|0,3:2|1:2,0:0:0:0:
60,83,170743,1,2,0:0:0:0:
82,63,170847,2,0,L|45:220,1,142.99999345398,10|0,1:2|1:2,0:0:0:0:
30,219,171160,1,2,0:0:0:0:
7,223,171264,2,0,L|174:256,1,142.99999345398,2|0,3:2|1:2,0:0:0:0:
66,359,171681,1,10,1:2:0:0:
161,148,171889,1,2,1:2:0:0:
271,321,172097,6,0,B|418:266|418:266|472:308,1,214.49999018097,2|0,3:2|0:0,0:0:0:0:
456,335,172514,2,0,P|458:227|466:120,1,214.49999018097,10|0,1:2|0:0,0:0:0:0:
485,102,172931,2,0,L|441:170,1,71.4999967269899,2|0,3:2|0:0,0:0:0:0:
330,34,173139,2,0,L|354:119,1,71.4999967269899,2|0,1:2|0:0,0:0:0:0:
349,222,173347,2,0,L|274:187,1,71.4999967269899,10|0,1:2|0:0,0:0:0:0:
176,128,173556,2,0,L|241:99,1,71.4999967269899,2|0,0:0|0:0,0:0:0:0:
79,34,173764,6,0,L|51:174,1,142.99999345398,2|0,3:2|1:2,0:0:0:0:
134,302,174076,1,2,0:0:0:0:
169,295,174181,2,0,L|45:196,1,142.99999345398,10|0,1:2|0:0,0:0:0:0:
18,353,174493,1,2,0:0:0:0:
41,378,174597,2,0,L|66:229,1,142.99999345398,2|2,3:2|1:2,0:0:0:0:
196,40,175014,2,0,L|221:180,1,142.99999345398,10|2,1:2|0:0,0:0:0:0:
256,344,175431,5,2,3:2:0:0:
256,344,175639,1,2,1:2:0:0:
337,224,175847,1,10,1:2:0:0:
189,104,176056,1,2,3:2:0:0:
314,0,176264,5,2,3:2:0:0:
307,49,176368,1,2,0:2:0:0:
301,98,176472,5,2,3:2:0:0:
293,145,176576,1,2,0:2:0:0:
252,176,176680,5,10,1:2:0:0:
213,206,176784,1,2,0:2:0:0:
201,254,176889,5,2,0:2:0:0:
194,303,176993,1,2,0:2:0:0:
188,352,177097,6,0,L|407:340,1,220,6|8,3:2|3:2,0:0:0:0:
324,32,177931,2,0,L|104:43,1,220,0|8,3:2|3:2,0:0:0:0:
188,352,178764,2,0,L|183:275,1,55,2|0,3:2|0:0,0:0:0:0:
324,32,179597,2,0,L|328:108,1,55,2|0,3:2|0:0,0:0:0:0:
324,352,180431,6,0,L|104:340,1,220,2|8,3:2|3:2,0:0:0:0:
188,32,181265,2,0,L|407:43,1,220,0|8,3:2|3:2,0:0:0:0:
324,352,182098,2,0,L|328:275,1,55,2|0,3:2|0:0,0:0:0:0:
188,32,182931,2,0,L|183:108,1,55,2|0,3:2|0:0,0:0:0:0:
19,93,183764,6,0,B|89:-10|268:41|322:195|176:195|245:347|426:394|494:291,1,660,6|0,3:2|0:0,0:0:0:0:
493,93,185431,2,0,B|423:-10|244:41|190:195|336:195|267:347|86:394|18:291,1,660,2|0,3:2|0:0,0:0:0:0:
32,192,187097,5,2,3:0:0:0:
96,192,187514,1,0,3:0:0:0:
160,192,187931,1,0,3:0:0:0:
224,192,188347,1,0,3:0:0:0:
288,192,188764,1,2,0:0:0:0:
352,192,189181,1,0,0:0:0:0:
416,192,189597,1,2,0:0:0:0:
480,192,190014,1,10,0:2:0:0:
