osu file format v14

[General]
AudioFilename: audio.mp3
AudioLeadIn: 0
PreviewTime: 2931
Countdown: 0
SampleSet: Soft
StackLeniency: 0.4
Mode: 0
LetterboxInBreaks: 0
WidescreenStoryboard: 1

[Editor]
Bookmarks: 431,3764,17097,30431,43764,57097,67097,70431,97097,105431,110431,117097,123764,133764,137097,177097
DistanceSpacing: 1.13
BeatDivisor: 4
GridSize: 16
TimelineZoom: 2.5

[Metadata]
Title:Rainy Boots
TitleUnicode:レイニーブーツ
Artist:Will Stetson
ArtistUnicode:Will Stetson
Creator:- Clubber -
Version:Hard
Source:
Tags:inabakumori Sayri Dictate cover 稲葉曇 ぬくぬくにぎりめし nukunukunigirimeshi アンチサイクロン anticyclone English Rock Pop inaba cumori Shii ShiiTsuin Pop Rock
BeatmapID:3186789
BeatmapSetID:1557729

[Difficulty]
HPDrainRate:4.5
CircleSize:2.8
OverallDifficulty:7.5
ApproachRate:8
SliderMultiplier:1.6
SliderTickRate:1

[Events]
//Background and Video events
0,0,"bg.jpg",0,0
Video,0,"william my beloved.mp4"
//Break Periods
//Storyboard Layer 0 (Background)
//Storyboard Layer 1 (Fail)
//Storyboard Layer 2 (Pass)
//Storyboard Layer 3 (Foreground)
//Storyboard Layer 4 (Overlay)
//Storyboard Sound Samples

[TimingPoints]
431,416.666666666667,4,2,1,69,1,0
3764,-83.3333333333333,4,2,1,69,0,0
4597,-90.9090909090909,4,2,1,69,0,0
10431,-83.3333333333333,4,2,1,69,0,0
11264,-90.9090909090909,4,2,1,69,0,0
17097,-105.263157894737,4,2,3,69,0,0
20431,-105.263157894737,4,2,1,69,0,0
23764,-105.263157894737,4,2,3,69,0,0
27097,-105.263157894737,4,2,1,69,0,0
67097,-100,4,2,1,69,0,0
70431,-76.9230769230769,4,2,1,69,0,0
71264,-83.3333333333333,4,2,1,69,0,0
77097,-76.9230769230769,4,2,1,69,0,0
77930,-83.3333333333333,4,2,1,69,0,0
97097,-105.263157894737,4,2,3,69,0,0
100431,-105.263157894737,4,2,1,69,0,0
103764,-105.263157894737,4,2,3,69,0,0
107097,-105.263157894737,4,2,1,69,0,0
110431,-111.111111111111,4,2,1,69,0,0
117097,-125,4,2,1,69,0,0
133764,-100,4,2,1,69,0,0
137097,-71.4285714285714,4,2,1,69,0,1
137931,-76.9230769230769,4,2,1,69,0,1
143764,-71.4285714285714,4,2,1,69,0,1
145014,-76.9230769230769,4,2,1,69,0,1
150326,-76.9230769230769,4,2,1,69,0,0
150430,-76.9230769230769,4,2,1,69,0,1
150743,-76.9230769230769,4,2,1,69,0,0
150847,-76.9230769230769,4,2,1,69,0,1
151160,-76.9230769230769,4,2,1,69,0,0
151264,-76.9230769230769,4,2,1,69,0,1
151576,-76.9230769230769,4,2,1,69,0,0
151680,-76.9230769230769,4,2,1,69,0,1
156993,-76.9230769230769,4,2,1,69,0,0
157097,-76.9230769230769,4,2,1,69,0,1
157410,-76.9230769230769,4,2,1,69,0,0
157514,-76.9230769230769,4,2,1,69,0,1
157826,-76.9230769230769,4,2,1,69,0,0
157930,-76.9230769230769,4,2,1,69,0,1
158243,-76.9230769230769,4,2,1,69,0,0
158347,-76.9230769230769,4,2,1,69,0,1
162826,-76.9230769230769,4,2,1,69,0,0
162930,-76.9230769230769,4,2,1,69,0,1
163139,-76.9230769230769,4,2,1,69,0,0
163243,-76.9230769230769,4,2,1,69,0,1
163451,-76.9230769230769,4,2,1,69,0,0
163555,-76.9230769230769,4,2,1,69,0,1
163660,-76.9230769230769,4,2,1,69,0,0
163764,-76.9230769230769,4,2,1,69,0,1
166993,-76.9230769230769,4,2,1,69,0,0
167097,-76.9230769230769,4,2,1,69,0,1
167410,-76.9230769230769,4,2,1,69,0,0
167514,-76.9230769230769,4,2,1,69,0,1
167826,-76.9230769230769,4,2,1,69,0,0
167930,-76.9230769230769,4,2,1,69,0,1
168243,-76.9230769230769,4,2,1,69,0,0
168347,-76.9230769230769,4,2,1,69,0,1
168660,-76.9230769230769,4,2,1,69,0,0
168764,-76.9230769230769,4,2,1,69,0,1
169076,-76.9230769230769,4,2,1,69,0,0
169180,-76.9230769230769,4,2,1,69,0,1
169493,-76.9230769230769,4,2,1,69,0,0
169597,-76.9230769230769,4,2,1,69,0,1
169910,-76.9230769230769,4,2,1,69,0,0
170014,-76.9230769230769,4,2,1,69,0,1
170326,-76.9230769230769,4,2,1,69,0,0
170430,-76.9230769230769,4,2,1,69,0,1
176160,-76.9230769230769,4,2,1,69,0,0
176264,-76.9230769230769,4,2,1,69,0,1
176368,-76.9230769230769,4,2,1,69,0,0
176472,-76.9230769230769,4,2,1,69,0,1
176576,-76.9230769230769,4,2,1,69,0,0
176680,-76.9230769230769,4,2,1,69,0,1
176785,-76.9230769230769,4,2,1,69,0,0
176889,-76.9230769230769,4,2,1,69,0,1
176993,-100,4,2,1,69,0,0
177097,-100,4,2,2,69,0,0

[Colours]
Combo1 : 128,128,128
Combo2 : 192,192,192

[HitObjects]
50,265,431,6,0,L|130:255,1,80,8|8,1:2|1:2,0:0:0:0:
130,255,743,1,0,1:2:0:0:
130,255,847,1,8,1:2:0:0:
206,337,1056,6,0,L|237:300,1,40,8|8,1:2|1:2,0:0:0:0:
259,298,1264,2,0,L|241:220,1,80,8|8,1:2|1:2,0:0:0:0:
241,220,1576,1,0,1:2:0:0:
241,220,1681,1,8,1:2:0:0:
328,160,1889,6,0,L|382:168,1,40,8|8,1:2|1:2,0:0:0:0:
399,182,2097,2,0,L|411:261,1,80,8|8,1:2|1:2,0:0:0:0:
411,261,2410,1,0,1:2:0:0:
411,261,2514,1,8,1:2:0:0:
494,367,2722,5,8,1:2:0:0:
494,367,2826,1,8,1:2:0:0:
494,367,2931,1,0,3:2:0:0:
512,202,3243,6,0,L|505:162,1,40,4|4,3:3|3:3,0:0:0:0:
455,79,3556,1,4,3:3:0:0:
399,182,3764,6,0,B|327:171|327:171|287:192|287:192|213:182,1,191.999994140625,6|10,3:2|1:2,0:0:0:0:
129,136,4389,1,0,0:0:0:0:
129,136,4493,1,0,0:0:0:0:
129,136,4597,2,0,L|113:44,1,88.000002685547,2|2,3:2|1:2,0:0:0:0:
27,94,5014,2,0,L|11:180,1,88.000002685547,10|2,1:2|0:0,0:0:0:0:
41,277,5431,5,2,3:2:0:0:
128,323,5639,1,2,1:2:0:0:
212,270,5847,2,0,L|311:301,1,88.000002685547,10|2,1:2|0:0,0:0:0:0:
367,363,6264,2,0,B|403:334|403:334|390:249,1,132.00000402832,2|0,3:2|0:0,0:0:0:0:
377,224,6681,2,0,L|388:136,1,88.000002685547,10|0,1:2|0:0,0:0:0:0:
456,56,7097,6,0,L|368:15,1,88.000002685547,2|2,3:2|1:2,0:0:0:0:
279,26,7514,2,0,L|191:67,1,88.000002685547,10|2,1:2|0:0,0:0:0:0:
142,142,7931,2,0,L|116:235,1,88.000002685547,2|2,3:2|1:2,0:0:0:0:
180,302,8347,2,0,L|268:264,1,88.000002685547,10|2,1:2|0:0,0:0:0:0:
290,278,8660,1,2,0:0:0:0:
290,278,8764,6,0,L|216:229,1,88.000002685547,2|2,3:2|1:2,0:0:0:0:
119,227,9181,2,0,L|96:136,1,88.000002685547,10|2,1:2|0:0,0:0:0:0:
95,124,9493,1,2,0:0:0:0:
95,124,9597,2,0,L|152:51,1,88.000002685547,2|2,3:2|1:2,0:0:0:0:
269,79,10014,2,0,L|261:129,3,44.0000013427735,10|0|10|0,1:2|0:0|1:2|0:0,0:0:0:0:
274,156,10431,6,0,B|344:146|344:146|388:171|388:171|458:163,1,191.999994140625,6|10,3:2|1:2,0:0:0:0:
512,261,11056,1,0,0:0:0:0:
512,261,11160,1,0,0:0:0:0:
512,261,11264,2,0,B|502:303|502:303|461:323,1,88.000002685547,2|0,3:2|1:2,0:0:0:0:
442,321,11576,1,2,0:0:0:0:
442,321,11681,2,0,B|425:309|425:309|356:321,1,88.000002685547,10|2,1:2|0:0,0:0:0:0:
264,377,12097,5,2,3:2:0:0:
215,293,12306,1,2,3:2:0:0:
265,186,12514,5,10,1:2:0:0:
203,111,12722,2,0,L|154:117,1,44.0000013427735,2|0,0:0|0:0,0:0:0:0:
128,107,12931,2,0,B|105:134|105:134|120:239,1,132.00000402832,2|0,3:2|0:0,0:0:0:0:
132,268,13347,2,0,B|91:254|91:254|54:279,1,88.000002685547,10|0,1:2|0:0,0:0:0:0:
108,376,13764,6,0,L|200:363,1,88.000002685547,2|2,3:2|1:2,0:0:0:0:
226,347,14076,1,0,0:0:0:0:
226,347,14181,2,0,L|327:373,1,88.000002685547,10|2,1:2|0:0,0:0:0:0:
409,363,14597,2,0,L|439:267,1,88.000002685547,2|2,3:2|1:2,0:0:0:0:
510,209,15014,1,10,1:2:0:0:
427,152,15222,1,2,0:0:0:0:
427,152,15326,1,2,0:0:0:0:
427,152,15431,6,0,L|327:172,1,88.000002685547,2|2,3:2|1:2,0:0:0:0:
281,246,15847,2,0,L|187:223,1,88.000002685547,10|2,1:2|0:0,0:0:0:0:
99,198,16264,1,2,3:2:0:0:
123,103,16472,1,2,3:2:0:0:
218,128,16681,1,2,1:2:0:0:
398,23,17097,6,0,B|440:51|440:51|426:151,1,151.999995941162,6|10,3:2|1:2,0:0:0:0:
426,151,17722,1,2,0:0:0:0:
504,225,17931,2,0,L|432:275,1,75.9999979705811,2|2,3:2|0:0,0:0:0:0:
366,334,18347,2,0,L|438:384,1,75.9999979705811,10|2,1:2|0:0,0:0:0:0:
339,97,18972,1,2,0:0:0:0:
398,23,19181,2,0,B|440:51|440:51|436:86,1,75.9999979705811,10|2,1:2|0:0,0:0:0:0:
400,168,19597,2,0,B|358:196|358:196|362:231,1,75.9999979705811,2|2,3:2|0:0,0:0:0:0:
406,309,20014,2,0,B|370:324|370:324|334:315,1,75.9999979705811,10|2,1:2|0:0,0:0:0:0:
215,355,20431,6,0,P|222:275|233:204,1,151.999995941162,2|10,3:2|1:2,0:0:0:0:
233,204,21056,1,2,0:0:0:0:
295,126,21264,2,0,P|260:111|222:112,1,75.9999979705811,2|2,3:2|0:0,0:0:0:0:
207,122,21576,1,2,0:0:0:0:
207,122,21681,2,0,P|169:122|134:108,1,75.9999979705811,10|2,1:2|0:0,0:0:0:0:
153,7,22097,2,0,P|191:7|226:21,1,75.9999979705811,2|2,3:2|0:0,0:0:0:0:
302,84,22514,2,0,P|321:116|326:154,1,75.9999979705811,10|2,1:2|0:0,0:0:0:0:
309,251,22931,2,0,P|290:283|260:307,1,75.9999979705811,2|2,3:2|0:0,0:0:0:0:
167,341,23347,2,0,P|128:341|93:327,1,75.9999979705811,10|0,1:2|3:2,0:0:0:0:
27,215,23764,5,6,3:2:0:0:
27,215,23972,2,0,L|45:140,1,75.9999979705811,2|10,0:0|1:2,0:0:0:0:
44,141,24389,1,2,0:0:0:0:
116,73,24597,2,0,B|100:11|100:11|67:4,1,75.9999979705811,2|2,3:2|0:0,0:0:0:0:
4,62,25014,1,10,1:2:0:0:
4,62,25222,1,2,0:0:0:0:
120,240,25639,1,2,0:0:0:0:
162,149,25847,2,0,L|76:149,1,75.9999979705811,10|2,1:2|0:0,0:0:0:0:
24,224,26264,2,0,L|24:310,1,75.9999979705811,2|2,3:2|0:0,0:0:0:0:
96,366,26681,2,0,L|182:366,1,75.9999979705811,10|2,1:2|0:0,0:0:0:0:
251,309,27097,2,0,L|251:152,1,151.999995941162,2|10,3:2|1:2,0:0:0:0:
251,157,27722,1,2,0:0:0:0:
160,185,27931,2,0,L|83:161,1,75.9999979705811,2|2,3:2|0:0,0:0:0:0:
128,69,28347,2,0,L|44:77,1,75.9999979705811,10|2,1:2|0:0,0:0:0:0:
0,162,28764,2,0,L|15:255,1,75.9999979705811,2|2,3:2|0:0,0:0:0:0:
88,306,29181,2,0,P|77:353|64:388,1,75.9999979705811,10|2,1:2|0:0,0:0:0:0:
165,358,29597,2,0,P|218:348|252:346,1,75.9999979705811,2|2,3:2|3:0,0:0:0:0:
338,380,30014,1,10,1:2:0:0:
338,380,30222,1,0,3:2:0:0:
440,318,30431,6,0,B|448:191|448:191|478:172,1,151.999995941162,4|10,3:2|1:2,0:0:0:0:
468,177,31056,1,2,0:0:0:0:
432,90,31264,2,0,L|447:8,2,75.9999979705811,2|2|10,3:2|0:0|1:2,0:0:0:0:
432,90,31889,1,2,0:0:0:0:
440,318,32306,6,0,B|396:197|396:197|371:182,1,151.999995941162,2|2,0:0|0:0,0:0:0:0:
376,185,32931,1,2,3:2:0:0:
293,147,33139,1,2,0:0:0:0:
346,63,33347,2,0,L|413:12,1,75.9999979705811,10|2,1:2|0:0,0:0:0:0:
512,89,33764,5,0,3:2:0:0:
512,89,33972,1,2,0:0:0:0:
461,177,34181,2,0,L|452:304,1,113.999996955872,10|2,1:2|0:0,0:0:0:0:
461,309,34597,1,2,3:2:0:0:
376,362,34806,1,2,0:0:0:0:
319,279,35014,2,0,P|305:232|286:187,1,75.9999979705811,10|2,1:2|0:0,0:0:0:0:
420,15,35639,6,0,L|443:165,2,151.999995941162,2|2|2,0:0|0:0|0:0,0:0:0:0:
326,41,36681,1,10,1:2:0:0:
236,77,36889,1,2,3:2:0:0:
274,196,37097,5,4,3:2:0:0:
274,196,37306,2,0,L|367:215,1,75.9999979705811,2|8,0:0|1:2,0:0:0:0:
430,273,37722,2,0,L|460:306,1,37.9999989852906,2|2,0:0|0:0,0:0:0:0:
473,320,37931,2,0,L|494:224,2,75.9999979705811,2|2|10,3:2|0:0|1:2,0:0:0:0:
393,376,38556,1,2,0:0:0:0:
447,111,38972,5,2,0:0:0:0:
362,62,39181,2,0,L|281:75,1,75.9999979705811,10|2,1:2|0:0,0:0:0:0:
265,71,39493,1,2,0:0:0:0:
265,71,39597,2,0,L|179:52,1,75.9999979705811,2|2,3:2|0:0,0:0:0:0:
208,152,40014,1,10,1:2:0:0:
226,249,40222,1,2,0:0:0:0:
244,346,40431,6,0,L|281:342,1,37.9999989852906,2|2,3:2|0:0,0:0:0:0:
473,320,40847,1,10,1:2:0:0:
206,21,43764,5,4,3:2:0:0:
206,21,43972,2,0,L|192:70,1,37.9999989852906,2|0,0:0|0:0,0:0:0:0:
200,83,44181,2,0,L|221:174,1,75.9999979705811,10|2,1:2|0:0,0:0:0:0:
240,179,44493,1,2,0:0:0:0:
240,179,44597,2,0,L|221:262,1,75.9999979705811,2|2,3:2|0:0,0:0:0:0:
198,371,45014,1,10,1:2:0:0:
113,326,45222,1,2,0:0:0:0:
206,21,45639,6,0,B|204:45|204:45|196:73|196:73|205:105|205:105|188:135|188:135|189:168,1,151.999995941162,2|2,0:0|0:0,0:0:0:0:
235,253,46264,2,0,L|314:216,1,75.9999979705811,2|2,3:2|0:0,0:0:0:0:
365,141,46681,2,0,L|282:107,1,75.9999979705811,10|2,1:2|0:0,0:0:0:0:
84,153,47306,5,2,0:0:0:0:
134,236,47514,2,0,L|143:320,1,75.9999979705811,10|2,1:2|0:0,0:0:0:0:
226,372,47931,1,2,3:2:0:0:
301,307,48139,1,2,0:0:0:0:
239,230,48347,1,10,1:2:0:0:
293,150,48556,1,2,0:0:0:0:
127,29,48972,6,0,L|201:16,1,75.9999979705811,2|10,0:0|1:2,0:0:0:0:
201,16,49389,1,2,0:0:0:0:
300,55,49597,1,2,3:2:0:0:
219,141,49806,1,10,1:2:0:0:
300,238,50014,1,10,1:2:0:0:
300,238,50222,2,0,L|288:289,1,37.9999989852906,0|0,3:2|3:0,0:0:0:0:
298,300,50431,6,0,B|188:305|188:305|149:349,1,151.999995941162,4|10,3:2|1:2,0:0:0:0:
160,336,51056,1,2,0:0:0:0:
82,287,51264,2,0,L|72:197,1,75.9999979705811,2|2,3:2|0:0,0:0:0:0:
159,159,51681,2,0,L|181:82,1,75.9999979705811,10|2,1:2|0:0,0:0:0:0:
313,311,52306,5,2,0:0:0:0:
293,213,52514,2,0,L|279:128,1,75.9999979705811,10|2,1:2|0:0,0:0:0:0:
325,46,52931,1,2,3:2:0:0:
235,6,53139,1,2,0:0:0:0:
145,42,53347,1,10,1:2:0:0:
116,135,53556,1,2,0:0:0:0:
161,225,53764,2,0,L|204:216,1,37.9999989852906,2|0,3:2|0:0,0:0:0:0:
76,337,54076,2,0,L|42:318,1,37.9999989852906,2|10,0:0|1:2,0:0:0:0:
172,194,55639,1,2,0:0:0:0:
172,194,55847,1,10,1:2:0:0:
91,262,56056,2,0,L|74:345,2,75.9999979705811,2|2|10,0:0|3:2|1:2,0:0:0:0:
12,194,56681,1,2,3:2:0:0:
12,194,56889,1,2,3:2:0:0:
59,81,57097,6,0,B|93:30|93:30|200:18|200:18|245:55,1,227.999993911743,6|0,3:2|0:0,0:0:0:0:
270,153,57931,2,0,L|221:222,1,75.9999979705811,2|2,3:2|0:2,0:0:0:0:
129,226,58347,2,0,L|63:175,1,75.9999979705811,10|0,1:2|0:0,0:0:0:0:
166,124,58764,1,2,3:2:0:0:
166,124,58972,1,2,0:2:0:0:
166,124,59181,1,2,3:2:0:0:
187,274,59597,6,0,L|165:123,1,151.999995941162,2|8,3:2|1:2,0:0:0:0:
396,222,60431,6,0,L|322:237,1,75.9999979705811,2|2,3:2|0:2,0:0:0:0:
350,140,60847,2,0,L|427:125,1,75.9999979705811,2|0,3:2|0:0,0:0:0:0:
453,133,61160,1,2,0:2:0:0:
453,133,61264,2,0,B|496:153|496:153|493:199,1,75.9999979705811,2|2,3:2|0:2,0:0:0:0:
485,280,61681,2,0,L|478:356,1,75.9999979705811,10|0,1:2|0:0,0:0:0:0:
478,355,61993,1,2,0:2:0:0:
478,355,62097,1,2,3:2:0:0:
389,340,62306,2,0,B|285:317|285:317|239:348,1,151.999995941162,2|2,0:2|0:0,0:0:0:0:
233,241,62931,2,0,B|259:217|259:217|301:222,1,75.9999979705811,2|2,3:2|1:2,0:0:0:0:
397,243,63347,2,0,L|409:156,1,75.9999979705811,10|0,1:2|0:0,0:0:0:0:
421,50,63764,6,0,L|332:58,1,75.9999979705811,6|2,3:2|0:0,0:0:0:0:
345,56,64181,1,2,3:2:0:0:
115,128,64597,2,0,L|204:136,1,75.9999979705811,2|2,3:2|0:0,0:0:0:0:
190,134,65014,1,10,1:2:0:0:
278,384,65431,2,0,L|292:309,1,75.9999979705811,2|2,3:2|0:0,0:0:0:0:
232,236,65847,2,0,L|217:161,1,75.9999979705811,2|2,3:2|0:0,0:0:0:0:
283,88,66264,2,0,L|297:13,1,75.9999979705811,2|2,3:2|0:0,0:0:0:0:
408,97,66681,1,10,1:2:0:0:
420,326,67097,6,0,L|341:312,1,80,2|0,3:2|0:0,0:0:0:0:
341,312,67410,1,2,1:2:0:0:
341,312,67514,1,2,3:2:0:0:
256,357,67722,2,0,L|232:323,1,40,10|0,1:2|1:2,0:0:0:0:
215,305,67931,2,0,L|228:207,1,80,2|2,3:2|0:0,0:0:0:0:
225,225,68243,1,2,3:2:0:0:
225,225,68347,1,2,3:2:0:0:
305,160,68556,2,0,L|266:134,1,40,10|10,1:2|1:2,0:0:0:0:
204,91,68764,5,2,3:2:0:0:
204,91,69389,5,10,1:2:0:0:
382,221,69806,2,0,L|394:181,2,40,10|8|0,1:2|1:2|3:2,0:0:0:0:
419,319,70222,2,0,L|373:330,1,40,2|0,3:2|0:0,0:0:0:0:
302,358,70431,6,0,B|198:330|198:330|156:350|156:350|98:335,1,207.999990478516,6|10,3:2|1:2,0:0:0:0:
43,252,71056,1,0,0:0:0:0:
43,252,71160,1,0,0:0:0:0:
43,252,71264,2,0,L|55:145,1,95.9999970703126,2|2,3:2|1:2,0:0:0:0:
151,113,71681,2,0,L|102:22,1,95.9999970703126,10|2,1:2|0:0,0:0:0:0:
207,4,72097,5,2,3:2:0:0:
303,58,72306,1,2,1:2:0:0:
303,58,72410,1,0,0:0:0:0:
303,58,72514,2,0,L|404:42,1,95.9999970703126,10|2,1:2|0:0,0:0:0:0:
489,3,72931,2,0,B|506:52|506:52|466:135,1,143.999995605469,2|0,3:2|0:0,0:0:0:0:
445,129,73347,2,0,L|470:237,1,95.9999970703126,10|0,1:2|0:0,0:0:0:0:
512,327,73764,5,2,3:2:0:0:
417,351,73972,1,2,1:2:0:0:
368,267,74181,1,10,1:2:0:0:
270,279,74389,1,2,0:0:0:0:
225,370,74597,2,0,P|180:351|135:336,1,95.9999970703126,2|2,3:2|1:2,0:0:0:0:
36,343,75014,2,0,L|18:237,1,95.9999970703126,10|2,1:2|0:0,0:0:0:0:
46,236,75326,1,2,0:0:0:0:
46,236,75431,6,0,L|83:130,1,95.9999970703126,2|2,3:2|1:2,0:0:0:0:
12,68,75847,2,0,P|55:48|103:44,1,95.9999970703126,10|2,1:2|0:0,0:0:0:0:
128,59,76160,1,2,0:0:0:0:
128,59,76264,2,0,P|175:54|219:35,1,95.9999970703126,2|2,3:2|1:2,0:0:0:0:
311,74,76681,2,0,P|333:66|357:64,3,47.9999985351563,10|0|10|8,1:2|0:0|1:2|1:2,0:0:0:0:
410,83,77097,6,0,B|396:176|396:176|404:184|404:184|389:291,1,207.999990478516,6|10,3:2|1:2,0:0:0:0:
445,384,77722,1,0,0:0:0:0:
445,384,77826,1,0,0:0:0:0:
445,384,77931,2,0,L|319:364,1,95.9999970703126,2|0,3:2|1:2,0:0:0:0:
330,347,78243,1,2,0:0:0:0:
330,347,78347,2,0,L|226:363,1,95.9999970703126,10|2,1:2|0:0,0:0:0:0:
133,375,78764,5,2,3:2:0:0:
158,281,78972,1,2,1:2:0:0:
118,192,79181,1,10,1:2:0:0:
22,167,79389,2,0,L|3:212,1,47.9999985351563,2|0,0:0|0:0,0:0:0:0:
12,235,79597,2,0,B|-1:98|-1:98|50:72,1,191.999994140625,2|10,3:2|1:2,0:0:0:0:
254,98,80431,6,0,P|242:144|231:191,1,95.9999970703126,2|2,3:2|1:2,0:0:0:0:
327,229,80847,2,0,L|251:300,1,95.9999970703126,10|2,1:2|0:0,0:0:0:0:
325,376,81264,2,0,L|216:386,1,95.9999970703126,2|2,3:2|1:2,0:0:0:0:
130,358,81681,2,0,L|174:258,1,95.9999970703126,10|2,1:2|0:0,0:0:0:0:
158,248,81993,1,2,0:0:0:0:
158,248,82097,2,0,L|260:254,1,95.9999970703126,2|2,3:2|1:2,0:0:0:0:
342,203,82514,2,0,L|398:289,1,95.9999970703126,10|2,1:2|3:2,0:0:0:0:
465,365,82931,1,2,3:2:0:0:
465,365,83139,1,2,3:2:0:0:
506,274,83347,1,10,1:2:0:0:
381,108,83764,6,0,P|311:100|260:148,1,143.999995605469,6|2,3:2|0:0,0:0:0:0:
271,181,84181,2,0,P|340:188|391:140,1,143.999995605469,10|2,1:2|0:0,0:0:0:0:
381,108,84597,2,0,P|311:100|260:148,1,143.999995605469,2|2,3:2|0:0,0:0:0:0:
231,154,85014,1,10,1:2:0:0:
166,228,85222,1,2,1:2:0:0:
83,171,85431,2,0,B|47:79|47:79|69:31,1,143.999995605469,2|0,3:2|0:0,0:0:0:0:
66,8,85847,6,0,L|283:26,1,191.999994140625,10|2,1:2|3:2,0:0:0:0:
366,23,86472,1,2,1:2:0:0:
366,23,86576,1,0,0:0:0:0:
366,23,86681,2,0,L|475:9,1,95.9999970703126,10|0,1:2|0:0,0:0:0:0:
512,123,87097,6,0,B|502:158|502:158|421:148|421:148|383:159,1,143.999995605469,2|2,3:2|0:0,0:0:0:0:
383,176,87514,2,0,B|321:184|321:184|247:135,1,143.999995605469,10|2,1:2|0:0,0:0:0:0:
244,111,87931,2,0,L|169:176,1,95.9999970703126,2|2,3:2|1:2,0:0:0:0:
100,242,88347,1,10,1:2:0:0:
119,341,88556,1,2,0:0:0:0:
216,337,88764,2,0,B|281:340|281:340|306:359,1,95.9999970703126,2|2,3:2|1:2,0:0:0:0:
381,296,89181,2,0,B|410:353|410:353|406:384,1,95.9999970703126,10|2,1:2|0:0,0:0:0:0:
499,348,89597,1,10,1:2:0:0:
473,254,89806,1,8,1:2:0:0:
501,161,90014,1,10,1:2:0:0:
323,187,90431,6,0,P|253:179|202:227,1,143.999995605469,6|2,3:2|0:0,0:0:0:0:
191,194,90848,2,0,P|260:201|311:153,1,143.999995605469,10|2,1:2|0:0,0:0:0:0:
323,187,91264,2,0,P|253:179|202:227,1,143.999995605469,2|2,3:2|0:0,0:0:0:0:
200,255,91681,1,10,1:2:0:0:
238,348,91889,1,2,1:2:0:0:
335,331,92097,1,2,3:2:0:0:
227,99,92514,6,0,L|36:123,1,191.999994140625,10|2,1:2|3:2,0:0:0:0:
0,217,93139,1,2,1:2:0:0:
84,269,93347,2,0,B|70:333|70:333|35:350,2,95.9999970703126,10|2|2,1:2|0:0|3:2,0:0:0:0:
225,157,94076,1,2,0:0:0:0:
225,156,94181,2,0,P|219:108|210:61,1,95.9999970703126,10|0,1:2|0:0,0:0:0:0:
196,46,94493,1,2,0:0:0:0:
196,46,94597,2,0,L|327:63,1,95.9999970703126,2|2,3:2|1:2,0:0:0:0:
374,112,95014,2,0,L|494:88,1,95.9999970703126,10|2,1:2|0:0,0:0:0:0:
505,190,95431,1,2,3:2:0:0:
505,190,95639,1,2,1:2:0:0:
474,284,95847,2,0,L|371:249,1,95.9999970703126,10|2,1:2|0:0,0:0:0:0:
301,317,96264,5,2,3:2:0:0:
215,272,96472,1,10,1:2:0:0:
132,324,96681,1,10,1:2:0:0:
47,278,96889,1,10,1:2:0:0:
130,226,97097,6,0,L|130:188,1,37.9999989852906,6|0,3:2|0:0,0:0:0:0:
230,54,97514,2,0,L|230:16,1,37.9999989852906,14|0,1:2|0:0,0:0:0:0:
35,67,97931,2,0,L|35:105,1,37.9999989852906,2|0,3:2|0:0,0:0:0:0:
35,105,98139,2,0,L|35:143,1,37.9999989852906,2|0,0:0|0:0,0:0:0:0:
35,143,98347,2,0,L|35:181,1,37.9999989852906,10|0,1:2|0:0,0:0:0:0:
37,362,98764,6,0,L|75:362,1,37.9999989852906,2|0,3:2|0:0,0:0:0:0:
230,281,99181,2,0,L|268:281,1,37.9999989852906,10|0,1:2|0:0,0:0:0:0:
423,379,99597,2,0,L|385:379,1,37.9999989852906,2|0,3:2|0:0,0:0:0:0:
385,379,99806,2,0,L|347:379,1,37.9999989852906,2|0,0:0|0:0,0:0:0:0:
347,379,100014,2,0,L|309:379,1,37.9999989852906,10|0,1:2|0:0,0:0:0:0:
256,134,100431,5,6,3:2:0:0:
98,104,100847,1,10,1:2:0:0:
68,263,101264,1,2,3:2:0:0:
227,292,101681,1,10,1:2:0:0:
256,134,102097,5,0,3:2:0:0:
414,104,102513,1,8,1:2:0:0:
444,263,102931,2,0,L|452:300,3,37.9999989852906,2|2|10|2,3:2|1:2|1:2|1:2,0:0:0:0:
434,318,103347,2,0,P|396:313|365:332,1,75.9999979705811,10|2,1:2|0:0,0:0:0:0:
269,382,103764,6,0,L|242:355,1,37.9999989852906,6|0,3:2|0:0,0:0:0:0:
126,232,104181,2,0,L|152:205,1,37.9999989852906,10|0,1:2|0:0,0:0:0:0:
274,95,104597,2,0,L|300:121,1,37.9999989852906,2|0,3:2|0:0,0:0:0:0:
301,122,104806,2,0,L|327:148,1,37.9999989852906,2|0,0:0|0:0,0:0:0:0:
327,148,105014,2,0,L|353:174,1,37.9999989852906,10|0,1:2|0:0,0:0:0:0:
440,351,105431,6,0,L|466:324,1,37.9999989852906,2|0,3:2|0:0,0:0:0:0:
308,306,105847,2,0,L|334:332,1,37.9999989852906,10|0,1:2|0:0,0:0:0:0:
353,174,106264,2,0,L|326:200,1,37.9999989852906,2|0,3:2|0:0,0:0:0:0:
326,200,106472,2,0,L|299:226,1,37.9999989852906,2|0,0:0|0:0,0:0:0:0:
299,226,106681,2,0,L|272:252,1,37.9999989852906,10|0,1:2|0:0,0:0:0:0:
123,174,107097,5,6,3:2:0:0:
65,325,107514,1,10,1:2:0:0:
0,178,107931,1,2,3:2:0:0:
54,26,108347,1,10,1:2:0:0:
123,174,108764,1,2,3:2:0:0:
65,325,109181,1,10,1:2:0:0:
0,178,109597,5,2,3:2:0:0:
95,157,109806,1,0,3:2:0:0:
188,187,110014,1,8,1:2:0:0:
279,150,110222,1,0,0:0:0:0:
364,200,110431,6,0,L|349:343,1,143.999995605469,6|14,3:2|1:2,0:0:0:0:
488,203,111264,2,0,L|472:132,1,71.9999978027344,2|2,3:2|0:0,0:0:0:0:
492,38,111681,1,10,1:2:0:0:
290,98,112097,6,0,B|278:64|278:64|296:33,2,71.9999978027344,2|2|10,3:2|0:0|1:2,0:0:0:0:
373,153,112722,2,0,B|299:146|299:146|234:172,1,143.999995605469,2|2,0:0|0:0,0:0:0:0:
195,262,113347,2,0,L|112:229,1,71.9999978027344,10|2,1:2|0:0,0:0:0:0:
34,260,113764,2,0,B|24:215|24:215|71:129,1,143.999995605469,6|10,3:2|1:2,0:0:0:0:
172,0,114493,1,2,0:0:0:0:
172,0,114597,2,0,L|184:72,1,71.9999978027344,2|2,3:2|0:0,0:0:0:0:
203,168,115014,1,10,1:2:0:0:
290,217,115222,2,0,L|281:251,1,35.9999989013672,2|2,0:0|0:0,0:0:0:0:
276,276,115431,6,0,L|347:269,1,71.9999978027344,2|2,3:2|0:0,0:0:0:0:
442,314,115847,1,8,1:2:0:0:
442,314,116056,1,2,0:0:0:0:
495,233,116264,1,2,3:2:0:0:
439,154,116472,1,8,1:2:0:0:
344,172,116681,1,8,1:2:0:0:
236,378,117097,6,2,B|65:330|65:330|55:334|55:334|122:127|122:127|121:137|121:137|156:215,1,480,2|0,3:2|0:0,0:1:0:0:
158,215,118764,2,2,B|254:187|254:187|211:10,2,256,2|0|2,0:0|0:0|0:0,0:1:0:0:
141,238,120535,2,0,L|130:278,2,32,0|10|8,1:2|1:2|1:2,0:0:0:0:
121,217,120847,2,2,B|85:121|85:121|82:118|82:118|228:54|228:54|232:56|232:56|287:30,1,320,2|2,3:2|3:2,0:1:0:0:
376,52,122097,6,0,L|438:64,1,64,2|2,3:2|0:0,0:0:0:0:
464,164,122514,2,0,L|402:152,1,64,10|2,1:2|0:0,0:0:0:0:
336,225,122931,2,0,L|273:212,1,64,0|10,3:2|1:2,0:0:0:0:
324,321,123348,2,0,L|386:333,1,64,10|0,1:2|0:0,0:0:0:0:
386,333,123764,5,6,3:2:0:0:
481,299,123972,1,2,0:0:0:0:
460,204,124181,1,2,3:2:0:0:
299,229,124597,1,2,3:2:0:0:
138,254,125014,1,10,1:2:0:0:
314,325,125431,1,2,3:2:0:0:
410,311,125639,1,2,0:0:0:0:
506,297,125847,1,2,3:2:0:0:
299,229,126264,1,2,3:2:0:0:
314,325,126472,1,0,0:0:0:0:
410,311,126681,1,8,1:2:0:0:
506,297,126889,1,0,0:0:0:0:
483,201,127097,6,0,B|447:189|447:189|421:193,1,64,2|2,3:2|0:0,0:0:0:0:
326,217,127514,2,0,L|262:225,1,64,2|0,3:2|0:0,0:0:0:0:
244,249,127826,1,2,0:0:0:0:
244,249,127931,2,0,L|181:259,1,64,2|2,3:2|0:0,0:0:0:0:
112,330,128347,1,10,1:2:0:0:
276,351,128660,1,2,0:0:0:0:
276,351,128764,2,0,L|342:338,2,64,2|2|0,3:2|0:0|3:2,0:0:0:0:
207,277,129389,1,2,0:0:0:0:
207,277,129493,1,2,0:0:0:0:
207,277,129597,2,0,L|231:213,1,64,2|2,3:2|0:0,0:0:0:0:
317,166,130014,2,0,L|411:187,1,96,10|2,1:2|0:0,0:0:0:0:
427,201,130431,6,0,B|456:160|456:160|449:120,1,64,6|2,3:2|0:0,0:0:0:0:
427,51,130847,1,2,3:2:0:0:
260,5,131160,1,2,0:0:0:0:
260,5,131264,2,0,B|215:22|215:22|180:13,1,64,2|2,3:2|0:0,0:0:0:0:
102,0,131681,1,10,1:2:0:0:
20,147,131993,1,0,0:0:0:0:
20,147,132097,2,0,L|85:141,1,64,2|2,3:2|0:0,0:0:0:0:
179,167,132514,1,2,3:2:0:0:
236,247,132722,2,0,L|258:103,1,128,2|2,0:0|0:0,0:0:0:0:
340,38,133347,1,10,1:2:0:0:
495,262,133764,6,0,L|415:251,1,80,2|0,3:2|1:2,0:0:0:0:
415,251,134076,1,2,1:2:0:0:
415,251,134181,1,2,3:2:0:0:
350,325,134389,2,0,L|299:335,1,40,10|0,1:2|1:2,0:0:0:0:
296,354,134597,2,0,L|217:309,1,80,2|10,3:2|1:2,0:0:0:0:
226,314,134910,1,2,1:2:0:0:
226,314,135014,1,2,1:2:0:0:
141,289,135222,1,10,1:2:0:0:
141,289,135326,1,2,1:2:0:0:
141,289,135431,6,0,L|156:193,1,80,10|10,1:2|1:2,0:0:0:0:
153,209,135743,1,8,1:2:0:0:
153,209,135847,1,10,1:2:0:0:
246,167,136056,2,0,L|256:121,1,40,10|8,1:2|1:2,0:0:0:0:
285,100,136264,5,2,3:2:0:0:
155,8,136576,2,0,L|106:17,1,40,0|0,3:2|3:2,0:0:0:0:
52,93,136889,1,0,3:2:0:0:
47,219,137097,6,0,B|92:241|92:241|108:300|108:300|148:253|148:253|198:249,1,223.999993164063,6|10,3:2|1:2,0:0:0:0:
313,319,137722,1,0,0:0:0:0:
313,319,137826,1,0,0:0:0:0:
313,319,137931,2,0,B|392:304|392:304|414:311,1,103.999995239258,2|2,3:2|1:2,0:0:0:0:
436,337,138243,1,2,0:0:0:0:
436,337,138347,2,0,L|416:217,1,103.999995239258,10|2,1:2|0:0,0:0:0:0:
455,122,138764,1,2,3:2:0:0:
365,46,138972,1,2,1:2:0:0:
284,131,139181,2,0,L|170:108,1,103.999995239258,10|2,1:2|0:0,0:0:0:0:
84,175,139597,2,0,B|52:194|52:194|73:72,1,155.999992858887,2|0,3:2|0:0,0:0:0:0:
116,46,140014,2,0,B|70:24|70:24|24:52,1,103.999995239258,10|0,1:2|0:0,0:0:0:0:
0,167,140431,5,2,3:2:0:0:
39,277,140639,1,2,1:2:0:0:
156,275,140847,1,10,1:2:0:0:
244,352,141056,1,2,0:0:0:0:
325,267,141264,2,0,B|362:232|362:232|323:195,1,103.999995239258,2|2,3:2|1:2,0:0:0:0:
310,77,141681,2,0,B|272:41|272:41|309:6,1,103.999995239258,10|2,1:2|0:0,0:0:0:0:
309,5,141993,1,2,0:0:0:0:
309,5,142097,5,2,3:2:0:0:
425,68,142306,2,0,P|474:109|499:157,1,103.999995239258,2|10,1:2|1:2,0:0:0:0:
451,252,142722,1,2,0:0:0:0:
451,252,142826,1,2,0:0:0:0:
451,252,142931,2,0,P|456:317|475:363,1,103.999995239258,2|2,3:2|1:2,0:0:0:0:
356,323,143347,2,0,L|306:306,1,51.999997619629,10|0,1:2|0:0,0:0:0:0:
276,318,143556,2,0,L|216:311,1,51.999997619629,8|8,1:2|1:2,0:0:0:0:
183,339,143764,6,0,B|217:243|217:243|211:232|211:232|214:227|214:227|208:216|208:216|241:117,1,223.999993164063,6|10,3:2|1:2,0:0:0:0:
337,63,144389,1,0,0:0:0:0:
337,63,144493,1,0,0:0:0:0:
337,63,144597,2,0,B|416:51|416:51|440:18,1,111.999996582031,2|0,3:2|1:2,0:0:0:0:
467,8,144910,1,2,0:0:0:0:
467,8,145014,2,0,L|444:134,1,103.999995239258,10|2,1:2|0:0,0:0:0:0:
423,225,145431,6,0,B|356:215|356:215|280:252,1,103.999995239258,2|2,3:2|1:2,0:0:0:0:
345,346,145847,2,0,B|264:335|264:335|239:307,1,103.999995239258,10|2,1:2|0:0,0:0:0:0:
144,371,146264,1,2,3:2:0:0:
238,155,146681,6,0,B|326:143|326:143|341:178|341:178|397:221,1,155.999992858887,10|0,1:2|0:0,0:0:0:0:
387,197,147097,2,0,L|289:251,1,103.999995239258,2|2,3:2|1:2,0:0:0:0:
399,303,147514,2,0,L|333:386,1,103.999995239258,10|2,1:2|0:0,0:0:0:0:
452,381,147931,2,0,B|504:356|504:356|500:298,1,103.999995239258,2|2,3:2|1:2,0:0:0:0:
486,193,148347,2,0,L|369:203,1,103.999995239258,10|2,1:2|0:0,0:0:0:0:
356,216,148660,1,2,0:0:0:0:
356,216,148764,2,0,P|306:205|256:189,1,103.999995239258,2|2,3:2|1:2,0:0:0:0:
142,216,149181,2,0,P|182:257|218:300,1,103.999995239258,10|2,1:2|0:0,0:0:0:0:
293,384,149597,1,2,3:2:0:0:
378,296,149806,1,2,3:2:0:0:
498,329,150014,1,2,3:2:0:0:
383,106,150431,6,0,P|308:97|253:149,1,155.999992858887,6|2,3:2|0:0,0:0:0:0:
265,184,150848,2,0,P|339:192|394:140,1,155.999992858887,10|2,1:2|0:0,0:0:0:0:
383,106,151264,2,0,P|308:97|253:149,1,155.999992858887,2|2,3:2|0:0,0:0:0:0:
246,179,151681,1,10,1:2:0:0:
138,226,151889,2,0,P|112:223|87:215,1,51.999997619629,2|0,1:2|0:0,0:0:0:0:
60,192,152097,6,0,B|81:254|81:254|64:316,1,103.999995239258,2|0,3:2|1:2,0:0:0:0:
172,351,152514,2,0,B|257:342|257:342|283:366|283:366|386:357,1,207.999990478516,10|2,1:2|3:2,0:0:0:0:
486,316,153139,1,2,1:2:0:0:
486,316,153243,1,0,0:0:0:0:
486,316,153347,2,0,B|465:258|465:258|476:206,1,103.999995239258,10|2,1:2|0:0,0:0:0:0:
503,102,153764,6,0,B|474:65|474:65|355:92,1,155.999992858887,2|2,3:2|0:0,0:0:0:0:
354,118,154181,2,0,L|243:65,1,103.999995239258,10|0,1:2|0:0,0:0:0:0:
248,50,154493,1,2,0:0:0:0:
248,50,154597,2,0,L|265:174,1,103.999995239258,2|2,3:2|1:2,0:0:0:0:
270,270,155014,2,0,L|254:385,1,103.999995239258,10|2,1:2|0:0,0:0:0:0:
140,348,155431,2,0,L|50:292,1,103.999995239258,2|2,3:2|1:2,0:0:0:0:
131,206,155847,2,0,L|103:105,1,103.999995239258,10|2,1:2|0:0,0:0:0:0:
196,33,156264,1,10,1:2:0:0:
313,36,156472,1,8,1:2:0:0:
430,39,156681,1,10,1:2:0:0:
326,186,157097,6,0,P|250:178|195:230,1,155.999992858887,6|2,3:2|0:0,0:0:0:0:
183,194,157514,2,0,P|258:201|313:150,1,155.999992858887,10|2,1:2|0:0,0:0:0:0:
326,186,157930,2,0,P|250:178|195:230,1,155.999992858887,2|2,3:2|0:0,0:0:0:0:
196,261,158347,2,0,P|223:315|267:327,1,103.999995239258,10|2,1:2|1:2,0:0:0:0:
377,306,158764,6,0,B|443:303|492:325|492:325|499:281|499:281|472:228,2,207.999990478516,2|10|2,3:2|1:2|3:2,0:0:0:0:
260,321,159806,2,0,L|203:339,1,51.999997619629,2|0,1:2|0:0,0:0:0:0:
192,361,160014,2,0,L|215:239,1,103.999995239258,10|2,1:2|0:0,0:0:0:0:
151,157,160431,6,0,L|301:98,1,155.999992858887,2|2,3:2|0:0,0:0:0:0:
317,87,160847,2,0,L|288:198,1,103.999995239258,10|0,1:2|0:0,0:0:0:0:
308,219,161160,1,2,0:0:0:0:
308,219,161264,2,0,L|425:207,1,103.999995239258,2|2,3:2|1:2,0:0:0:0:
493,292,161681,1,10,1:2:0:0:
511,176,161889,1,2,0:0:0:0:
486,61,162097,5,2,3:2:0:0:
372,91,162306,1,10,1:2:0:0:
408,202,162514,1,10,1:2:0:0:
328,288,162722,1,2,0:0:0:0:
210,280,162931,2,0,L|168:232,1,51.999997619629,2|0,3:2|0:0,0:0:0:0:
181,221,163139,2,0,L|180:169,1,51.999997619629,8|0,1:2|0:0,0:0:0:0:
196,158,163347,2,0,L|235:119,1,51.999997619629,8|0,1:2|0:0,0:0:0:0:
256,119,163556,2,0,L|312:135,1,51.999997619629,8|8,1:2|1:2,0:0:0:0:
329,157,163764,6,0,L|303:28,1,103.999995239258,6|0,3:2|1:2,0:0:0:0:
286,34,164076,1,2,0:0:0:0:
286,34,164181,2,0,B|234:26|234:26|191:54,1,103.999995239258,10|0,1:2|1:2,0:0:0:0:
178,77,164493,1,2,0:0:0:0:
178,77,164597,2,0,L|68:54,1,103.999995239258,2|0,3:2|1:2,0:0:0:0:
76,55,164910,1,2,0:0:0:0:
76,55,165014,1,10,1:2:0:0:
120,175,165222,1,2,1:2:0:0:
67,280,165431,5,2,3:2:0:0:
258,366,165847,2,0,B|354:329|354:329|433:352,1,155.999992858887,10|0,1:2|0:0,0:0:0:0:
413,367,166264,2,0,B|447:314|447:314|495:299,1,103.999995239258,2|2,3:2|1:2,0:0:0:0:
505,197,166681,2,0,B|466:186|466:186|409:212,1,103.999995239258,10|2,1:2|0:0,0:0:0:0:
343,97,167097,6,0,P|268:88|213:140,1,155.999992858887,2|2,3:2|0:0,0:0:0:0:
225,175,167514,2,0,P|299:183|354:131,1,155.999992858887,10|2,1:2|0:0,0:0:0:0:
343,97,167931,2,0,P|268:88|213:140,1,155.999992858887,2|0,3:2|0:0,0:0:0:0:
225,175,168347,2,0,P|299:183|354:131,1,155.999992858887,10|0,1:2|0:0,0:0:0:0:
342,96,168764,6,0,P|293:83|244:98,1,103.999995239258,2|2,3:2|1:2,0:0:0:0:
244,98,169181,6,0,P|207:133|194:183,1,103.999995239258,10|2,1:2|0:0,0:0:0:0:
245,288,169597,5,10,1:2:0:0:
361,270,169806,5,8,1:2:0:0:
290,176,170014,5,10,1:2:0:0:
269,297,170222,6,0,L|257:348,1,51.999997619629,10|8,1:2|1:2,0:0:0:0:
273,373,170431,6,0,B|127:314|127:314|66:331,2,207.999990478516,6|10|2,3:2|1:2|3:2,0:0:0:0:
390,380,171472,1,0,1:2:0:0:
467,291,171681,2,0,B|483:229|483:229|458:183,1,103.999995239258,10|2,1:2|1:2,0:0:0:0:
355,237,172097,1,2,3:2:0:0:
243,29,172514,6,0,B|197:68|197:68|231:199,1,155.999992858887,10|0,1:2|0:0,0:0:0:0:
226,185,172931,2,0,L|345:158,1,103.999995239258,2|2,3:2|1:2,0:0:0:0:
414,83,173347,2,0,B|483:108|483:108|504:149,1,103.999995239258,10|2,1:2|0:0,0:0:0:0:
498,253,173764,2,0,B|467:243|467:243|433:261|433:261|386:245,1,103.999995239258,2|0,3:2|1:2,0:0:0:0:
387,236,174076,1,2,0:0:0:0:
387,236,174181,2,0,L|412:338,1,103.999995239258,10|0,1:2|0:0,0:0:0:0:
438,360,174493,1,2,0:0:0:0:
438,360,174597,2,0,L|304:340,1,103.999995239258,2|2,3:2|1:2,0:0:0:0:
230,290,175014,2,0,L|127:321,1,103.999995239258,10|2,1:2|0:0,0:0:0:0:
28,378,175431,5,2,3:2:0:0:
32,260,175639,1,2,1:2:0:0:
36,142,175847,1,10,1:2:0:0:
40,24,176056,1,2,3:2:0:0:
163,67,176264,5,2,3:2:0:0:
293,62,176472,1,2,3:2:0:0:
326,189,176681,1,10,1:2:0:0:
455,208,176889,1,2,0:2:0:0:
497,331,177097,1,6,3:2:0:0:
256,352,178764,6,0,L|256:304,1,40,2|0,3:2|0:0,0:0:0:0:
256,72,179597,2,0,L|256:32,1,40,2|0,3:2|0:0,0:0:0:0:
256,312,180431,2,0,L|256:352,1,40,2|0,3:2|0:0,0:0:0:0:
416,192,182097,6,0,L|368:192,1,40,2|0,3:2|0:0,0:0:0:0:
136,192,182930,2,0,L|96:192,1,40,2|0,3:2|0:0,0:0:0:0:
376,192,183764,2,0,L|416:192,1,40,6|0,3:2|0:0,0:0:0:0:
256,32,185431,6,0,L|256:80,1,40,2|0,3:2|0:0,0:0:0:0:
256,312,186264,2,0,L|256:352,1,40,2|0,3:2|0:0,0:0:0:0:
256,72,187098,2,0,L|256:32,1,40,2|0,3:0|0:0,0:0:0:0:
256,192,187514,12,10,190014,0:2:0:0:
