osu file format v14

[General]
AudioFilename: audio.mp3
AudioLeadIn: 0
PreviewTime: 55620
Countdown: 0
SampleSet: Soft
StackLeniency: 0.5
Mode: 0
LetterboxInBreaks: 0
WidescreenStoryboard: 1

[Editor]
DistanceSpacing: 1.2
BeatDivisor: 4
GridSize: 32
TimelineZoom: 1.7

[Metadata]
Title:POP/STARS
TitleUnicode:POP/STARS
Artist:Will Stetson
ArtistUnicode:Will Stetson
Creator:Sotarks
Version:Nikakis' Hard
Source:League of Legends
Tags:Jaira Burns (G)I-DLE Madison Beer K/DA kpop k-pop pop english korean popstar popstars kda kaisa riot games worlds 2018 miyeon soyeon (여자)아이들 gidle g_idle akali evelynn ahri lol videogame kujinn reform snownino_ akitoshi corinn -laura- nikakis dictate
BeatmapID:1919494
BeatmapSetID:917345

[Difficulty]
HPDrainRate:5
CircleSize:3.8
OverallDifficulty:6
ApproachRate:8
SliderMultiplier:2.99999990463257
SliderTickRate:1

[Events]
//Background and Video events
0,0,"bg.jpg",0,0
//Break Periods
//Storyboard Layer 0 (Background)
//Storyboard Layer 1 (Fail)
//Storyboard Layer 2 (Pass)
//Storyboard Layer 3 (Foreground)
//Storyboard Sound Samples

[TimingPoints]
385,705.882352941176,4,2,22,40,1,0
385,-133.333333333333,4,2,22,40,0,0
6032,-117.647058823529,4,2,22,50,0,0
10267,-100,4,2,22,50,0,0
11679,-100,4,2,22,50,0,0
34267,-285.714285714283,4,2,22,50,0,0
45561,-133.333333333333,4,2,22,50,0,0
51208,-117.647058823529,4,2,22,50,0,0
55796,-100,4,2,22,50,0,0
56855,-100,4,2,22,80,0,1
78384,-100,4,2,22,80,0,0

[Colours]
Combo1 : 255,150,6
Combo2 : 255,17,196
Combo3 : 184,51,255
Combo4 : 141,113,255

[HitObjects]
35,67,385,6,0,L|29:173,1,56.2500003576279,0|0,0:0|0:0,0:0:0:0:
87,193,737,2,0,P|160:214|202:188,1,112.500000715256,2|0,0:0|0:0,0:0:0:0:
261,144,1267,2,0,P|334:123|376:149,1,112.500000715256,2|0,0:0|0:0,0:0:0:0:
439,185,1796,2,0,L|448:323,1,112.500000715256,2|0,0:0|0:0,0:0:0:0:
396,372,2326,1,0,0:0:0:0:
343,299,2502,2,0,L|348:217,1,56.2500003576279,0|0,0:0|0:0,0:0:0:0:
370,155,2855,2,0,L|365:73,1,56.2500003576279,0|0,0:0|0:0,0:0:0:0:
310,27,3208,1,0,0:0:0:0:
242,86,3384,5,2,0:0:0:0:
242,86,3561,1,2,0:0:0:0:
163,41,3737,1,2,0:0:0:0:
163,41,3914,2,0,L|31:33,1,112.500000715256,2|0,0:0|0:0,0:0:0:0:
50,124,4443,2,0,L|182:116,1,112.500000715256,2|0,0:0|0:0,0:0:0:0:
236,169,4973,1,0,0:0:0:0:
236,169,5149,1,0,0:0:0:0:
212,256,5326,2,0,B|206:289|206:289|214:324,1,56.2500003576279,0|0,3:0|0:0,0:0:0:0:
288,356,5679,2,2,B|294:327|294:327|288:300,1,56.2500003576279,0|0,3:0|0:0,0:0:0:0:
276,212,6032,6,0,L|282:124,1,63.7499991893769,2|2,3:2|0:2,0:0:0:0:
299,108,6296,1,0,0:0:0:0:
299,108,6384,2,0,L|293:20,1,63.7499991893769,2|2,0:2|0:2,0:0:0:0:
379,17,6737,2,0,P|438:14|464:81,1,127.499998378754,2|0,0:2|0:0,0:0:0:0:
469,114,7179,1,0,0:0:0:0:
469,114,7267,1,0,0:2:0:0:
389,154,7443,6,0,P|349:163|303:143,1,63.7499991893769,2|2,0:2|0:2,0:0:0:0:
286,140,7708,1,0,0:0:0:0:
286,140,7796,2,0,P|246:131|200:151,1,63.7499991893769,2|2,0:2|0:2,0:0:0:0:
163,200,8149,2,0,L|156:341,1,127.499998378754,2|0,0:2|0:2,0:0:0:0:
86,383,8679,1,2,0:2:0:0:
46,303,8855,6,0,L|40:211,1,63.7499991893769,2|2,0:2|0:2,0:0:0:0:
57,151,9208,2,0,L|63:59,1,63.7499991893769,2|2,0:2|0:2,0:0:0:0:
32,2,9561,1,2,0:2:0:0:
162,124,9914,1,2,0:2:0:0:
302,13,10267,6,0,L|239:20,1,37.4999988079071,2|0,3:2|0:0,0:0:0:0:
307,46,10443,6,0,L|244:53,1,37.4999988079071,2|0,3:2|0:0,0:0:0:0:
310,83,10620,6,0,L|247:90,1,37.4999988079071,2|0,3:2|0:0,0:0:0:0:
315,116,10796,6,0,L|252:123,1,37.4999988079071,2|0,3:2|0:0,0:0:0:0:
320,151,10973,5,2,3:2:0:0:
187,273,11326,1,2,0:2:0:0:
341,382,11679,6,0,L|329:226,1,149.999995231629,0|2,1:2|3:2,0:0:0:0:
322,142,12208,1,2,3:2:0:0:
241,182,12384,1,10,0:2:0:0:
241,182,12561,1,2,0:2:0:0:
155,153,12737,2,0,L|150:67,1,74.9999976158143,2|2,1:2|0:2,0:0:0:0:
219,19,13090,2,0,P|284:-2|339:36,1,112.499996423721,2|0,0:2|0:0,0:0:0:0:
358,42,13443,5,2,1:2:0:0:
358,42,13620,1,2,0:2:0:0:
314,120,13796,1,10,0:2:0:0:
314,120,13973,1,2,0:2:0:0:
357,198,14149,2,0,P|363:234|354:270,1,74.9999976158143,2|2,0:2|0:2,0:0:0:0:
289,333,14502,2,0,L|167:327,1,112.499996423721,2|0,1:2|0:0,0:0:0:0:
138,302,14855,5,2,0:2:0:0:
138,302,15032,1,2,0:2:0:0:
101,220,15208,1,10,0:2:0:0:
101,220,15384,1,2,0:2:0:0:
147,142,15561,2,0,B|161:109|161:109|153:27,1,112.499996423721,2|0,1:2|0:0,0:0:0:0:
116,13,15914,6,0,P|73:2|34:17,1,74.9999976158143,2|0,0:2|1:2,0:0:0:0:
0,89,16267,2,0,P|35:99|71:91,1,74.9999976158143,2|0,1:2|0:2,0:0:0:0:
159,69,16620,2,0,P|201:58|241:72,1,74.9999976158143,10|0,0:2|0:2,0:0:0:0:
304,118,16973,1,2,0:2:0:0:
165,232,17326,1,0,1:2:0:0:
334,304,17679,5,2,3:2:0:0:
334,304,17855,1,2,3:2:0:0:
302,217,18032,1,10,0:2:0:0:
302,217,18208,1,2,0:2:0:0:
330,131,18384,2,0,L|325:50,1,74.9999976158143,2|2,1:2|0:2,0:0:0:0:
241,22,18737,2,0,P|182:3|127:22,1,112.499996423721,2|0,0:2|0:0,0:0:0:0:
108,53,19090,5,2,1:2:0:0:
108,53,19267,1,2,0:2:0:0:
77,141,19443,1,10,0:2:0:0:
77,141,19620,1,2,1:2:0:0:
109,224,19796,2,0,L|183:228,1,74.9999976158143,2|2,0:2|0:2,0:0:0:0:
270,252,20149,2,0,B|289:284|289:284|284:368,1,112.499996423721,2|0,1:2|3:2,0:0:0:0:
247,384,20502,5,2,3:2:0:0:
247,384,20679,1,2,3:2:0:0:
200,307,20855,1,10,0:2:0:0:
200,307,21032,1,2,0:2:0:0:
244,228,21208,2,0,P|255:192|247:156,1,74.9999976158143,2|0,1:2|0:2,0:0:0:0:
163,121,21561,6,0,P|127:131|91:122,1,74.9999976158143,2|0,3:2|1:2,0:0:0:0:
125,39,21914,2,0,P|160:27|196:36,1,74.9999976158143,2|0,1:2|3:2,0:0:0:0:
234,118,22267,2,0,P|198:129|162:120,1,74.9999976158143,10|0,0:2|3:2,0:0:0:0:
91,173,22620,1,2,1:2:0:0:
231,284,22973,2,0,P|287:234|365:254,1,149.999995231629,6|2,1:2|0:2,0:0:0:0:
435,289,23502,1,2,0:2:0:0:
390,367,23679,6,0,L|315:361,1,74.9999976158143,8|0,0:2|0:2,0:0:0:0:
252,308,24032,1,2,1:2:0:0:
252,308,24208,1,2,0:2:0:0:
287,225,24384,2,0,P|296:166|286:142,1,74.9999976158143,2|0,0:2|1:2,0:0:0:0:
216,103,24737,2,0,P|207:162|217:186,1,74.9999976158143,2|0,1:2|0:2,0:0:0:0:
287,225,25090,6,0,L|401:215,1,112.499996423721,10|0,0:2|0:0,0:0:0:0:
426,179,25443,2,0,P|435:120|425:96,1,74.9999976158143,0|0,0:0|0:2,0:0:0:0:
364,44,25796,2,0,L|205:35,1,149.999995231629,0|2,1:2|0:2,0:0:0:0:
139,87,26326,1,2,0:2:0:0:
201,150,26502,6,0,P|226:212|198:256,1,112.499996423721,8|0,0:2|0:0,0:0:0:0:
170,276,26855,2,0,L|78:272,1,74.9999976158143,2|0,1:2|0:2,0:0:0:0:
26,331,27208,1,2,0:2:0:0:
26,331,27384,1,2,1:2:0:0:
100,381,27561,2,0,L|174:377,1,74.9999976158143,2|0,1:2|0:2,0:0:0:0:
241,320,27914,6,0,B|248:277|248:277|237:241,1,74.9999976158143,10|0,0:2|0:2,0:0:0:0:
206,162,28267,2,0,B|191:102|191:102|213:48,1,112.499996423721,0|0,0:2|0:0,0:0:0:0:
248,31,28620,2,0,P|288:8|337:82,1,149.999995231629,0|2,1:2|3:2,0:0:0:0:
314,164,29149,1,2,3:2:0:0:
226,140,29326,1,10,0:2:0:0:
226,140,29502,1,2,0:2:0:0:
242,228,29679,1,2,1:2:0:0:
242,228,29855,1,2,0:2:0:0:
207,311,30032,2,0,L|94:303,1,112.499996423721,2|0,0:2|0:0,0:0:0:0:
49,300,30384,5,2,1:2:0:0:
49,300,30561,1,2,0:2:0:0:
105,230,30737,2,0,P|136:178|92:99,1,149.999995231629,10|2,0:2|0:2,0:0:0:0:
39,35,31267,1,2,0:2:0:0:
128,31,31443,2,0,L|203:29,1,74.9999976158143,2|0,1:2|3:2,0:0:0:0:
293,29,31796,5,2,3:2:0:0:
293,29,31973,1,2,3:2:0:0:
254,110,32149,1,10,0:2:0:0:
254,110,32326,1,2,0:2:0:0:
295,189,32502,2,0,L|290:269,1,74.9999976158143,2|2,1:2|0:2,0:0:0:0:
334,342,32855,6,0,P|370:351|405:341,1,74.9999976158143,2|0,3:2|1:2,0:0:0:0:
362,264,33208,2,0,P|326:254|290:263,1,74.9999976158143,2|0,1:2|1:2,0:0:0:0:
204,290,33561,2,0,P|158:300|128:289,1,74.9999976158143,10|0,0:2|3:2,0:0:0:0:
70,225,33914,2,0,P|60:179|71:149,1,74.9999976158143,2|0,1:2|3:2,0:0:0:0:
119,73,34267,6,0,B|199:135|139:190|185:226|185:226|198:153|255:123|255:123|251:175|279:201,1,367.499977102281,4|2,1:2|0:2,0:0:0:0:
363,126,37090,6,0,B|282:180|313:289|313:289|285:273|231:270|206:313|206:313|245:327|258:362,1,367.499977102281,0|2,0:2|0:2,0:0:0:0:
140,373,39914,6,0,B|161:345|180:287|130:239|130:239|149:204|134:166|134:166|180:200|217:180|217:180|236:149|257:145,1,367.499977102281,0|2,0:2|0:2,0:0:0:0:
356,242,42737,6,0,B|324:215|324:215|309:172|309:172|235:186|207:126|207:126|283:106|293:42|293:42|277:46|260:39,1,367.499977102281,0|2,0:0|0:2,0:0:0:0:
26,30,45561,6,0,L|34:148,1,112.500000715256,12|0,0:2|0:2,0:0:0:0:
82,218,46090,1,8,0:2:0:0:
163,179,46267,2,0,P|202:171|237:188,1,56.2500003576279,0|2,1:2|0:2,0:0:0:0:
291,226,46620,2,0,L|285:289,1,56.2500003576279,10|0,1:2|0:2,0:0:0:0:
341,353,46973,6,0,P|401:376|446:340,1,112.500000715256,10|2,1:2|0:2,0:0:0:0:
471,269,47502,1,10,0:2:0:0:
381,261,47679,2,0,L|305:254,1,56.2500003576279,2|0,1:2|0:2,0:0:0:0:
264,188,48032,2,0,P|258:152|274:112,1,56.2500003576279,10|0,0:2|0:2,0:0:0:0:
297,50,48384,6,0,P|275:24|195:29,1,112.500000715256,8|0,1:2|0:2,0:0:0:0:
130,80,48914,1,8,0:2:0:0:
168,161,49090,2,0,P|177:210|164:239,1,56.2500003576279,0|2,1:2|0:2,0:0:0:0:
143,299,49443,2,0,P|133:348|147:377,1,56.2500003576279,10|2,0:2|0:2,0:0:0:0:
222,384,49796,6,0,L|360:374,1,112.500000715256,10|2,1:2|0:2,0:0:0:0:
388,302,50326,1,10,0:2:0:0:
325,237,50502,2,0,P|300:197|327:116,1,112.500000715256,2|10,1:2|0:2,0:0:0:0:
353,55,51032,1,10,0:2:0:0:
264,49,51208,6,0,L|200:44,1,63.7499991893769,8|2,1:2|0:2,0:0:0:0:
142,112,51561,2,0,P|136:159|146:186,1,63.7499991893769,10|0,1:2|0:2,0:0:0:0:
212,227,51914,2,0,L|275:222,1,63.7499991893769,10|0,1:2|0:2,0:0:0:0:
349,272,52267,2,0,P|355:319|345:346,1,63.7499991893769,8|2,1:2|0:2,0:0:0:0:
265,361,52620,2,0,L|201:356,1,63.7499991893769,10|2,1:2|0:2,0:0:0:0:
132,299,52973,2,0,P|124:268|130:236,1,63.7499991893769,10|2,1:2|0:2,0:0:0:0:
205,188,53326,2,0,L|268:183,1,63.7499991893769,10|0,1:2|0:2,0:0:0:0:
341,131,53679,2,0,P|346:99|339:68,1,63.7499991893769,8|0,1:2|0:2,0:0:0:0:
270,11,54032,5,10,1:2:0:0:
270,11,54208,1,10,1:2:0:0:
234,92,54384,1,10,1:2:0:0:
234,92,54561,1,10,1:2:0:0:
197,173,54737,1,10,1:2:0:0:
197,173,54914,1,10,1:2:0:0:
233,254,55090,1,10,1:2:0:0:
233,254,55267,1,10,1:2:0:0:
68,50,55796,6,0,L|60:142,1,74.9999976158143,2|2,0:2|0:2,0:0:0:0:
122,191,56149,2,0,P|157:200|194:191,1,74.9999976158143,2|2,0:2|0:2,0:0:0:0:
276,154,56502,2,0,P|312:145|348:154,1,74.9999976158143,2|2,0:2|0:2,0:0:0:0:
422,206,56855,2,0,L|430:298,1,74.9999976158143,6|0,1:2|0:2,0:0:0:0:
379,356,57208,6,0,L|304:349,1,74.9999976158143,2|0,0:2|0:2,0:0:0:0:
214,345,57561,2,0,L|139:351,1,74.9999976158143,10|0,0:2|0:2,0:0:0:0:
54,319,57914,2,0,L|128:312,1,74.9999976158143,2|0,1:2|0:2,0:0:0:0:
219,308,58267,2,0,L|293:314,1,74.9999976158143,2|0,0:2|1:2,0:0:0:0:
377,280,58620,2,0,L|302:273,1,74.9999976158143,2|0,1:2|0:2,0:0:0:0:
212,269,58973,2,0,L|137:275,1,74.9999976158143,10|0,0:2|1:2,0:0:0:0:
83,202,59326,1,2,0:2:0:0:
83,202,59502,1,2,0:2:0:0:
115,117,59679,6,0,B|152:135|152:135|249:118,1,112.499996423721,2|0,1:2|0:0,0:0:0:0:
266,111,60032,1,2,0:2:0:0:
266,111,60208,1,2,0:2:0:0:
300,193,60384,1,10,0:2:0:0:
300,193,60561,1,2,0:2:0:0:
262,275,60737,2,0,P|251:315|265:354,1,74.9999976158143,2|2,1:2|0:2,0:0:0:0:
344,377,61090,2,0,L|472:367,1,112.499996423721,2|0,0:2|0:0,0:0:0:0:
476,327,61443,5,2,1:2:0:0:
476,327,61620,1,2,0:2:0:0:
446,242,61796,1,10,0:2:0:0:
446,242,61973,1,2,0:2:0:0:
468,155,62149,1,2,1:2:0:0:
468,155,62326,1,2,0:2:0:0:
426,75,62502,2,0,L|351:68,1,74.9999976158143,0|0,1:2|3:2,0:0:0:0:
270,107,62855,6,0,P|259:148|271:187,1,74.9999976158143,2|0,3:2|1:2,0:0:0:0:
297,265,63208,2,0,P|304:301|293:336,1,74.9999976158143,10|0,0:2|0:2,0:0:0:0:
210,373,63561,2,0,P|169:384|130:372,1,74.9999976158143,2|0,1:2|0:2,0:0:0:0:
70,317,63914,2,0,P|62:280|73:245,1,74.9999976158143,2|0,0:2|1:2,0:0:0:0:
144,188,64267,2,0,P|185:177|224:189,1,74.9999976158143,2|0,1:2|0:2,0:0:0:0:
293,231,64620,2,0,P|366:249|402:229,1,112.499996423721,10|0,0:2|0:0,0:0:0:0:
424,198,64973,1,2,0:2:0:0:
424,198,65149,1,2,0:2:0:0:
346,150,65326,6,0,L|239:156,1,74.9999976158143,2|0,1:2|0:2,0:0:0:0:
201,96,65679,1,2,0:2:0:0:
201,96,65855,1,2,0:2:0:0:
273,42,66032,1,10,0:2:0:0:
273,42,66208,1,2,0:2:0:0:
189,8,66384,1,2,1:2:0:0:
189,8,66561,1,2,0:2:0:0:
117,63,66737,2,0,P|95:120|126:186,1,112.499996423721,2|0,0:2|0:0,0:0:0:0:
132,206,67090,6,0,B|171:220|171:220|204:215,1,74.9999976158143,0|0,1:2|0:2,0:0:0:0:
293,199,67443,2,0,B|301:238|301:238|294:275,1,74.9999976158143,8|2,0:2|0:2,0:0:0:0:
239,343,67796,2,0,B|204:357|204:357|166:352,1,74.9999976158143,2|0,1:2|3:2,0:0:0:0:
104,286,68149,6,0,L|113:112,1,149.999995231629,6|0,1:2|0:0,0:0:0:0:
174,71,68679,1,0,0:2:0:0:
229,141,68855,2,0,P|274:162|342:137,1,112.499996423721,8|0,0:2|0:0,0:0:0:0:
367,116,69208,2,0,L|362:37,1,74.9999976158143,2|2,1:2|0:2,0:0:0:0:
280,2,69561,5,2,0:2:0:0:
209,57,69737,2,0,P|159:68|127:57,1,74.9999976158143,2|0,1:2|1:2,0:0:0:0:
58,18,70090,1,2,0:2:0:0:
54,108,70267,2,0,L|48:197,1,74.9999976158143,10|0,0:2|1:2,0:0:0:0:
92,261,70620,2,0,L|181:255,1,74.9999976158143,2|0,0:2|0:2,0:0:0:0:
247,217,70973,6,0,P|304:242|284:330,1,149.999995231629,2|0,1:2|0:0,0:0:0:0:
221,367,71502,1,0,0:2:0:0:
188,283,71679,2,0,L|192:149,1,112.499996423721,8|0,0:2|0:0,0:0:0:0:
212,130,72032,2,0,L|207:55,1,74.9999976158143,2|2,1:2|0:2,0:0:0:0:
129,10,72384,1,2,0:2:0:0:
121,99,72561,2,0,L|116:173,1,74.9999976158143,2|0,1:2|1:2,0:0:0:0:
159,253,72914,1,2,0:0:0:0:
240,214,73090,2,0,P|292:205|319:217,1,74.9999976158143,10|2,0:2|0:2,0:0:0:0:
386,262,73443,1,2,0:2:0:0:
240,368,73796,5,2,1:2:0:0:
208,283,73973,2,0,L|212:235,1,37.4999988079071,0|0,3:2|3:2,0:0:0:0:
219,201,74149,2,0,L|215:153,1,37.4999988079071,0|0,3:2|3:2,0:0:0:0:
210,118,74326,1,0,1:2:0:0:
155,46,74502,2,0,P|115:23|49:42,1,112.499996423721,8|0,0:2|0:0,0:0:0:0:
31,77,74855,2,0,L|24:163,1,74.9999976158143,2|2,1:2|0:2,0:0:0:0:
77,224,75208,5,2,0:0:0:0:
154,178,75384,2,0,P|196:169|236:183,1,74.9999976158143,2|0,1:2|1:0,0:0:0:0:
302,225,75737,1,2,0:0:0:0:
226,273,75914,2,0,L|151:266,1,74.9999976158143,10|0,0:0|1:0,0:0:0:0:
147,357,76267,2,0,L|221:350,1,74.9999976158143,2|0,0:0|0:0,0:0:0:0:
311,344,76620,1,0,1:2:0:0:
311,344,76708,1,0,3:2:0:0:
311,344,76796,1,0,3:2:0:0:
284,257,76973,5,2,0:2:0:0:
284,257,77149,1,2,0:2:0:0:
314,172,77326,1,10,0:2:0:0:
314,172,77502,1,2,0:2:0:0:
282,87,77679,1,2,1:2:0:0:
282,87,77855,1,2,0:2:0:0:
338,17,78032,2,0,P|372:6|418:20,1,74.9999976158143,2|0,0:2|1:2,0:0:0:0:
468,82,78384,6,0,L|462:162,1,74.9999976158143,2|0,1:2|0:0,0:0:0:0:
457,246,78737,2,0,L|463:326,1,74.9999976158143,2|0,0:2|0:0,0:0:0:0:
383,365,79090,2,0,L|303:359,1,74.9999976158143,2|0,0:2|0:0,0:0:0:0:
218,351,79443,1,2,0:2:0:0:
