osu file format v14

[General]
AudioFilename: audio.mp3
AudioLeadIn: 0
PreviewTime: 55620
Countdown: 0
SampleSet: Soft
StackLeniency: 0.7
Mode: 0
LetterboxInBreaks: 0
WidescreenStoryboard: 0

[Editor]
DistanceSpacing: 2.2
BeatDivisor: 4
GridSize: 4
TimelineZoom: 2.3

[Metadata]
Title:POP/STARS
TitleUnicode:POP/STARS
Artist:Will Stetson
ArtistUnicode:Will Stetson
Creator:Sotarks
Version:Extra
Source:League of Legends
Tags:Jaira Burns (G)I-DLE Madison Beer K/DA kpop k-pop pop english korean popstar popstars kda kaisa riot games worlds 2018 miyeon soyeon (여자)아이들 gidle g_idle akali evelynn ahri lol videogame kujinn reform snownino_ akitoshi corinn -laura- nikakis dictate
BeatmapID:1915794
BeatmapSetID:917345

[Difficulty]
HPDrainRate:5.2
CircleSize:4
OverallDifficulty:9
ApproachRate:9.2
SliderMultiplier:1.92
SliderTickRate:1

[Events]
//Background and Video events
0,0,"bg.jpg",0,0
//Break Periods
//Storyboard Layer 0 (Background)
//Storyboard Layer 1 (Fail)
//Storyboard Layer 2 (Pass)
//Storyboard Layer 3 (Foreground)
//Storyboard Sound Samples

[TimingPoints]
385,705.882352941176,4,2,22,52,1,0
6032,-108.695652173913,4,2,22,52,0,0
11679,-81.9672131147541,4,2,22,62,0,0
22973,-75.7575757575758,4,2,22,72,0,0
34267,-121.951219512195,4,2,22,42,0,0
42384,-161.290322580645,4,2,22,42,0,0
44149,-121.951219512195,4,2,22,42,0,0
45561,-70.4225352112676,4,2,22,72,0,0
55796,-70.4225352112676,4,2,22,52,0,0
56855,-49.5049504950495,4,2,22,82,0,0
68149,-45.045045045045,4,2,22,92,0,0
78384,-45.045045045045,4,2,22,62,0,0

[Colours]
Combo1 : 255,150,6
Combo2 : 255,17,196
Combo3 : 184,51,255
Combo4 : 141,113,255

[HitObjects]
73,289,6032,5,2,3:2:0:0:
174,132,6208,1,2,0:2:0:0:
213,254,6384,1,2,0:2:0:0:
86,201,6561,1,2,0:2:0:0:
213,254,6737,2,0,B|297:244|252:208|352:201,1,132.479995552735,2|0,0:2|0:2,0:0:0:0:
451,319,7443,5,2,0:2:0:0:
407,155,7620,1,2,0:2:0:0:
334,288,7796,1,2,0:2:0:0:
290,124,7973,1,2,0:2:0:0:
334,288,8149,2,0,P|319:347|317:380,1,88.3199970351563,2|0,0:2|0:2,0:0:0:0:
242,253,8679,5,2,0:2:0:0:
407,155,8855,1,2,0:2:0:0:
209,97,9032,1,2,0:2:0:0:
327,207,9208,1,2,0:2:0:0:
165,297,9384,1,2,0:2:0:0:
308,127,9561,2,0,P|315:71|312:56,1,44.1599985175782,2|0,0:2|0:2,0:0:0:0:
234,209,9914,2,0,P|235:230|241:252,1,44.1599985175782,2|0,0:2|0:2,0:0:0:0:
120,54,10267,5,2,3:2:0:0:
327,212,10443,1,2,3:2:0:0:
72,304,10620,1,2,3:2:0:0:
120,54,10796,1,2,3:2:0:0:
327,212,10972,1,2,3:2:0:0:
120,54,11326,5,2,0:2:0:0:
309,305,11679,6,0,P|382:288|388:283,1,58.5599975874024,0|0,1:2|3:2,0:0:0:0:
283,126,12032,1,2,3:2:0:0:
214,315,12208,1,2,3:2:0:0:
187,94,12384,1,10,0:2:0:0:
296,272,12561,1,2,0:2:0:0:
320,50,12737,1,2,1:2:0:0:
205,220,12914,1,2,0:2:0:0:
124,36,13090,2,0,P|51:53|45:58,1,58.5599975874024,2|0,0:2|1:2,0:0:0:0:
287,162,13443,5,2,1:2:0:0:
82,210,13620,1,2,0:2:0:0:
338,230,13796,1,10,0:2:0:0:
100,177,13973,1,2,0:2:0:0:
359,106,14149,1,2,0:2:0:0:
182,235,14326,1,2,0:2:0:0:
393,291,14502,2,0,P|466:274|472:269,1,58.5599975874024,2|0,1:2|0:2,0:0:0:0:
234,90,14855,5,2,0:2:0:0:
286,294,15032,1,2,0:2:0:0:
378,64,15208,1,10,0:2:0:0:
301,251,15384,1,2,0:2:0:0:
217,60,15561,2,0,P|144:77|138:82,1,58.5599975874024,2|0,1:2|0:2,0:0:0:0:
389,197,15914,5,2,0:2:0:0:
152,148,16090,1,0,1:2:0:0:
402,89,16267,5,2,1:2:0:0:
138,256,16443,1,0,0:2:0:0:
423,218,16620,5,10,0:2:0:0:
159,67,16796,1,0,0:2:0:0:
253,302,16973,1,2,0:2:0:0:
253,302,17326,6,0,P|260:236|270:217,1,58.5599975874024,0|0,1:2|3:2,0:0:0:0:
395,52,17679,1,2,3:2:0:0:
208,173,17855,1,2,3:2:0:0:
486,265,18032,1,10,0:2:0:0:
380,98,18208,1,2,0:2:0:0:
313,325,18384,1,2,1:2:0:0:
439,189,18561,1,2,0:2:0:0:
223,86,18737,2,0,P|150:103|144:108,1,58.5599975874024,2|0,0:2|1:2,0:0:0:0:
208,315,19090,5,2,1:2:0:0:
366,137,19267,1,2,0:2:0:0:
122,197,19443,1,10,0:2:0:0:
293,232,19620,1,2,1:2:0:0:
228,2,19796,1,2,0:2:0:0:
134,162,19973,1,2,0:2:0:0:
354,50,20149,2,0,P|427:67|433:72,1,58.5599975874024,2|0,1:2|3:2,0:0:0:0:
430,79,20414,1,0,3:2:0:0:
430,79,20502,5,2,3:2:0:0:
231,157,20679,1,2,3:2:0:0:
455,302,20855,1,10,0:2:0:0:
376,176,21032,1,2,0:2:0:0:
199,323,21208,2,0,P|155:343|121:345,1,58.5599975874024,2|0,1:2|0:2,0:0:0:0:
194,67,21561,5,2,3:2:0:0:
296,303,21737,1,0,1:2:0:0:
285,29,21914,5,2,1:2:0:0:
127,227,22090,1,0,3:2:0:0:
392,174,22267,5,10,0:2:0:0:
163,45,22443,1,0,3:2:0:0:
296,303,22620,5,2,1:2:0:0:
407,83,22796,1,0,3:2:0:0:
127,227,22973,2,0,P|51:239|26:228,1,63.3599998066406,6|0,1:2|0:2,0:0:0:0:
195,69,23326,5,2,0:2:0:0:
311,242,23502,2,0,P|285:314|264:331,1,63.3599998066406,2|8,0:2|0:2,0:0:0:0:
200,169,23855,1,0,0:2:0:0:
371,91,24032,1,2,1:2:0:0:
311,242,24208,1,2,0:2:0:0:
195,69,24384,6,0,P|182:16|182:-1,1,63.3599998066406,2|0,0:2|1:2,0:0:0:0:
371,91,24737,2,0,P|367:122|357:152,1,63.3599998066406,2|0,1:2|0:2,0:0:0:0:
158,281,25090,1,10,0:2:0:0:
198,194,25267,2,0,B|277:195|235:248|341:242,1,126.719999613281,0|0,1:2|0:2,0:0:0:0:
401,68,25796,5,0,1:2:0:0:
451,251,25973,1,0,0:2:0:0:
283,120,26149,1,2,0:2:0:0:
274,336,26326,2,0,P|203:360|182:355,1,63.3599998066406,2|8,0:2|0:2,0:0:0:0:
300,144,26679,1,0,0:2:0:0:
144,284,26855,2,0,P|113:276|86:259,1,63.3599998066406,2|0,1:2|0:2,0:0:0:0:
171,63,27208,5,2,0:2:0:0:
246,251,27384,1,2,1:2:0:0:
311,41,27561,2,0,P|378:21|391:24,1,63.3599998066406,2|0,1:2|0:2,0:0:0:0:
330,252,27914,2,0,P|298:247|271:231,1,63.3599998066406,10|0,0:2|0:2,0:0:0:0:
433,98,28267,2,0,P|456:164|454:176,1,63.3599998066406,0|0,0:2|0:2,0:0:0:0:
243,135,28620,5,0,1:2:0:0:
419,249,28796,1,0,3:2:0:0:
172,320,28973,1,2,3:2:0:0:
352,181,29149,1,2,3:2:0:0:
165,66,29326,1,10,0:2:0:0:
241,245,29502,1,2,0:2:0:0:
383,55,29679,1,2,1:2:0:0:
217,149,29855,1,2,0:2:0:0:
419,249,30032,2,0,P|484:239|496:232,1,63.3599998066406,2|0,0:2|1:2,0:0:0:0:
290,71,30384,5,2,1:2:0:0:
229,281,30561,1,2,0:2:0:0:
149,42,30737,2,0,P|84:52|72:59,1,63.3599998066406,10|0,0:2|1:2,0:0:0:0:
236,253,31090,1,2,0:2:0:0:
297,43,31267,1,2,0:2:0:0:
385,213,31443,1,2,1:2:0:0:
385,213,31532,1,0,3:2:0:0:
385,213,31620,1,0,3:2:0:0:
176,131,31796,5,2,3:2:0:0:
384,52,31973,1,2,3:2:0:0:
251,227,32149,1,10,0:2:0:0:
297,43,32326,1,2,0:2:0:0:
406,235,32502,1,2,1:2:0:0:
274,133,32679,1,2,0:2:0:0:
212,364,32855,5,2,3:2:0:0:
158,86,33032,1,0,1:2:0:0:
80,261,33208,5,2,1:2:0:0:
204,5,33385,1,0,1:2:0:0:
328,238,33561,5,10,0:2:0:0:
88,23,33737,1,0,3:2:0:0:
382,125,33914,5,2,1:2:0:0:
51,279,34090,1,0,3:2:0:0:
249,109,34267,6,0,B|150:120|215:172|87:180,1,157.440002402344,4|0,1:2|0:2,0:0:0:0:
42,129,35149,2,0,P|30:85|24:75,2,39.3600006005859,2|2|2,0:2|0:2|0:2,0:0:0:0:
32,220,35679,2,0,P|26:235|22:258,1,39.3600006005859,2|0,0:2|0:2,0:0:0:0:
128,294,36032,2,0,P|124:274|118:255,1,39.3600006005859,2|0,0:2|0:2,0:0:0:0:
202,206,36384,2,0,P|208:224|211:244,1,39.3600006005859,2|0,3:2|0:2,0:0:0:0:
209,340,36737,1,2,0:2:0:0:
305,100,37090,6,0,P|363:65|446:87,1,157.440002402344,0|0,0:2|0:2,0:0:0:0:
468,174,37973,2,0,P|460:222|460:234,2,39.3600006005859,2|2|2,0:2|0:2|0:2,0:0:0:0:
371,197,38502,2,0,P|319:210|303:208,1,39.3600006005859,2|0,0:2|0:2,0:0:0:0:
269,136,38855,2,0,P|217:123|201:125,1,39.3600006005859,2|0,0:2|0:2,0:0:0:0:
159,188,39208,1,2,3:2:0:0:
32,46,39561,1,2,0:2:0:0:
60,130,39737,1,2,0:2:0:0:
120,62,39914,6,0,B|222:47|167:102|296:83,1,157.440002402344,0|0,0:2|0:2,0:0:0:0:
344,25,40796,2,0,P|356:72|368:91,1,39.3600006005859,2|0,0:2|0:2,0:0:0:0:
415,124,41149,1,2,0:2:0:0:
415,124,41326,2,0,P|403:171|391:190,1,39.3600006005859,2|0,0:2|0:2,0:0:0:0:
340,222,41679,2,0,P|352:269|364:288,1,39.3600006005859,2|0,0:2|0:2,0:0:0:0:
390,338,42032,1,2,3:2:0:0:
222,248,42384,2,0,P|191:173|233:101,1,148.79999409668,2|0,0:2|0:2,0:0:0:0:
217,115,43620,5,2,0:2:0:0:
144,167,43796,1,2,0:2:0:0:
228,206,43973,1,2,0:2:0:0:
152,255,44149,2,0,P|106:256|95:251,1,39.3600006005859,2|0,0:2|0:2,0:0:0:0:
227,301,44502,2,0,P|273:300|284:305,1,39.3600006005859,2|0,0:2|0:2,0:0:0:0:
356,353,44855,2,0,P|382:303|383:259,1,78.7200012011719,2|2,3:2|0:2,0:0:0:0:
348,201,45384,1,2,0:2:0:0:
457,66,45561,6,0,P|385:100|299:89,1,136.319993135743,12|0,0:2|0:2,0:0:0:0:
103,34,46090,1,8,0:2:0:0:
214,131,46267,2,0,P|146:151|131:165,1,68.1599965678713,0|2,1:2|0:2,0:0:0:0:
339,315,46620,2,0,P|271:295|256:281,1,68.1599965678713,10|0,1:2|0:2,0:0:0:0:
363,45,46973,6,0,P|376:132|390:185,1,136.319993135743,10|2,1:2|0:2,0:0:0:0:
373,355,47502,1,10,0:2:0:0:
261,148,47679,2,0,P|256:218|248:239,1,68.1599965678713,2|0,1:2|0:2,0:0:0:0:
105,75,48032,2,0,P|110:145|118:166,1,68.1599965678713,10|0,0:2|0:2,0:0:0:0:
334,27,48384,6,0,P|408:8|474:96,1,136.319993135743,8|0,1:2|0:2,0:0:0:0:
468,188,48914,1,8,0:2:0:0:
275,105,49090,2,0,P|209:81|177:87,1,68.1599965678713,0|2,1:2|0:2,0:0:0:0:
369,270,49443,2,0,P|303:294|271:288,1,68.1599965678713,10|2,0:2|0:2,0:0:0:0:
99,136,49796,5,10,1:2:0:0:
161,282,49973,1,2,0:2:0:0:
203,57,50149,1,2,0:2:0:0:
265,203,50326,1,10,0:2:0:0:
35,75,50502,2,0,P|11:138|13:154,1,68.1599965678713,2|0,1:2|0:2,0:0:0:0:
179,319,50855,1,10,0:2:0:0:
311,41,51032,1,10,0:2:0:0:
181,175,51208,5,8,1:2:0:0:
339,132,51384,1,2,0:2:0:0:
119,121,51561,5,10,1:2:0:0:
352,169,51737,1,0,0:2:0:0:
106,207,51914,5,10,1:2:0:0:
413,97,52090,1,0,0:2:0:0:
89,95,52267,5,8,1:2:0:0:
277,264,52443,1,2,0:2:0:0:
275,24,52620,5,10,1:2:0:0:
123,291,52796,1,2,0:2:0:0:
186,58,52973,5,10,1:2:0:0:
297,303,53149,1,2,0:2:0:0:
360,41,53326,5,10,1:2:0:0:
178,221,53502,1,0,0:2:0:0:
379,63,53679,2,0,P|395:147|393:167,1,68.1599965678713,8|0,1:2|0:2,0:0:0:0:
161,304,54032,5,10,1:2:0:0:
276,28,54208,1,10,1:2:0:0:
466,266,54384,1,10,1:2:0:0:
85,184,54561,1,10,1:2:0:0:
413,43,54737,1,10,1:2:0:0:
325,369,54914,1,8,1:2:0:0:
99,83,55090,1,10,1:2:0:0:
503,104,55267,1,8,1:2:0:0:
220,195,55796,5,2,0:2:0:0:
268,99,55973,1,2,0:2:0:0:
335,180,56149,1,2,0:2:0:0:
220,195,56326,1,2,0:2:0:0:
355,84,56502,1,2,0:2:0:0:
288,268,56679,1,2,0:2:0:0:
183,117,56855,2,0,P|160:57|173:-12,1,96.9599980766602,6|0,1:2|0:2,0:0:0:0:
430,166,57208,6,0,P|428:214|407:257,1,96.9599980766602,2|0,0:2|0:2,0:0:0:0:
157,210,57561,2,0,P|105:172|78:107,1,96.9599980766602,10|0,0:2|0:2,0:0:0:0:
390,116,57914,2,0,P|414:157|421:205,1,96.9599980766602,2|0,1:2|0:2,0:0:0:0:
205,283,58267,2,0,P|142:296|76:272,1,96.9599980766602,2|0,0:2|1:2,0:0:0:0:
291,46,58620,2,0,P|338:55|378:82,1,96.9599980766602,2|0,1:2|0:2,0:0:0:0:
299,323,58973,2,0,P|255:370|188:390,1,96.9599980766602,10|0,0:2|1:2,0:0:0:0:
183,117,59326,5,2,0:2:0:0:
356,203,59502,1,2,0:2:0:0:
157,210,59679,2,0,P|114:186|85:148,1,96.9599980766602,2|0,1:2|0:2,0:0:0:0:
384,100,60032,5,2,0:2:0:0:
246,302,60208,1,2,0:2:0:0:
140,35,60384,1,10,0:2:0:0:
356,203,60561,1,2,0:2:0:0:
79,137,60737,1,2,1:2:0:0:
394,64,60914,1,2,0:2:0:0:
135,277,61090,2,0,P|38:299|12:294,1,96.9599980766602,2|0,0:2|1:2,0:0:0:0:
255,83,61443,5,2,1:2:0:0:
292,306,61620,1,2,0:2:0:0:
322,17,61796,1,10,0:2:0:0:
370,246,61972,1,2,0:2:0:0:
164,37,62149,1,2,1:2:0:0:
157,259,62326,1,2,0:2:0:0:
350,41,62502,2,0,P|431:100|435:122,1,96.9599980766602,0|0,1:2|3:2,0:0:0:0:
157,259,62855,6,0,P|76:200|72:178,1,96.9599980766602,2|0,3:2|1:2,0:0:0:0:
455,159,63208,2,0,P|470:257|457:276,1,96.9599980766602,10|0,0:2|0:2,0:0:0:0:
164,176,63561,2,0,P|148:77|161:58,1,96.9599980766602,2|0,1:2|0:2,0:0:0:0:
440,307,63914,2,0,P|381:388|359:392,1,96.9599980766602,2|0,0:2|1:2,0:0:0:0:
222,113,64267,2,0,P|281:31|303:27,1,96.9599980766602,2|0,1:2|0:2,0:0:0:0:
289,378,64620,2,0,P|181:361|158:332,1,96.9599980766602,10|0,0:2|0:2,0:0:0:0:
319,120,64973,5,2,0:2:0:0:
441,303,65149,1,2,0:2:0:0:
222,113,65326,2,0,P|281:31|303:27,1,96.9599980766602,2|0,1:2|0:2,0:0:0:0:
258,305,65679,5,2,0:2:0:0:
120,106,65855,1,2,0:2:0:0:
386,214,66032,1,10,0:2:0:0:
111,319,66208,1,2,0:2:0:0:
319,120,66384,1,2,1:2:0:0:
235,380,66561,1,2,0:2:0:0:
42,172,66737,2,0,P|31:68|41:51,1,96.9599980766602,2|0,0:2|1:2,0:0:0:0:
240,209,67090,6,0,P|249:241|251:270,1,48.4799990383301,0|0,1:2|0:2,0:0:0:0:
144,193,67267,2,0,P|147:169|154:145,1,48.4799990383301,0|0,0:2|0:2,0:0:0:0:
272,117,67443,6,0,L|329:100,1,48.4799990383301,8|0,0:2|0:2,0:0:0:0:
114,287,67620,2,0,L|57:270,1,48.4799990383301,2|0,0:2|0:2,0:0:0:0:
182,63,67796,1,2,1:2:0:0:
399,243,67973,1,0,3:2:0:0:
399,243,68061,1,0,3:2:0:0:
399,243,68149,6,0,B|215:241|319:372|115:381,1,319.680007804688,6|0,1:2|0:2,0:0:0:0:
144,143,68855,2,0,P|195:243|194:257,1,106.560002601563,8|0,0:2|0:2,0:0:0:0:
325,88,69208,1,2,1:2:0:0:
352,342,69384,1,2,0:2:0:0:
460,126,69561,5,2,0:2:0:0:
460,126,69737,2,0,P|349:179|333:179,1,106.560002601563,2|0,1:2|1:2,0:0:0:0:
129,42,70090,1,2,0:2:0:0:
129,42,70267,2,0,P|178:59|220:92,1,106.560002601563,10|0,0:2|1:2,0:0:0:0:
325,304,70620,1,2,0:2:0:0:
336,51,70796,1,0,0:2:0:0:
120,340,70973,6,0,P|31:212|161:139,1,319.680007804688,2|0,1:2|0:2,0:0:0:0:
327,266,71679,2,0,P|434:268|441:263,1,106.560002601563,8|0,0:2|0:2,0:0:0:0:
336,51,72032,1,2,1:2:0:0:
232,296,72208,1,2,0:2:0:0:
188,37,72384,5,2,0:2:0:0:
188,37,72561,2,0,P|225:119|228:151,1,106.560002601563,2|0,1:2|1:2,0:0:0:0:
232,296,72914,1,2,0:0:0:0:
131,117,73090,1,10,0:2:0:0:
353,239,73267,1,2,0:2:0:0:
114,210,73443,1,2,0:2:0:0:
452,34,73796,5,2,1:2:0:0:
304,147,73973,1,0,3:2:0:0:
277,141,74061,1,0,3:2:0:0:
251,133,74149,2,0,L|174:114,1,53.2800013007813,0|0,3:2|3:2,0:0:0:0:
353,239,74326,2,0,L|430:220,1,53.2800013007813,0|0,1:2|0:2,0:0:0:0:
266,338,74502,2,0,L|138:312,1,106.560002601563,8|0,0:2|0:2,0:0:0:0:
135,60,74855,5,2,1:2:0:0:
222,240,75032,1,2,0:2:0:0:
333,34,75208,1,2,0:0:0:0:
333,34,75384,2,0,P|442:9|456:16,1,106.560002601563,2|0,1:2|1:0,0:0:0:0:
134,162,75737,1,2,0:0:0:0:
134,162,75914,2,0,P|39:102|34:87,1,106.560002601563,10|0,0:0|1:0,0:0:0:0:
282,157,76267,2,0,P|321:273|315:288,1,106.560002601563,2|0,0:0|0:0,0:0:0:0:
70,244,76620,1,0,1:2:0:0:
70,244,76708,1,0,3:2:0:0:
70,244,76796,1,0,3:2:0:0:
188,35,76973,5,2,0:2:0:0:
265,334,77149,1,2,0:2:0:0:
439,55,77326,1,10,0:2:0:0:
150,206,77502,1,2,0:2:0:0:
448,323,77679,1,2,1:2:0:0:
280,71,77855,1,2,0:2:0:0:
154,345,78032,2,0,P|43:355|31:348,1,106.560002601563,2|0,0:2|1:2,0:0:0:0:
218,131,78384,5,2,1:2:0:0:
265,215,78737,1,2,0:2:0:0:
226,297,79090,1,2,0:2:0:0:
273,381,79443,1,2,0:2:0:0:
