osu file format v14

[General]
AudioFilename: audio.mp3
AudioLeadIn: 0
PreviewTime: 275894
Countdown: 0
SampleSet: Soft
StackLeniency: 0.3
Mode: 0
LetterboxInBreaks: 0
WidescreenStoryboard: 0

[Editor]
Bookmarks: 46503,76503,121503,151503,171503,196503,226503,251503,255565,256034,261503,296503,316503
DistanceSpacing: 1.7
BeatDivisor: 4
GridSize: 32
TimelineZoom: 2.599999

[Metadata]
Title:ODDS&ENDS
TitleUnicode:ODDS&ENDS
Artist:Will Stetson
ArtistUnicode:Will Stetson
Creator:Kalibe
Version:Our Voice
Source:初音ミク -Project DIVA- f
Tags:vocaloid hatsune miku collab collaboration toybot cover english supercell ryo project diva
BeatmapID:1587272
BeatmapSetID:753955

[Difficulty]
HPDrainRate:5.5
CircleSize:4.2
OverallDifficulty:8.7
ApproachRate:9.3
SliderMultiplier:1.79
SliderTickRate:1

[Events]
//Background and Video events
0,0,"niceu.jpg",0,0
//Break Periods
2,251710,260332
//Storyboard Layer 0 (Background)
//Storyboard Layer 1 (Fail)
//Storyboard Layer 2 (Pass)
//Storyboard Layer 3 (Foreground)
//Storyboard Sound Samples

[TimingPoints]
1503,312.5,4,2,1,50,1,0
1503,-200,4,2,1,50,0,0
10174,-200,4,2,1,5,0,0
10253,-200,4,2,1,50,0,0
11503,-133.333333333333,4,2,1,40,0,0
32440,-200,4,2,1,40,0,0
34628,-200,4,2,1,20,0,0
34784,-153.846153846153,4,2,1,40,0,0
36268,-153.846153846153,4,2,1,5,0,0
36346,-153.846153846153,4,2,2,50,0,0
46503,-133.333333333333,4,2,1,50,0,0
55096,-200,4,2,1,50,0,0
56503,-133.333333333333,4,2,1,50,0,0
64003,-100,4,2,1,55,0,0
64706,-100,4,2,1,5,0,0
64784,-100,4,2,1,55,0,0
66503,-200,4,2,1,50,0,0
75878,-133.333333333333,4,2,1,50,0,0
76424,-133.333333333333,4,2,1,5,0,0
76503,-125,4,2,1,50,0,0
86190,-200,4,2,1,50,0,0
86503,-111.111111111111,4,2,1,55,0,0
87674,-111.111111111111,4,2,1,5,0,0
87753,-111.111111111111,4,2,1,55,0,0
91424,-111.111111111111,4,2,1,5,0,0
91503,-111.111111111111,4,2,1,55,0,0
93065,-100,4,2,1,60,0,0
94003,-111.111111111111,4,2,1,55,0,0
95430,312.5,4,2,1,55,1,0
95430,-111.111111111111,4,2,1,55,0,0
95586,312.5,4,2,1,55,1,0
96523,312.5,4,2,1,55,1,0
96523,-133.333333333333,4,2,1,55,0,0
100738,312.5,4,2,1,55,1,0
100738,-133.333333333333,4,2,1,55,0,0
101519,312.5,4,2,1,55,1,0
101519,-133.333333333333,4,2,1,55,0,0
106206,-83.3333333333333,4,2,1,65,0,0
106362,-125,4,2,1,55,0,0
108862,-100,4,2,1,55,0,0
109175,-125,4,2,1,55,0,0
111519,-117.647058823529,4,2,1,60,0,0
116362,-100,4,2,1,65,0,0
120894,-83.3333333333333,4,2,1,60,0,0
121050,-117.647058823529,4,2,1,50,0,0
121284,-117.647058823529,4,2,1,5,0,0
121362,-100,4,2,1,40,0,0
121519,-83.3333333333333,4,2,1,70,0,1
122769,-111.111111111111,4,2,1,70,0,1
124019,-83.3333333333333,4,2,1,70,0,1
125269,-100,4,2,1,70,0,1
126519,-66.6666666666667,4,2,1,70,0,1
126753,-66.6666666666667,4,2,1,5,0,1
126831,-100,4,2,1,70,0,1
127769,-71.4285714285714,4,2,1,70,0,1
128003,-71.4285714285714,4,2,1,5,0,1
128081,-71.4285714285714,4,2,1,70,0,1
128394,-83.3333333333333,4,2,1,70,0,1
129019,-71.4285714285714,4,2,1,70,0,1
129253,-71.4285714285714,4,2,1,5,0,1
129331,-71.4285714285714,4,2,1,70,0,1
129878,-71.4285714285714,4,2,1,5,0,1
129956,-71.4285714285714,4,2,1,70,0,1
130269,-90.9090909090909,4,2,1,70,0,1
131440,-90.9090909090909,4,2,1,5,0,1
131519,-83.3333333333333,4,2,1,70,0,1
132769,-111.111111111111,4,2,1,70,0,1
134019,-83.3333333333333,4,2,1,70,0,1
135269,-100,4,2,1,70,0,1
137612,-83.3333333333333,4,2,1,70,0,1
138237,-111.111111111111,4,2,1,70,0,1
139019,-71.4285714285714,4,2,1,70,0,1
139253,-71.4285714285714,4,2,1,5,0,1
139331,-71.4285714285714,4,2,1,70,0,1
139878,-71.4285714285714,4,2,1,5,0,1
139956,-71.4285714285714,4,2,1,70,0,1
141519,-100,4,2,1,70,0,1
146206,-83.3333333333333,4,2,1,70,0,1
146440,-83.3333333333333,4,2,1,5,0,1
146519,-142.857142857143,4,2,1,70,0,1
147144,-111.111111111111,4,2,1,70,0,1
147769,-90.9090909090909,4,2,1,70,0,1
148394,-76.9230769230769,4,2,1,70,0,1
151050,-111.111111111111,4,2,1,70,0,1
151440,-111.111111111111,4,2,1,5,0,1
151519,-133.333333333333,4,2,1,50,0,0
161519,-125,4,2,1,50,0,0
171050,-125,4,2,2,50,0,0
171206,-125,4,2,1,50,0,0
171519,-133.333333333333,4,2,1,55,0,0
181206,-83.3333333333333,4,2,1,50,0,0
181362,-125,4,2,1,50,0,0
186519,-125,4,2,1,60,0,0
189487,-111.111111111111,4,2,1,60,0,0
191362,-100,4,2,1,65,0,0
195894,-83.3333333333333,4,2,1,60,0,0
196050,-117.647058823529,4,2,1,50,0,0
196284,-117.647058823529,4,2,1,5,0,0
196362,-100,4,2,1,40,0,0
196519,-83.3333333333333,4,2,1,70,0,1
197769,-111.111111111111,4,2,1,70,0,1
199019,-83.3333333333333,4,2,1,70,0,1
200269,-100,4,2,1,70,0,1
201519,-66.6666666666667,4,2,1,70,0,1
201753,-66.6666666666667,4,2,1,5,0,1
201831,-100,4,2,1,70,0,1
202769,-71.4285714285714,4,2,1,70,0,1
203315,-71.4285714285714,4,2,1,5,0,1
203394,-83.3333333333333,4,2,1,70,0,1
204019,-71.4285714285714,4,2,1,70,0,1
204253,-71.4285714285714,4,2,1,5,0,1
204331,-71.4285714285714,4,2,1,70,0,1
204878,-71.4285714285714,4,2,1,5,0,1
204956,-71.4285714285714,4,2,1,70,0,1
206440,-71.4285714285714,4,2,1,5,0,1
206519,-83.3333333333333,4,2,1,70,0,1
207769,-111.111111111111,4,2,1,70,0,1
209019,-83.3333333333333,4,2,1,70,0,1
210269,-100,4,2,1,70,0,1
212612,-83.3333333333333,4,2,1,70,0,1
213237,-111.111111111111,4,2,1,70,0,1
214019,-71.4285714285714,4,2,1,70,0,1
214253,-71.4285714285714,4,2,1,5,0,1
214331,-71.4285714285714,4,2,1,70,0,1
214878,-71.4285714285714,4,2,1,5,0,1
214956,-71.4285714285714,4,2,1,70,0,1
216519,-100,4,2,1,70,0,1
221206,-83.3333333333333,4,2,1,70,0,1
221440,-83.3333333333333,4,2,1,5,0,1
221519,-142.857142857143,4,2,1,70,0,1
222144,-111.111111111111,4,2,1,70,0,1
222769,-90.9090909090909,4,2,1,70,0,1
223394,-76.9230769230769,4,2,1,70,0,1
226050,-142.857142857143,4,2,1,70,0,1
226440,-142.857142857143,4,2,1,5,0,1
226517,312.5,4,2,2,55,1,0
226517,-100,4,2,2,55,0,0
235267,-90.9090909090909,4,2,2,60,0,0
236517,-111.111111111111,4,2,1,55,0,0
241438,-111.111111111111,4,2,1,5,0,0
241517,-100,4,2,1,60,0,0
244011,312.5,4,2,1,60,1,0
244011,-100,4,2,1,60,0,0
244245,-100,4,2,1,5,0,0
244323,-100,4,2,1,60,0,0
244479,-100,4,2,1,60,0,0
244714,-100,4,2,1,5,0,0
244792,-100,4,2,1,60,0,0
244948,-83.3333333333333,4,2,1,50,0,0
246511,-500,4,2,1,50,0,0
246667,-500,4,2,2,30,0,0
249323,-500,4,2,2,40,0,0
251511,-500,4,2,1,30,0,0
260886,-200,4,2,2,45,0,0
261511,-142.857142857143,4,2,1,50,0,0
271511,-285.714285714286,4,2,1,40,0,0
272136,-285.714285714286,4,2,1,20,0,0
272761,-285.714285714286,4,2,1,40,0,0
273386,-285.714285714286,4,2,1,20,0,0
274011,-285.714285714286,4,2,1,40,0,0
274636,-285.714285714286,4,2,1,20,0,0
275261,-285.714285714286,4,2,1,40,0,0
276490,312.5,4,2,1,45,1,0
276490,-250,4,2,1,45,0,0
281514,312.5,4,2,1,45,1,0
281514,-250,4,2,1,45,0,0
282764,-250,4,2,1,45,0,0
283389,-250,4,2,1,35,0,0
284014,-250,4,2,1,25,0,0
284620,331.491712707182,4,2,1,25,1,0
284620,-250,4,2,1,45,0,0
285283,301.507537688442,4,2,1,55,1,0
285283,-250,4,2,1,55,0,0
285888,312.5,4,2,1,55,1,0
285888,-100,4,2,1,65,0,0
286513,312.5,4,2,1,45,1,0
286513,-250,4,2,1,45,0,0
295263,-250,4,2,1,20,0,0
295888,-500,4,2,1,45,0,0
296513,-83.3333333333333,4,2,1,70,0,1
297763,-111.111111111111,4,2,1,70,0,1
299013,-83.3333333333333,4,2,1,70,0,1
300263,-100,4,2,1,70,0,1
301513,-66.6666666666667,4,2,1,70,0,1
301747,-66.6666666666667,4,2,1,5,0,1
301825,-100,4,2,1,70,0,1
302763,-71.4285714285714,4,2,1,70,0,1
302997,-71.4285714285714,4,2,1,5,0,1
303075,-100,4,2,1,70,0,1
303934,-100,4,2,1,5,0,1
304013,-71.4285714285714,4,2,1,70,0,1
304247,-71.4285714285714,4,2,1,5,0,1
304325,-71.4285714285714,4,2,1,70,0,1
304872,-71.4285714285714,4,2,1,5,0,1
304950,-71.4285714285714,4,2,1,70,0,1
305263,-83.3333333333333,4,2,1,70,0,1
306434,-83.3333333333333,4,2,1,5,0,1
306513,-83.3333333333333,4,2,1,70,0,1
307763,-111.111111111111,4,2,1,70,0,1
309013,-83.3333333333333,4,2,1,70,0,1
310263,-100,4,2,1,70,0,1
312606,-83.3333333333333,4,2,1,70,0,1
313231,-111.111111111111,4,2,1,70,0,1
314013,-71.4285714285714,4,2,1,70,0,1
314247,-71.4285714285714,4,2,1,5,0,1
314325,-71.4285714285714,4,2,1,70,0,1
314872,-71.4285714285714,4,2,1,5,0,1
314950,-71.4285714285714,4,2,1,70,0,1
316513,-100,4,2,1,70,0,1
321513,-142.857142857143,4,2,1,70,0,1
321747,-142.857142857143,4,2,1,5,0,1
321825,-142.857142857143,4,2,1,70,0,1
322138,-111.111111111111,4,2,1,70,0,1
322372,-111.111111111111,4,2,1,5,0,1
322450,-111.111111111111,4,2,1,70,0,1
322763,-90.9090909090909,4,2,1,70,0,1
322997,-90.9090909090909,4,2,1,5,0,1
323075,-90.9090909090909,4,2,1,70,0,1
323388,-76.9230769230769,4,2,1,70,0,1
323622,-76.9230769230769,4,2,1,5,0,1
323700,-76.9230769230769,4,2,1,70,0,1
326513,-166.666666666667,4,2,1,60,0,0
326999,312.5,4,2,1,60,1,0
326999,-166.666666666667,4,2,1,60,0,0
327780,312.5,4,2,1,60,1,0
327780,-166.666666666667,4,2,1,60,0,0
328561,-83.3333333333334,4,2,1,70,0,1
328873,-200,4,2,1,70,0,0
329655,-200,4,2,1,35,0,0

[Colours]
Combo1 : 109,53,202
Combo2 : 113,113,255
Combo3 : 0,128,255
Combo4 : 167,91,191

[HitObjects]
256,192,7753,12,0,10174,0:0:0:0:
82,80,10253,5,2,0:0:0:0:
456,41,11503,5,2,3:0:0:0:
456,41,11659,1,0,3:0:0:0:
392,90,11815,2,0,P|378:58|378:13,1,67.1250025606156,2|0,0:0|0:0,0:0:0:0:
501,155,12128,6,0,P|435:163|390:211,1,134.250005121231,2|2,0:3|0:0,0:0:0:0:
176,31,12753,2,0,P|221:79|286:87,1,134.250005121231,2|0,0:3|0:0,0:0:0:0:
382,33,13221,1,0,0:0:0:0:
382,33,13378,2,0,P|374:65|367:98,1,67.1250025606156,2|0,0:3|0:0,0:0:0:0:
230,181,13690,2,0,P|221:148|209:117,1,67.1250025606156,2|0,0:0|0:0,0:0:0:0:
97,62,14003,6,0,P|51:121|60:179,1,134.250005121231,2|2,0:3|0:0,0:0:0:0:
120,212,14471,1,0,0:0:0:0:
219,90,14628,2,0,L|235:25,1,67.1250025606156,2|0,0:3|0:0,0:0:0:0:
302,159,14940,2,0,L|367:175,1,67.1250025606156,2|0,0:0|0:0,0:0:0:0:
209,235,15253,6,0,P|193:304|173:375,1,134.250005121231,2|0,0:3|0:0,0:0:0:0:
291,257,15721,1,0,0:0:0:0:
340,315,15878,2,0,P|309:331|273:334,1,67.1250025606156,2|0,0:3|0:0,0:0:0:0:
425,226,16190,2,0,P|441:254|440:293,1,67.1250025606156,2|0,0:0|0:0,0:0:0:0:
357,184,16503,5,2,3:0:0:0:
357,184,16659,1,0,3:0:0:0:
376,91,16815,2,0,L|396:7,1,67.1250025606156,2|0,0:0|0:0,0:0:0:0:
245,157,17128,2,0,L|172:139,1,67.1250025606156,2|0,0:0|0:0,0:0:0:0:
301,253,17440,2,0,P|274:315|264:384,1,134.250005121231,2|0,0:0|0:0,0:0:0:0:
264,380,18065,5,0,0:0:0:0:
340,361,18221,1,0,0:0:0:0:
416,347,18378,2,0,P|382:334|334:329,1,67.1250025606156,2|0,0:0|0:0,0:0:0:0:
217,247,18690,2,0,P|248:234|281:229,1,67.1250025606156,2|0,0:0|0:0,0:0:0:0:
477,154,19003,6,0,P|423:189|414:256,1,134.250005121231,2|2,0:3|0:0,0:0:0:0:
372,119,19471,1,0,0:0:0:0:
372,119,19628,2,0,B|294:121|313:149|242:152,1,134.250005121231,2|0,0:0|0:0,0:0:0:0:
243,151,20253,6,0,L|256:80,1,67.1250025606156
329,230,20565,2,0,L|398:254,1,67.1250025606156,2|0,0:0|0:0,0:0:0:0:
226,310,20878,2,0,L|84:337,1,134.250005121231,2|0,0:0|0:0,0:0:0:0:
101,342,21503,5,2,3:0:0:0:
101,342,21659,1,0,3:0:0:0:
18,276,21815,2,0,P|26:243|29:193,1,67.1250025606156,2|0,0:0|0:0,0:0:0:0:
166,135,22128,2,0,P|157:76|153:0,1,134.250005121231,2|0,0:3|0:0,0:0:0:0:
75,141,22596,5,0,0:0:0:0:
117,203,22753,2,0,P|151:227|247:209,1,134.250005121231,2|0,0:3|0:0,0:0:0:0:
333,45,23221,5,0,0:0:0:0:
266,88,23378,2,0,P|232:79|195:73,1,67.1250025606156,2|0,0:3|0:0,0:0:0:0:
345,176,23690,2,0,P|379:167|416:161,1,67.1250025606156
238,215,24003,2,0,P|212:257|200:343,1,134.250005121231,2|2,0:3|0:0,0:0:0:0:
199,339,24628,6,0,L|280:326,1,67.1250025606156,2|0,0:3|0:0,0:0:0:0:
320,274,24940,2,0,L|401:287,1,67.1250025606156,2|0,0:0|0:0,0:0:0:0:
503,379,25253,5,2,0:3:0:0:
367,197,25565,1,0,0:0:0:0:
438,163,25721,1,0,0:0:0:0:
509,128,25878,2,0,L|429:113,1,67.1250025606156,2|0,0:3|0:0,0:0:0:0:
357,32,26190,2,0,L|287:42,1,67.1250025606156,2|0,0:0|0:0,0:0:0:0:
152,167,26503,5,2,3:0:0:0:
152,167,26659,1,0,3:0:0:0:
180,76,26815,2,0,L|203:2,1,67.1250025606156,2|0,0:0|0:0,0:0:0:0:
244,195,27128,2,0,L|329:218,1,67.1250025606156,2|0,0:0|0:0,0:0:0:0:
152,167,27440,2,0,P|68:180|33:226,1,134.250005121231,2|0,0:0|0:0,0:0:0:0:
38,214,28065,5,0,0:0:0:0:
60,286,28221,1,0,0:0:0:0:
79,359,28378,2,0,P|47:374|3:375,1,67.1250025606156,2|0,0:0|0:0,0:0:0:0:
145,257,28690,2,0,P|159:226|162:193,1,67.1250025606156,2|0,0:0|0:0,0:0:0:0:
192,350,29003,6,0,B|277:351|245:383|332:383,1,134.250005121231,2|0,0:0|0:0,0:0:0:0:
420,324,29471,1,0,0:0:0:0:
473,266,29628,2,0,L|393:244,1,67.1250025606156,2|0,0:0|0:0,0:0:0:0:
304,86,29940,2,0,L|370:77,1,67.1250025606156,2|0,0:0|0:0,0:0:0:0:
425,20,30253,2,0,P|409:82|395:155,1,134.250005121231
277,281,30721,5,0,0:0:0:0:
210,244,30878,2,0,P|176:248|135:260,1,67.1250025606156,2|0,0:0|0:0,0:0:0:0:
292,115,31190,2,0,P|295:81|304:49,1,67.1250025606156,2|0,0:0|0:0,0:0:0:0:
178,155,31503,5,0,3:0:0:0:
299,216,31659,1,0,3:0:0:0:
364,170,31815,2,0,L|447:150,1,67.1250025606156,2|0,0:0|0:0,0:0:0:0:
358,350,32128,2,0,L|441:370,1,67.1250025606156,2|0,0:0|0:0,0:0:0:0:
476,243,32440,6,0,B|396:228|380:283|295:260,1,179,2|0,0:0|0:0,0:0:0:0:
219,196,33221,5,0,0:0:0:0:
235,124,33378,2,0,L|251:62,1,44.75,2|0,0:0|0:0,0:0:0:0:
103,213,33690,2,0,L|39:201,1,44.75,2|0,0:0|0:0,0:0:0:0:
0,148,34003,6,0,L|177:180,1,179,2|0,0:0|0:0,0:0:0:0:
274,206,34784,6,0,B|333:142|433:178|460:257|435:325|379:378|295:387|219:327|291:264|192:214|112:268,1,552.66247470112
165,341,36346,5,8,0:0:0:0:
165,341,36424,1,8,0:0:0:0:
165,341,36503,2,0,P|199:290|188:230,1,116.34999467392,4|2,0:0|0:0,0:0:0:0:
192,237,37128,6,0,P|162:240|125:253,1,58.17499733696,2|0,0:0|0:0,0:0:0:0:
253,126,37440,2,0,P|244:98|241:69,1,58.17499733696,2|0,0:0|0:0,0:0:0:0:
299,225,37753,2,0,P|347:254|414:270,1,116.34999467392,2|2,0:3|0:0,0:0:0:0:
465,320,38221,1,0,0:0:0:0:
381,183,38378,6,0,P|410:174|447:172,1,58.17499733696,2|0,0:3|0:0,0:0:0:0:
356,369,38690,2,0,P|385:378|422:380,1,58.17499733696,2|0,0:3|0:0,0:0:0:0:
313,263,39003,5,2,0:0:0:0:
209,310,39159,1,0,0:0:0:0:
155,255,39315,2,0,L|174:183,1,58.17499733696,2|0,0:3|0:0,0:0:0:0:
281,76,39628,5,2,0:3:0:0:
211,54,39784,1,0,0:0:0:0:
114,144,39940,1,2,0:3:0:0:
187,126,40096,1,0,0:0:0:0:
95,13,40253,6,0,P|91:39|79:75,1,58.17499733696,2|0,0:0|0:0,0:0:0:0:
191,210,40565,2,0,P|217:214|253:226,1,58.17499733696,2|0,0:3|0:0,0:0:0:0:
353,128,40878,2,0,P|379:124|415:112,1,58.17499733696,2|0,0:3|0:0,0:0:0:0:
491,318,41190,5,2,0:3:0:0:
397,222,41346,1,0,3:0:0:0:
458,170,41503,2,0,P|450:115|447:33,1,116.34999467392,2|2,3:2|0:3,0:0:0:0:
279,212,41971,5,2,0:0:0:0:
297,283,42128,2,0,P|286:309|277:343,1,58.17499733696,2|0,0:3|0:0,0:0:0:0:
404,228,42440,2,0,P|432:220|458:209,1,58.17499733696,2|0,0:3|0:0,0:0:0:0:
307,142,42753,2,0,P|290:89|273:31,1,116.34999467392,2|2,0:3|0:0,0:0:0:0:
272,30,43221,5,0,0:0:0:0:
348,5,43378,2,0,L|420:13,1,58.17499733696,2|0,0:3|0:0,0:0:0:0:
223,133,43690,5,2,0:0:0:0:
128,92,43846,1,0,0:0:0:0:
36,184,44003,2,0,P|34:236|19:310,1,116.34999467392,2|2,0:3|0:0,0:0:0:0:
163,230,44471,5,0,0:0:0:0:
216,325,44628,2,0,P|230:296|236:264,1,58.17499733696,2|0,0:3|0:0,0:0:0:0:
360,159,44940,2,0,P|334:171|305:178,1,58.17499733696,2|0,0:3|0:0,0:0:0:0:
386,294,45253,2,0,L|329:267,1,58.17499733696,2|0,0:0|0:0,0:0:0:0:
174,193,45565,5,2,0:3:0:0:
235,33,45721,1,0,0:0:0:0:
339,189,45878,5,2,0:3:0:0:
258,114,46034,1,0,0:0:0:0:
123,251,46190,5,2,0:0:0:0:
174,193,46346,1,2,0:0:0:0:
120,348,46503,6,0,P|178:339|258:332,1,134.250005121231,4|0,0:0|0:0,0:0:0:0:
327,354,46971,1,2,0:0:0:0:
307,280,47128,1,0,0:0:0:0:
380,265,47284,2,0,P|383:231|391:198,1,67.1250025606156,0|4,0:0|0:3,0:0:0:0:
426,130,47596,5,2,0:0:0:0:
426,130,47909,2,0,P|378:173|293:144,1,134.250005121231,2|0,0:0|0:0,0:0:0:0:
228,16,48534,2,0,P|292:6|340:49,1,134.250005121231,2|0,0:0|0:0,0:0:0:0:
264,94,49003,6,0,B|197:85|209:134|125:119,1,134.250005121231,2|0,0:2|0:0,0:0:0:0:
50,102,49471,2,0,P|62:134|67:167,1,67.1250025606156,2|4,0:0|0:3,0:0:0:0:
160,313,49784,5,0,0:0:0:0:
226,274,49940,1,4,0:3:0:0:
160,313,50096,2,0,P|107:296|20:292,2,134.250005121231,2|0|0,0:0|0:0|0:0,0:0:0:0:
228,170,50878,5,2,0:0:0:0:
277,234,51034,2,0,P|244:250|224:277,1,67.1250025606156,0|4,0:0|0:3,0:0:0:0:
416,161,51346,5,0,3:0:0:0:
338,176,51503,2,0,P|322:240|324:307,1,134.250005121231,2|4,3:2|0:3,0:0:0:0:
404,252,51971,2,0,P|408:292|425:328,1,67.1250025606156,2|4,0:0|0:3,0:0:0:0:
345,97,52440,5,4,0:3:0:0:
194,82,52596,1,0,0:0:0:0:
270,61,52753,2,0,P|307:106|339:183,1,134.250005121231,2|4,0:0|0:3,0:0:0:0:
177,211,53221,1,2,0:0:0:0:
248,167,53378,2,0,P|256:199|257:233,1,67.1250025606156,4|0,0:3|0:3,0:0:0:0:
57,293,53690,5,4,0:3:0:0:
184,332,53846,1,0,0:0:0:0:
108,354,54003,2,0,B|121:277|81:307|98:216,1,134.250005121231,2|4,0:0|0:3,0:0:0:0:
155,70,54471,6,0,P|167:114|160:158,1,67.1250025606156,2|4,0:0|0:3,0:0:0:0:
11,161,54784,2,0,P|0:129|0:95,1,67.1250025606156,0|4,0:0|0:3,0:0:0:0:
78,15,55096,6,0,P|74:42|71:59,1,44.75,0|2,0:0|0:0,0:0:0:0:
123,238,55409,2,0,P|109:214|98:196,1,44.75,0|4,0:0|0:3,0:0:0:0:
157,72,55721,2,0,P|173:58|189:41,1,44.75,2|4,0:0|0:3,0:0:0:0:
232,169,56034,1,2,0:0:0:0:
232,169,56190,2,0,P|195:157|171:152,1,44.75,4|4,0:3|0:3,0:0:0:0:
270,51,56503,6,0,P|283:86|294:135,1,67.1250025606156,4|0,3:2|0:0,0:0:0:0:
343,172,56815,1,0,0:0:0:0:
416,143,56971,1,2,0:0:0:0:
445,216,57128,1,0,0:3:0:0:
372,245,57284,2,0,P|378:280|378:316,1,67.1250025606156,0|4,0:0|0:3,0:0:0:0:
416,376,57596,5,2,0:0:0:0:
416,376,57909,2,0,P|373:347|282:351,1,134.250005121231,2|0,0:0|0:0,0:0:0:0:
95,222,58534,2,0,P|161:225|218:192,1,134.250005121231,2|0,0:0|0:0,0:0:0:0:
165,262,59003,6,0,P|149:300|149:336,1,67.1250025606156,2|0,0:0|0:0,0:0:0:0:
142,150,59315,2,0,P|138:126|102:81,1,67.1250025606156,4|0,0:3|0:0,0:0:0:0:
229,318,59628,6,0,P|261:339|296:344,1,67.1250025606156,2|0,0:0|0:0,0:0:0:0:
59,152,59940,2,0,P|26:158|-2:185,1,67.1250025606156,4|0,0:3|0:0,0:0:0:0:
289,261,60253,6,0,P|354:245|429:243,2,134.250005121231,2|4|0,0:0|0:3|0:0,0:0:0:0:
349,204,61034,2,0,P|357:164|352:129,1,67.1250025606156,2|4,0:0|0:3,0:0:0:0:
172,84,61346,5,0,3:0:0:0:
243,49,61503,2,0,P|220:91|215:177,1,134.250005121231,4|0,3:2|0:0,0:0:0:0:
284,217,61971,2,0,P|314:204|348:203,1,67.1250025606156,2|4,0:0|0:3,0:0:0:0:
115,269,62284,5,0,0:0:0:0:
193,292,62440,2,0,P|223:328|228:356,1,67.1250025606156,2|0,0:0|0:0,0:0:0:0:
333,279,62753,5,2,0:0:0:0:
147,358,62909,1,0,0:0:0:0:
171,157,63065,1,4,0:3:0:0:
224,223,63221,6,0,P|162:192|84:196,1,134.250005121231,2|0,0:0|0:0,0:0:0:0:
57,125,63690,2,0,P|92:112|125:80,1,67.1250025606156,4|0,0:3|0:0,0:0:0:0:
271,20,64003,6,0,B|257:65|257:65|283:128,1,89.5,4|0,0:0|0:0,0:0:0:0:
151,234,64315,1,4,0:3:0:0:
211,301,64471,2,0,B|243:245|243:245|221:148,1,134.25,2|0,0:0|0:0,0:0:0:0:
227,176,64784,6,0,L|121:147,1,89.5,2|4,0:0|0:3,0:0:0:0:
364,138,65096,2,0,L|438:59,1,89.5,2|4,0:0|0:0,0:0:0:0:
353,354,65409,2,0,L|327:268,1,89.5,2|4,3:2|0:3,0:0:0:0:
303,193,65721,1,0,0:0:0:0:
399,217,65878,5,2,0:0:0:0:
239,263,66034,1,0,0:0:0:0:
239,263,66112,1,2,0:0:0:0:
239,263,66190,1,4,0:3:0:0:
279,99,66346,1,4,3:2:0:0:
372,353,66503,5,8,0:0:0:0:
342,343,66581,1,8,0:0:0:0:
313,357,66659,1,8,0:0:0:0:
277,349,66737,1,8,0:0:0:0:
277,349,66815,6,0,L|164:334,1,89.5,0|2,3:0|0:3,0:0:0:0:
260,201,67440,2,0,L|170:222,1,89.5,8|2,0:0|0:3,0:0:0:0:
195,66,68065,2,0,L|117:120,1,89.5,8|2,0:0|0:3,0:0:0:0:
89,192,68534,1,4,0:3:0:0:
167,182,68690,2,0,L|218:166,1,44.75,8|0,0:0|0:0,0:0:0:0:
40,126,69003,5,2,3:0:0:0:
50,324,69159,1,0,3:0:0:0:
115,269,69315,2,0,P|75:248|31:243,1,89.5,8|2,0:0|0:3,0:0:0:0:
166,33,69940,2,0,P|121:35|79:20,1,89.5,8|2,0:0|0:3,0:0:0:0:
227,242,70565,2,0,P|197:219|173:212,1,44.75,10|0,0:0|0:0,0:0:0:0:
209,131,70878,2,0,P|230:124|250:114,1,44.75,2|0,0:3|0:0,0:0:0:0:
306,216,71190,2,0,P|304:193|309:172,1,44.75,10|0,0:0|0:0,0:0:0:0:
454,43,71503,5,8,0:0:0:0:
466,76,71581,1,8,0:0:0:0:
457,108,71659,1,8,0:0:0:0:
470,144,71737,1,8,0:0:0:0:
470,144,71815,6,0,L|463:237,1,89.5,0|2,3:0|0:3,0:0:0:0:
323,276,72440,2,0,L|334:369,1,89.5,8|2,0:0|0:3,0:0:0:0:
401,313,72909,1,4,0:3:0:0:
255,334,73065,2,0,L|158:346,1,89.5,8|2,0:0|0:3,0:0:0:0:
21,368,73534,1,0,0:0:0:0:
96,373,73690,2,0,L|89:327,1,44.75,8|0,0:0|0:0,0:0:0:0:
202,129,74003,5,2,3:0:0:0:
8,272,74159,1,0,3:0:0:0:
23,189,74315,2,0,P|63:209|90:250,1,89.5,8|2,0:0|0:3,0:0:0:0:
260,74,74940,2,0,P|225:103|177:113,1,89.5,8|2,0:0|0:3,0:0:0:0:
104,109,75409,1,0,0:0:0:0:
201,197,75565,2,0,P|209:232|208:257,1,44.75,10|0,0:0|0:0,0:0:0:0:
64,215,75878,6,0,P|97:220|128:235,1,67.1250025606156,2|0,0:3|0:0,0:0:0:0:
302,237,76190,2,0,P|259:263|226:301,1,100.687503840923,10|0,0:0|0:0,0:0:0:0:
221,311,76503,6,0,L|208:237,1,71.6,4|2,3:2|0:0,0:0:0:0:
60,370,76815,2,0,L|73:296,1,71.6,0|2,3:2|0:0,0:0:0:0:
310,371,77128,1,0,3:2:0:0:
297,293,77284,2,0,L|270:141,1,143.2,2|0,0:0|0:0,0:0:0:0:
223,56,77753,5,0,3:0:0:0:
289,17,77909,2,0,P|322:23|367:41,1,71.6,2|0,0:0|3:0,0:0:0:0:
187,157,78221,2,0,P|220:144|255:137,1,71.6,2|0,0:0|3:0,0:0:0:0:
49,17,78534,2,0,P|110:42|189:58,1,143.2,2|2,0:0|0:0,0:0:0:0:
105,190,79003,5,0,3:0:0:0:
28,137,79159,1,0,0:0:0:0:
114,314,79315,5,2,3:2:0:0:
241,222,79471,2,0,P|280:218|326:209,1,71.6,2|0,0:0|3:0,0:0:0:0:
374,298,79784,2,0,P|413:301|459:311,1,71.6,2|0,0:0|3:0,0:0:0:0:
261,143,80096,5,2,0:0:0:0:
376,96,80253,2,0,P|429:142|422:214,1,143.2,0|0,3:0|3:0,0:0:0:0:
424,209,80721,2,0,P|465:201|510:196,1,71.6,2|0,0:0|3:0,0:0:0:0:
351,314,81034,2,0,P|359:355|364:400,1,71.6,2|0,0:0|3:0,0:0:0:0:
434,292,81346,5,2,0:0:0:0:
271,182,81503,2,0,P|283:118|295:39,1,143.2,4|0,3:2|3:0,0:0:0:0:
119,273,81971,5,2,0:0:0:0:
166,194,82128,2,0,P|159:154|154:95,1,71.6,0|0,3:0|0:0,0:0:0:0:
183,358,82440,5,0,3:0:0:0:
271,275,82596,1,2,0:0:0:0:
422,355,82753,2,0,P|457:358|492:364,1,71.6,4|0,3:2|0:0,0:0:0:0:
447,126,83065,5,0,3:0:0:0:
358,274,83221,1,2,0:0:0:0:
457,228,83378,1,8,3:0:0:0:
329,36,83534,5,2,0:0:0:0:
382,193,83690,1,0,3:0:0:0:
457,103,83846,5,2,0:0:0:0:
271,182,84003,2,0,P|279:252|283:328,1,143.2,4|0,3:2|3:0,0:0:0:0:
161,146,84471,5,2,0:0:0:0:
208,85,84628,2,0,P|216:47|225:11,1,71.6,0|0,3:0|0:0,0:0:0:0:
107,205,84940,2,0,P|69:213|33:222,1,71.6,0|0,3:0|0:0,0:0:0:0:
94,98,85253,5,2,3:2:0:0:
184,245,85409,2,0,L|165:322,1,71.6,2|0,0:0|3:0,0:0:0:0:
266,156,85721,2,0,L|343:137,1,71.6,2|0,0:0|3:0,0:0:0:0:
233,384,86034,5,8,0:0:0:0:
242,376,86112,1,8,0:0:0:0:
252,370,86190,2,0,L|329:387,1,67.125,8|0,3:0|0:0,0:0:0:0:
402,352,86503,6,0,P|362:359|319:366,1,80.5499975418092,4|0,3:2|3:0,0:0:0:0:
479,160,86815,1,8,0:0:0:0:
509,261,86971,2,0,P|430:254|377:183,1,161.099995083618,2|0,3:2|3:0,0:0:0:0:
256,36,87440,2,0,L|390:19,1,120.824996312714,8|0,0:0|0:0,0:0:0:0:
382,26,87753,5,4,0:3:0:0:
198,140,87909,2,0,P|154:133|122:111,1,80.5499975418092,2|8,3:2|0:0,0:0:0:0:
270,239,88221,2,0,P|291:272|296:312,1,80.5499975418092,2|4,3:2|0:3,0:0:0:0:
409,154,88534,2,0,P|442:132|482:127,1,80.5499975418092,2|8,3:2|0:0,0:0:0:0:
217,302,88846,5,2,0:0:0:0:
173,237,89003,2,0,L|195:151,1,80.5499975418092,4|0,3:2|3:0,0:0:0:0:
372,376,89315,1,8,0:0:0:0:
424,314,89471,2,0,L|407:138,1,161.099995083618,2|0,0:0|3:0,0:0:0:0:
282,18,89940,5,8,0:0:0:0:
482,127,90096,1,4,0:3:0:0:
436,61,90253,2,0,P|397:68|349:90,1,80.5499975418092,4|0,0:0|3:0,0:0:0:0:
163,251,90565,1,8,0:0:0:0:
137,147,90721,2,0,P|213:148|268:218,1,161.099995083618,0|2,3:2|3:2,0:0:0:0:
50,371,91190,2,0,P|26:316|53:260,1,120.824996312714,8|0,0:0|0:0,0:0:0:0:
0,200,91503,6,0,B|107:217|55:258|151:271,1,161.099995083618,4|8,3:2|0:0,0:0:0:0:
344,102,91971,2,0,B|237:119|289:160|193:173,1,161.099995083618,2|0,3:2|3:0,0:0:0:0:
82,27,92440,2,0,P|122:34|162:60,1,80.5499975418092,8|0,0:0|0:0,0:0:0:0:
336,201,92753,5,2,0:0:0:0:
260,101,92909,1,0,3:0:0:0:
363,314,93065,5,8,0:0:0:0:
480,248,93221,2,0,P|495:155|512:64,1,179,2|0,3:2|3:0,0:0:0:0:
260,235,93690,5,8,0:0:0:0:
452,346,93846,1,2,0:0:0:0:
352,298,94003,6,0,B|265:303|295:351|203:356,1,161.099995083618,4|8,0:0|0:0,0:0:0:0:
304,93,94471,2,0,P|370:142|369:215,1,161.099995083618,0|2,3:0|3:2,0:0:0:0:
207,121,94940,5,8,0:0:0:0:
410,45,95096,1,2,0:0:0:0:
289,4,95253,5,4,3:2:0:0:
396,34,95430,1,0,3:0:0:0:
242,227,95586,5,8,0:0:0:0:
302,175,95742,1,8,3:0:0:0:
302,175,95820,1,8,3:0:0:0:
302,175,95899,1,2,0:0:0:0:
41,78,96055,5,4,3:2:0:0:
198,149,96211,1,8,0:0:0:0:
72,249,96367,1,2,0:0:0:0:
127,32,96524,5,8,3:0:0:0:
138,62,96602,1,8,3:0:0:0:
122,90,96680,1,8,3:0:0:0:
131,120,96758,1,8,3:0:0:0:
131,120,96836,2,0,L|210:113,1,67.1250025606156,0|0,3:0|0:0,0:0:0:0:
281,28,97148,5,2,3:2:0:0:
302,44,97304,1,0,0:0:0:0:
376,68,97460,1,4,3:0:0:0:
238,198,97616,1,12,0:0:0:0:
306,323,97773,5,0,3:0:0:0:
350,201,97929,1,2,0:0:0:0:
294,290,98085,1,0,3:0:0:0:
349,232,98241,1,2,0:0:0:0:
203,340,98398,5,2,1:2:0:0:
56,247,98554,1,2,0:0:0:0:
192,189,98710,1,0,3:0:0:0:
118,144,98866,1,8,3:0:0:0:
118,144,98944,1,8,3:0:0:0:
118,144,99023,6,0,P|124:110|129:72,1,67.1250025606156,8|0,3:0|0:0,0:0:0:0:
70,344,99335,1,2,3:2:0:0:
147,278,99491,1,0,0:0:0:0:
51,222,99648,1,2,3:2:0:0:
131,255,99804,1,0,0:0:0:0:
278,100,99960,5,2,3:2:0:0:
165,139,100116,1,0,0:0:0:0:
261,217,100273,1,0,3:0:0:0:
106,63,100429,6,0,P|68:56|27:45,1,67.1250025606156,4|0,1:2|0:0,0:0:0:0:
339,151,100738,2,0,P|372:156|404:164,1,67.1250025606156,8|0,3:0|3:0,0:0:0:0:
161,370,101050,1,8,3:0:0:0:
193,272,101206,2,0,P|189:237|188:197,1,67.1250025606156,0|2,3:0|0:0,0:0:0:0:
404,383,101519,5,8,3:0:0:0:
412,357,101597,1,8,3:0:0:0:
403,331,101675,1,8,3:0:0:0:
415,307,101753,1,8,3:0:0:0:
415,307,101831,2,0,L|344:295,1,67.1250025606156,0|0,3:0|0:0,0:0:0:0:
245,361,102144,5,2,3:2:0:0:
263,330,102300,1,0,0:0:0:0:
238,255,102456,1,4,3:0:0:0:
322,118,102613,1,12,0:0:0:0:
270,38,102769,6,0,P|196:27|120:15,1,134.250005121231,4|0,1:2|3:0,0:0:0:0:
301,201,103237,1,0,0:0:0:0:
418,83,103394,5,2,0:0:0:0:
298,118,103550,1,2,0:0:0:0:
169,226,103706,5,2,3:2:0:0:
331,293,103862,1,2,1:2:0:0:
395,246,104019,2,0,P|427:242|470:236,1,67.1250025606156,0|0,3:0|0:0,0:0:0:0:
283,369,104331,2,0,P|316:372|349:377,1,67.1250025606156,0|0,3:0|0:0,0:0:0:0:
169,226,104644,2,0,P|202:222|235:217,1,67.1250025606156,2|0,3:2|0:0,0:0:0:0:
11,376,104956,5,2,3:2:0:0:
74,329,105112,1,8,3:0:0:0:
78,315,105190,1,8,3:0:0:0:
69,299,105269,1,0,3:0:0:0:
0,248,105425,5,2,0:0:0:0:
67,167,105581,1,0,3:0:0:0:
0,85,105737,1,2,0:0:0:0:
163,24,105894,1,2,1:2:0:0:
234,218,106050,5,2,0:0:0:0:
142,114,106206,2,0,L|202:125,1,53.6999983612061,8|0,0:0|0:0,0:0:0:0:
194,123,106362,6,0,P|120:132|58:167,1,143.2,4|0,0:0|0:0,0:0:0:0:
241,379,106831,1,0,3:0:0:0:
267,349,106987,1,0,0:0:0:0:
284,279,107144,1,0,3:0:0:0:
236,215,107300,1,0,0:0:0:0:
219,226,107456,5,2,3:2:0:0:
289,265,107612,1,0,0:0:0:0:
420,145,107769,5,2,3:2:0:0:
322,185,107925,1,0,0:0:0:0:
174,36,108081,5,0,3:0:0:0:
291,97,108237,1,2,0:0:0:0:
267,349,108394,5,2,3:2:0:0:
214,213,108550,1,2,0:0:0:0:
322,169,108706,1,2,0:0:0:0:
374,312,108862,2,0,P|281:301|187:292,1,179,4|0,1:2|0:0,0:0:0:0:
434,384,109331,5,0,3:0:0:0:
487,325,109487,1,0,0:0:0:0:
420,253,109644,1,0,3:0:0:0:
512,200,109800,1,2,0:0:0:0:
419,110,109956,2,0,P|425:74|433:25,1,71.6,0|0,3:0|0:0,0:0:0:0:
365,318,110269,5,0,3:0:0:0:
329,144,110425,1,2,0:0:0:0:
311,244,110581,5,0,3:0:0:0:
341,170,110737,1,0,0:0:0:0:
431,39,110894,5,6,0:0:0:0:
305,66,111050,1,2,0:0:0:0:
179,92,111206,1,2,3:2:0:0:
91,107,111362,5,2,0:0:0:0:
78,99,111519,2,0,P|73:178|63:259,1,152.150002902031,4|0,1:2|3:0,0:0:0:0:
303,381,111987,5,2,0:0:0:0:
351,317,112144,2,0,P|342:241|337:165,1,152.150002902031,0|2,3:0|0:0,0:0:0:0:
231,33,112612,5,0,1:0:0:0:
269,123,112769,1,0,3:0:0:0:
226,59,112925,1,0,1:0:0:0:
311,244,113081,5,0,3:0:0:0:
360,83,113237,1,0,1:0:0:0:
291,260,113394,1,2,3:2:0:0:
512,376,113550,5,8,3:0:0:0:
454,202,113706,1,8,3:0:0:0:
269,123,113862,5,8,3:0:0:0:
175,324,114019,1,4,1:2:0:0:
125,236,114175,1,8,0:0:0:0:
237,194,114331,1,2,3:2:0:0:
125,130,114487,6,0,P|86:123|40:115,1,76.0750014510155,8|2,0:0|3:2,0:0:0:0:
290,298,114800,2,0,P|329:305|375:313,1,76.0750014510155,8|2,0:0|3:2,0:0:0:0:
269,123,115112,6,0,P|308:116|354:108,1,76.0750014510155,8|0,3:0|3:0,0:0:0:0:
78,285,115425,2,0,P|39:292|-7:300,1,76.0750014510155,2|8,3:2|3:0,0:0:0:0:
193,216,115737,5,0,3:0:0:0:
309,384,115894,1,8,0:0:0:0:
351,279,116050,5,2,0:0:0:0:
203,358,116206,1,8,0:0:0:0:
312,176,116362,6,0,P|327:89|346:-24,1,179,4|0,1:2|3:0,0:0:0:0:
417,60,116831,5,8,0:0:0:0:
282,101,116987,1,0,3:0:0:0:
433,171,117144,5,8,0:0:0:0:
306,86,117300,1,0,3:0:0:0:
366,266,117456,5,8,0:0:0:0:
276,76,117612,1,0,3:0:0:0:
177,327,117769,5,10,0:0:0:0:
313,178,117925,1,0,3:0:0:0:
512,337,118081,5,10,0:0:0:0:
385,288,118237,1,0,3:0:0:0:
385,288,118315,1,0,3:0:0:0:
385,288,118394,1,10,0:0:0:0:
271,361,118550,1,0,3:0:0:0:
119,259,118706,1,8,0:0:0:0:
20,309,118862,6,0,P|36:221|41:128,1,179,4|2,1:2|3:2,0:0:0:0:
201,5,119331,5,12,0:0:0:0:
328,191,119487,1,8,3:0:0:0:
459,40,119644,5,12,0:0:0:0:
256,137,119800,1,8,3:0:0:0:
434,311,119956,5,12,0:0:0:0:
341,106,120112,1,8,3:0:0:0:
124,212,120269,5,4,1:2:0:0:
157,241,120347,1,0,1:0:0:0:
200,249,120425,1,0,1:0:0:0:
241,233,120503,1,0,1:0:0:0:
281,204,120581,5,8,3:0:0:0:
328,191,120659,1,8,3:0:0:0:
376,198,120737,1,0,3:0:0:0:
410,233,120815,1,0,3:0:0:0:
434,311,120894,6,0,L|417:374,1,53.6999983612061,12|0,0:0|0:0,0:0:0:0:
449,150,121050,6,0,P|440:92|429:8,1,114.112502176523,4|0,3:2|0:0,0:0:0:0:
433,38,121362,2,0,L|421:87,1,44.75,2|0,0:0|0:0,0:0:0:0:
157,223,121519,6,0,B|267:209|244:273|388:249,2,214.799993444824,4|8|0,1:1|0:0|3:1,0:0:0:0:
106,300,122300,1,0,3:0:0:0:
198,310,122456,1,8,0:0:0:0:
192,90,122612,5,2,0:0:0:0:
99,109,122769,2,0,L|16:125,1,80.5499975418092,4|0,3:2|3:0,0:0:0:0:
129,22,123081,5,8,0:0:0:0:
164,190,123237,1,0,3:0:0:0:
164,190,123315,1,0,3:0:0:0:
164,190,123394,1,2,0:0:0:0:
237,1,123550,1,2,0:0:0:0:
268,172,123706,1,8,0:0:0:0:
99,109,123862,5,2,0:0:0:0:
294,78,124019,2,0,P|359:113|334:272,2,214.799993444824,4|8|0,3:2|0:0|3:0,0:0:0:0:
285,176,124800,1,0,3:0:0:0:
470,142,124956,1,8,0:0:0:0:
503,231,125112,5,2,0:0:0:0:
292,271,125269,2,0,L|202:290,1,89.5,4|0,3:2|3:0,0:0:0:0:
21,130,125581,5,8,0:0:0:0:
131,155,125737,1,0,3:0:0:0:
131,155,125815,1,0,3:0:0:0:
131,155,125894,1,2,0:0:0:0:
42,330,126050,2,0,L|153:304,1,89.5,0|8,3:0|0:0,0:0:0:0:
64,227,126362,1,2,0:0:0:0:
232,88,126519,6,0,P|307:98|350:241,1,201.375007681847,4|0,1:2|0:0,0:0:0:0:
395,215,126831,2,0,L|494:199,1,89.5,8|0,0:0|0:0,0:0:0:0:
262,182,127144,5,0,3:0:0:0:
436,321,127300,1,0,3:0:0:0:
467,99,127456,1,8,0:0:0:0:
265,283,127612,5,2,0:0:0:0:
265,283,127690,1,2,0:0:0:0:
265,283,127769,2,0,B|153:261|190:325|79:302,1,187.949994264221,4|0,1:2|0:0,0:0:0:0:
28,360,128081,6,0,L|39:298,1,62.6499980880738,8|0,0:0|0:0,0:0:0:0:
20,131,128237,2,0,L|32:192,1,62.6499980880738,2|0,0:0|0:0,0:0:0:0:
163,343,128394,5,2,3:2:0:0:
149,143,128550,1,2,3:2:0:0:
232,266,128706,2,0,P|184:242|131:243,1,107.399996722412,8|0,0:0|0:0,0:0:0:0:
427,98,129019,6,0,P|365:167|262:155,1,187.949994264221,4|0,1:2|0:0,0:0:0:0:
249,145,129331,1,8,0:0:0:0:
286,40,129487,2,0,P|312:55|324:84,1,62.6499980880738,2|0,0:0|0:0,0:0:0:0:
363,364,129644,6,0,P|293:359|233:256,1,187.949994264221,4|0,1:2|0:0,0:0:0:0:
232,231,129956,1,8,0:0:0:0:
390,264,130112,2,0,L|328:276,1,62.6499980880738,2|0,0:0|0:0,0:0:0:0:
148,310,130269,5,2,0:3:0:0:
170,114,130425,1,0,3:0:0:0:
148,310,130581,2,0,L|158:233,1,49.2250015022278,12|0,0:0|0:0,0:0:0:0:
95,22,130737,5,0,3:2:0:0:
95,22,130815,1,0,3:2:0:0:
95,22,130894,1,2,1:3:0:0:
291,177,131050,1,0,3:0:0:0:
58,269,131206,2,0,L|79:95,1,147.675004506683,12|0,0:0|0:0,0:0:0:0:
10,74,131519,6,0,B|136:98|90:46|239:74,2,214.799993444824,4|8|0,1:1|0:0|3:0,0:0:0:0:
261,145,132300,1,2,3:2:0:0:
273,2,132456,1,8,0:0:0:0:
146,31,132612,5,2,0:0:0:0:
396,53,132769,2,0,P|403:97|414:142,1,80.5499975418092,4|0,3:2|3:0,0:0:0:0:
331,309,133081,2,0,P|323:264|313:220,1,80.5499975418092,8|2,0:0|0:2,0:0:0:0:
315,229,133315,1,2,0:0:0:0:
315,229,133394,1,0,3:0:0:0:
429,322,133550,1,2,3:2:0:0:
247,350,133706,1,8,0:0:0:0:
421,227,133862,5,2,0:0:0:0:
216,259,134019,2,0,P|186:193|287:104,2,214.799993444824,4|8|0,3:2|0:0|3:0,0:0:0:0:
275,190,134800,1,0,3:0:0:0:
130,90,134956,1,8,0:0:0:0:
285,29,135112,5,2,0:0:0:0:
121,264,135269,2,0,L|32:282,1,89.5,4|0,3:2|3:0,0:0:0:0:
257,125,135581,5,8,0:0:0:0:
225,295,135737,1,2,0:0:0:0:
288,223,135894,6,0,L|175:195,1,89.5,4|0,3:2|0:0,0:0:0:0:
78,33,136206,2,0,L|109:142,1,89.5,10|0,0:0|0:0,0:0:0:0:
19,310,136519,2,0,L|99:226,1,89.5,4|0,3:2|0:0,0:0:0:0:
193,116,136831,5,8,0:0:0:0:
164,282,136987,1,0,3:0:0:0:
164,282,137065,1,0,3:0:0:0:
164,282,137144,1,2,0:0:0:0:
34,174,137300,1,0,3:0:0:0:
174,201,137456,5,8,0:0:0:0:
52,367,137612,2,0,P|68:315|82:264,1,107.399996722412,2|4,0:0|3:2,0:0:0:0:
330,336,137925,2,0,P|303:289|276:243,1,107.399996722412,2|8,0:0|0:0,0:0:0:0:
150,349,138237,6,0,L|238:356,1,80.5499975418092,2|0,0:0|3:0,0:0:0:0:
209,142,138550,2,0,L|130:162,1,80.5499975418092,2|8,3:2|0:0,0:0:0:0:
186,273,138862,2,0,L|176:199,1,40.2749987709046,2|0,0:0|0:0,0:0:0:0:
175,51,139019,6,0,P|254:59|297:184,1,187.949994264221,4|0,1:2|0:0,0:0:0:0:
302,183,139331,1,8,0:0:0:0:
153,161,139487,2,0,P|178:142|209:142,1,62.6499980880738,2|0,0:0|0:0,0:0:0:0:
480,248,139644,6,0,P|433:304|320:290,1,187.949994264221,4|0,1:2|0:0,0:0:0:0:
307,270,139956,1,8,0:0:0:0:
392,165,140112,2,0,L|386:227,1,62.6499980880738,2|0,0:0|0:0,0:0:0:0:
271,355,140269,5,12,0:0:0:0:
472,136,140425,1,2,0:0:0:0:
316,125,140581,5,2,3:2:0:0:
484,370,140737,1,8,3:0:0:0:
452,225,140894,5,2,3:0:0:0:
413,208,140972,1,0,3:0:0:0:
373,214,141050,1,0,1:2:0:0:
340,239,141128,1,0,1:0:0:0:
319,272,141206,2,0,P|284:265|247:259,1,62.6499980880738,2|0,3:0|3:0,0:0:0:0:
205,170,141362,2,0,P|174:175|143:181,1,62.6499980880738,0|0,1:0|1:0,0:0:0:0:
26,318,141519,5,4,1:1:0:0:
106,341,141675,1,2,0:0:0:0:
173,291,141831,1,8,0:0:0:0:
93,270,141987,1,2,0:0:0:0:
14,305,142144,5,0,3:0:0:0:
180,373,142300,1,2,3:2:0:0:
332,279,142456,1,8,0:0:0:0:
166,211,142612,1,2,0:0:0:0:
4,289,142769,5,0,1:2:0:0:
261,361,142925,1,2,1:2:0:0:
453,175,143081,1,8,0:0:0:0:
196,103,143237,2,0,P|147:101|106:97,1,89.5,2|0,1:2|3:0,0:0:0:0:
141,313,143550,2,0,P|182:296|225:283,1,89.5,2|8,3:2|0:0,0:0:0:0:
312,162,143862,2,0,L|325:232,1,44.75,2|0,0:0|0:0,0:0:0:0:
375,298,144019,5,4,0:0:0:0:
401,177,144175,1,2,0:0:0:0:
451,250,144331,1,8,0:0:0:0:
324,225,144487,1,2,0:0:0:0:
387,317,144644,5,0,3:0:0:0:
341,83,144800,1,2,3:2:0:0:
484,179,144956,1,8,0:0:0:0:
244,221,145112,1,2,0:0:0:0:
396,336,145269,5,4,1:2:0:0:
185,22,145425,1,2,1:2:0:0:
444,70,145581,1,8,0:0:0:0:
137,288,145737,1,0,1:0:0:0:
320,184,145894,5,8,3:0:0:0:
280,172,145972,1,8,3:0:0:0:
243,187,146050,1,0,3:0:0:0:
203,180,146128,1,0,3:0:0:0:
203,180,146206,6,0,L|392:164,1,161.099995083618,12|0,0:0|0:0,0:0:0:0:
464,153,146519,6,0,P|422:146|389:143,1,62.6499980880738,4|0,1:0|0:0,0:0:0:0:
498,76,146831,2,0,P|493:107|489:138,1,62.6499980880738,4|8,1:2|3:0,0:0:0:0:
291,29,147144,6,0,L|385:19,1,80.5499975418092,4|8,1:2|3:0,0:0:0:0:
250,175,147456,2,0,L|241:94,1,80.5499975418092,4|8,1:2|3:0,0:0:0:0:
97,63,147769,6,0,P|49:59|0:51,1,98.4500030044557,4|8,1:2|3:0,0:0:0:0:
140,229,148081,2,0,P|144:180|151:131,1,98.4500030044557,4|8,1:2|3:0,0:0:0:0:
279,334,148394,6,0,L|166:359,1,116.34999467392,4|8,1:2|3:0,0:0:0:0:
315,156,148706,2,0,L|339:271,1,116.34999467392,4|8,1:2|3:0,0:0:0:0:
82,332,149019,5,4,1:2:0:0:
0,118,149175,2,0,P|111:139|165:244,1,232.69998934784,2|2,0:0|3:2,0:0:0:0:
180,155,149644,5,8,0:0:0:0:
417,242,149800,2,0,B|292:213|313:311|150:259,1,232.69998934784,2|2,0:0|3:2,0:0:0:0:
370,319,150269,5,4,3:2:0:0:
324,40,150425,2,0,L|306:155,1,116.34999467392,2|0,0:0|0:0,0:0:0:0:
273,239,150737,1,2,0:0:0:0:
403,124,150894,5,8,0:0:0:0:
177,61,151050,2,0,B|105:45|38:20|38:20|46:36|81:68,1,201.374993854523,8|0,3:0|0:0,0:0:0:0:
114,128,151519,6,0,P|147:137|183:142,1,67.1250025606156,4|0,0:0|0:0,0:0:0:0:
234,200,151831,1,0,0:0:0:0:
161,235,151987,1,2,0:0:0:0:
84,210,152144,1,0,0:0:0:0:
15,252,152300,2,0,P|0:279|0:317,1,67.1250025606156,0|4,0:0|0:3,0:0:0:0:
49,377,152612,5,2,0:0:0:0:
49,377,152925,2,0,P|107:366|152:310,1,134.250005121231,2|0,0:0|0:0,0:0:0:0:
369,216,153550,2,0,P|311:205|266:149,1,134.250005121231,2|0,0:0|0:0,0:0:0:0:
198,87,154019,6,0,P|224:67|264:55,1,67.1250025606156,2|0,0:0|0:0,0:0:0:0:
215,247,154331,2,0,P|195:221|183:181,1,67.1250025606156,4|0,0:3|0:0,0:0:0:0:
432,269,154644,6,0,P|406:289|366:301,1,67.1250025606156,2|0,0:0|0:0,0:0:0:0:
436,85,154956,2,0,P|456:111|468:151,1,67.1250025606156,4|0,0:3|0:0,0:0:0:0:
260,186,155269,6,0,P|333:181|375:229,2,134.250005121231,4|4|4,0:3|0:3|0:3,0:0:0:0:
189,148,156050,2,0,P|180:109|180:73,1,67.1250025606156,2|4,0:0|0:3,0:0:0:0:
59,314,156362,5,0,3:0:0:0:
9,253,156519,2,0,P|26:308|23:396,1,134.250005121231,4|4,3:2|0:3,0:0:0:0:
164,247,156987,2,0,L|94:233,1,67.1250025606156,2|4,0:0|0:3,0:0:0:0:
271,382,157300,5,2,0:0:0:0:
206,328,157456,2,0,L|134:341,1,67.1250025606156,4|0,0:3|0:0,0:0:0:0:
360,179,157769,6,0,L|217:163,1,134.250005121231,2|4,0:0|0:3,0:0:0:0:
126,101,158237,1,2,0:0:0:0:
209,38,158394,1,2,0:0:0:0:
131,122,158550,1,2,0:0:0:0:
0,29,158706,6,0,P|32:40|74:48,1,67.1250025606156,4|0,0:3|0:0,0:0:0:0:
222,143,159019,2,0,P|254:132|296:124,1,67.1250025606156,4|0,0:3|0:0,0:0:0:0:
98,233,159331,1,4,0:3:0:0:
175,285,159487,6,0,P|183:250|194:217,1,67.1250025606156,2|4,0:0|0:3,0:0:0:0:
110,137,159800,2,0,P|78:147|45:154,1,67.1250025606156,0|4,0:0|0:3,0:0:0:0:
0,253,160112,2,0,P|18:281|33:310,1,67.1250025606156
119,384,160425,6,0,L|194:370,1,67.1250025606156,2|4,0:0|0:3,0:0:0:0:
256,271,160737,2,0,L|331:285,1,67.1250025606156,2|4,0:0|0:3,0:0:0:0:
447,372,161050,1,2,0:0:0:0:
468,369,161128,1,4,0:3:0:0:
489,366,161206,1,0,0:0:0:0:
331,293,161362,5,4,0:3:0:0:
404,226,161519,2,0,P|396:162|396:75,1,143.2,4|0,3:2|3:0,0:0:0:0:
321,28,161987,6,0,P|286:24|244:11,1,71.6,2|0,0:0|3:0,0:0:0:0:
429,154,162300,2,0,P|463:144|498:139,1,71.6,2|0,0:0|3:0,0:0:0:0:
256,271,162612,2,0,P|182:265|123:229,1,143.2,0|2,0:0|0:0,0:0:0:0:
70,158,163081,1,0,3:0:0:0:
270,103,163237,6,0,P|288:133|287:168,1,71.6,2|0,0:0|3:0,0:0:0:0:
190,369,163550,2,0,P|172:339|173:304,1,71.6,2|0,0:0|3:0,0:0:0:0:
232,238,163862,1,4,0:3:0:0:
373,261,164019,6,0,L|230:237,1,143.2,2|0,3:2|3:0,0:0:0:0:
359,350,164487,2,0,L|287:364,1,71.6,0|2,0:0|3:2,0:0:0:0:
371,153,164800,2,0,L|299:139,1,71.6,0|0,0:0|3:0,0:0:0:0:
373,261,165112,5,2,0:0:0:0:
484,206,165269,2,0,P|499:152|473:66,1,143.2,0|0,3:0|3:0,0:0:0:0:
475,70,165737,2,0,P|486:37|517:13,1,71.6,2|0,0:0|3:0,0:0:0:0:
359,175,166050,2,0,P|326:186|302:217,1,71.6,4|0,0:3|3:0,0:0:0:0:
471,183,166362,5,2,0:0:0:0:
361,77,166519,2,0,B|281:68|305:104|215:95,1,143.2,4|0,0:0|3:0,0:0:0:0:
59,205,166987,1,2,0:0:0:0:
128,131,167144,2,0,L|113:48,1,71.6,0|4,3:0|0:3,0:0:0:0:
16,121,167456,5,2,3:2:0:0:
199,199,167612,1,4,0:3:0:0:
316,61,167769,5,2,3:2:0:0:
222,96,167925,1,0,0:0:0:0:
128,131,168081,1,0,3:0:0:0:
273,248,168237,6,0,P|279:211|295:166,1,71.6,2|0,0:0|3:0,0:0:0:0:
151,45,168550,2,0,L|101:33,2,35.8,4|4|0,0:3|0:3|3:0,0:0:0:0:
222,96,168862,5,2,0:0:0:0:
390,36,169019,2,0,P|451:81|446:147,1,143.2,4|0,0:0|3:0,0:0:0:0:
512,255,169487,2,0,L|370:280,1,143.2,2|0,0:0|0:0,0:0:0:0:
458,368,169956,5,2,3:2:0:0:
437,223,170112,1,2,0:0:0:0:
223,384,170269,5,4,0:0:0:0:
295,305,170425,1,2,0:0:0:0:
219,198,170581,2,0,P|226:163|230:127,1,71.6,0|0,3:0|0:0,0:0:0:0:
175,307,170894,5,2,0:0:0:0:
339,181,171050,1,8,0:0:0:0:
339,181,171128,1,8,0:0:0:0:
339,181,171206,1,8,3:0:0:0:
233,110,171362,1,2,0:0:0:0:
338,335,171519,5,8,3:0:0:0:
367,328,171597,1,8,3:0:0:0:
393,342,171675,1,8,3:0:0:0:
421,333,171753,1,8,3:0:0:0:
421,333,171831,2,0,L|410:261,1,67.1250025606156,0|0,3:0|0:0,0:0:0:0:
459,35,172144,5,2,3:2:0:0:
406,157,172300,1,0,0:0:0:0:
486,146,172456,1,4,3:0:0:0:
381,60,172612,1,12,0:0:0:0:
220,237,172769,5,0,3:0:0:0:
312,161,172925,1,2,0:0:0:0:
197,212,173081,1,0,3:0:0:0:
85,145,173237,1,2,0:0:0:0:
173,134,173394,5,2,1:2:0:0:
233,331,173550,1,2,0:0:0:0:
89,275,173706,1,0,3:0:0:0:
264,171,173862,1,8,3:0:0:0:
264,171,173940,1,8,3:0:0:0:
264,171,174019,6,0,L|337:159,1,67.1250025606156,8|0,3:0|0:0,0:0:0:0:
466,313,174331,1,2,3:2:0:0:
384,296,174487,1,0,0:0:0:0:
486,138,174644,1,2,3:2:0:0:
416,187,174800,5,0,0:0:0:0:
472,333,174956,1,2,3:2:0:0:
407,171,175112,1,0,0:0:0:0:
507,240,175269,1,0,3:0:0:0:
314,346,175425,6,0,P|268:332|240:327,1,67.1250025606156,4|0,1:2|0:0,0:0:0:0:
209,150,175737,2,0,P|197:181|191:214,1,67.1250025606156,8|0,3:0|0:0,0:0:0:0:
182,294,176050,1,8,3:0:0:0:
37,293,176206,2,0,P|69:301|102:304,1,67.1250025606156,0|0,3:0|0:0,0:0:0:0:
132,119,176519,5,8,3:0:0:0:
101,97,176597,1,8,3:0:0:0:
65,93,176675,1,8,3:0:0:0:
33,110,176753,1,8,3:0:0:0:
33,110,176831,2,0,P|34:71|38:33,1,67.1250025606156,0|0,3:0|0:0,0:0:0:0:
132,119,177143,5,2,3:2:0:0:
197,56,177300,1,0,0:0:0:0:
250,272,177456,1,4,3:0:0:0:
166,243,177612,1,12,0:0:0:0:
343,111,177768,1,4,0:0:0:0:
354,215,177925,1,2,0:0:0:0:
262,172,178081,5,0,3:0:0:0:
435,159,178237,2,0,L|527:147,1,67.1250025606156,2|4,0:0|3:0,0:0:0:0:
328,300,178550,2,0,L|304:373,1,67.1250025606156,2|0,0:0|3:0,0:0:0:0:
168,149,178862,5,8,3:0:0:0:
168,149,178940,1,8,3:0:0:0:
168,149,179019,2,0,L|142:11,3,134.250005121231,0|0|4|0,3:0|3:0|3:0|3:0,0:0:0:0:
128,246,180112,1,2,0:0:0:0:
87,180,180269,5,0,3:0:0:0:
222,208,180425,1,2,0:0:0:0:
354,238,180581,1,2,3:2:0:0:
431,167,180737,5,2,0:0:0:0:
248,279,180894,1,2,1:2:0:0:
336,337,181050,1,2,0:0:0:0:
341,139,181206,2,0,L|270:153,1,53.6999983612061,8|0,0:0|0:0,0:0:0:0:
288,149,181362,6,0,P|358:157|460:170,1,143.2,4|0,0:0|0:0,0:0:0:0:
496,300,181831,1,0,3:0:0:0:
462,314,181987,1,0,0:0:0:0:
384,283,182144,1,0,3:0:0:0:
268,347,182300,1,0,0:0:0:0:
108,278,182456,5,2,3:2:0:0:
182,291,182612,1,0,0:0:0:0:
117,182,182769,5,2,3:2:0:0:
48,353,182925,1,0,0:0:0:0:
37,88,183081,5,0,3:0:0:0:
108,278,183237,1,2,0:0:0:0:
277,125,183394,5,2,3:2:0:0:
199,78,183550,1,2,0:0:0:0:
134,194,183706,1,2,0:0:0:0:
210,239,183862,2,0,P|282:223|353:204,1,143.2,4|0,1:2|0:0,0:0:0:0:
499,152,184331,5,0,3:0:0:0:
450,57,184487,1,0,0:0:0:0:
367,131,184644,1,0,3:0:0:0:
430,227,184800,1,2,0:0:0:0:
511,140,184956,2,0,P|475:145|440:152,1,71.6,0|0,3:0|0:0,0:0:0:0:
162,252,185269,5,0,3:0:0:0:
209,38,185425,1,2,0:0:0:0:
185,270,185581,5,0,3:0:0:0:
134,140,185737,1,0,0:0:0:0:
117,330,185894,5,6,0:0:0:0:
278,261,186050,1,2,0:0:0:0:
436,347,186206,1,2,3:2:0:0:
341,346,186362,5,2,0:0:0:0:
356,325,186519,2,0,L|371:170,1,143.2,4|0,1:2|3:0,0:0:0:0:
149,67,186987,5,2,0:0:0:0:
192,3,187144,2,0,L|205:145,1,143.2,0|2,3:0|3:2,0:0:0:0:
92,314,187612,5,0,1:0:0:0:
166,286,187769,1,0,3:0:0:0:
66,305,187925,1,2,1:2:0:0:
225,222,188081,5,0,3:0:0:0:
346,331,188237,1,0,1:0:0:0:
176,301,188394,1,2,3:2:0:0:
338,248,188550,1,8,3:0:0:0:
462,362,188706,1,8,3:0:0:0:
263,301,188862,5,8,3:0:0:0:
410,137,189019,2,0,L|424:43,1,71.6,4|8,1:2|3:0,0:0:0:0:
175,49,189331,1,8,3:0:0:0:
256,13,189487,6,0,L|266:93,1,80.5499975418092,8|8,0:0|3:0,0:0:0:0:
89,245,189800,2,0,L|166:225,1,80.5499975418092,8|8,0:0|3:0,0:0:0:0:
184,140,190112,6,0,L|108:111,1,80.5499975418092,8|0,0:0|3:0,0:0:0:0:
224,303,190425,2,0,L|176:381,1,80.5499975418092,8|8,0:0|0:0,0:0:0:0:
337,188,190737,5,0,3:0:0:0:
160,242,190894,1,8,3:0:0:0:
333,316,191050,5,8,3:0:0:0:
208,156,191206,1,8,0:0:0:0:
426,48,191362,6,0,L|449:241,1,179,4|2,1:2|3:2,0:0:0:0:
272,364,191831,1,8,0:0:0:0:
332,151,191987,1,0,3:0:0:0:
132,289,192144,5,8,0:0:0:0:
344,232,192300,1,0,3:0:0:0:
149,126,192456,5,8,0:0:0:0:
280,281,192612,1,0,3:0:0:0:
315,73,192769,5,10,0:0:0:0:
89,183,192925,1,0,3:0:0:0:
344,232,193081,1,10,0:0:0:0:
233,161,193237,1,0,3:0:0:0:
233,161,193315,1,0,3:0:0:0:
233,161,193394,1,10,0:0:0:0:
215,306,193550,5,0,3:0:0:0:
363,101,193706,1,8,0:0:0:0:
32,82,193862,6,0,L|62:274,1,179,4|0,1:2|3:0,0:0:0:0:
266,361,194331,1,12,0:0:0:0:
299,124,194487,1,8,3:0:0:0:
313,293,194644,5,12,0:0:0:0:
242,67,194800,1,8,3:0:0:0:
259,229,194956,5,12,0:0:0:0:
304,12,195112,1,8,3:0:0:0:
401,185,195269,5,4,1:2:0:0:
361,166,195347,1,0,1:0:0:0:
316,167,195425,1,0,1:0:0:0:
276,185,195503,1,0,1:0:0:0:
245,219,195581,5,8,3:0:0:0:
230,264,195659,1,8,3:0:0:0:
236,311,195737,1,8,3:0:0:0:
262,352,195815,1,8,3:0:0:0:
329,309,195894,6,0,P|337:278|344:233,1,53.6999983612061,12|0,0:0|0:0,0:0:0:0:
247,53,196050,6,0,P|295:61|361:70,1,114.112502176523,4|0,3:2|0:0,0:0:0:0:
359,69,196362,2,0,P|330:74|290:88,1,44.75,2|0,0:0|0:0,0:0:0:0:
95,222,196519,6,0,B|80:143|80:143|107:100|107:100|88:9,2,214.799993444824,4|8|0,1:0|0:0|3:0,0:0:0:0:
169,161,197300,1,0,3:0:0:0:
107,303,197456,1,8,0:0:0:0:
8,80,197612,5,2,0:0:0:0:
89,18,197769,2,0,P|128:25|180:29,1,80.5499975418092,4|0,3:2|3:0,0:0:0:0:
313,213,198081,5,8,0:0:0:0:
268,66,198237,1,0,3:0:0:0:
268,66,198315,1,0,3:0:0:0:
268,66,198394,1,2,0:0:0:0:
397,99,198550,5,2,0:0:0:0:
326,307,198706,1,8,0:0:0:0:
184,198,198862,1,2,0:0:0:0:
407,272,199019,6,0,P|299:276|250:366,2,214.799993444824,4|8|0,0:0|0:0|3:0,0:0:0:0:
474,351,199800,1,0,3:0:0:0:
512,224,199956,1,8,0:0:0:0:
345,86,200112,5,2,0:0:0:0:
439,23,200269,2,0,P|460:63|458:115,1,89.5,4|0,3:2|3:0,0:0:0:0:
349,357,200581,5,8,0:0:0:0:
250,278,200737,1,0,3:0:0:0:
250,278,200815,1,0,3:0:0:0:
250,278,200894,1,2,0:0:0:0:
342,218,201050,2,0,L|443:204,1,89.5,0|8,3:0|0:0,0:0:0:0:
145,354,201362,2,0,L|70:365,1,44.75,2|0,0:0|0:0,0:0:0:0:
160,242,201519,6,0,B|273:241|235:327|353:314,1,201.375007681847,4|0,1:2|0:0,0:0:0:0:
397,371,201831,2,0,P|417:332|414:280,1,89.5,8|0,0:0|0:0,0:0:0:0:
234,84,202144,5,0,3:0:0:0:
429,205,202300,1,0,3:0:0:0:
229,318,202456,1,8,0:0:0:0:
303,195,202612,5,2,0:0:0:0:
303,195,202690,1,2,0:0:0:0:
303,195,202769,1,4,1:2:0:0:
416,287,202925,1,0,3:0:0:0:
255,111,203081,2,0,B|153:108|184:163|73:160,1,187.949994264221,8|0,0:0|0:0,0:0:0:0:
0,101,203394,5,0,3:0:0:0:
187,182,203550,1,2,0:0:0:0:
50,276,203706,1,8,0:0:0:0:
165,90,203862,1,0,0:0:0:0:
244,329,204019,6,0,P|337:347|411:284,1,187.949994264221,4|0,1:2|0:0,0:0:0:0:
420,264,204331,1,8,0:0:0:0:
325,194,204487,2,0,P|310:219|324:267,1,62.6499980880738,2|0,0:0|0:0,0:0:0:0:
488,25,204644,6,0,P|395:7|321:70,1,187.949994264221,4|0,1:2|0:0,0:0:0:0:
312,90,204956,1,8,0:0:0:0:
407,160,205112,2,0,P|422:135|408:87,1,62.6499980880738,2|0,0:0|0:0,0:0:0:0:
199,7,205269,5,2,0:3:0:0:
139,226,205425,1,0,3:0:0:0:
199,7,205581,2,0,L|212:91,1,62.6499980880738,12|0,0:0|0:0,0:0:0:0:
248,287,205737,5,0,3:0:0:0:
248,287,205815,1,0,3:0:0:0:
248,287,205894,1,2,1:3:0:0:
327,166,206050,1,0,3:0:0:0:
94,55,206206,2,0,B|41:89|41:89|52:147|66:218,1,187.949994264221,12|0,0:0|0:0,0:0:0:0:
14,303,206519,6,0,P|65:230|189:247,2,214.799993444824,4|8|0,1:0|0:0|3:0,0:0:0:0:
101,381,207300,1,0,3:0:0:0:
236,310,207456,1,8,0:0:0:0:
423,383,207612,5,2,0:0:0:0:
502,296,207769,2,0,P|491:257|483:217,1,80.5499975418092,4|0,3:2|3:0,0:0:0:0:
308,50,208081,2,0,P|300:89|289:128,1,80.5499975418092,8|2,0:0|0:2,0:0:0:0:
289,128,208315,1,2,0:0:0:0:
289,128,208394,1,2,3:2:0:0:
356,249,208550,5,0,3:0:0:0:
420,104,208706,1,8,0:0:0:0:
263,316,208862,5,2,0:0:0:0:
124,206,209019,2,0,P|86:115|166:42,2,214.799993444824,4|8|0,0:0|0:0|3:0,0:0:0:0:
195,133,209800,1,0,3:0:0:0:
27,40,209956,1,8,0:0:0:0:
237,23,210112,5,2,0:0:0:0:
2,149,210269,2,0,P|11:191|14:246,1,89.5,4|0,3:2|3:0,0:0:0:0:
165,374,210581,5,8,0:0:0:0:
315,230,210737,1,2,0:0:0:0:
171,279,210894,6,0,P|212:292|263:313,1,89.5,4|0,3:2|3:0,0:0:0:0:
300,90,211206,2,0,P|258:106|215:120,1,89.5,10|0,0:0|0:0,0:0:0:0:
408,251,211519,2,0,P|410:206|415:161,1,89.5,4|0,3:2|0:0,0:0:0:0:
222,18,211831,5,8,0:0:0:0:
322,207,211987,1,0,3:0:0:0:
322,207,212065,1,0,3:0:0:0:
322,207,212144,1,2,0:0:0:0:
171,282,212300,1,0,3:0:0:0:
225,195,212456,5,8,0:0:0:0:
322,384,212612,2,0,B|342:336|342:336|334:277,1,107.399996722412,2|4,0:0|3:2,0:0:0:0:
148,8,212925,2,0,B|128:56|128:56|136:115,1,107.399996722412,2|8,0:0|0:0,0:0:0:0:
135,110,213237,6,0,L|231:94,1,80.5499975418092,2|0,0:0|3:0,0:0:0:0:
334,281,213550,2,0,L|238:297,1,80.5499975418092,2|8,3:2|0:0,0:0:0:0:
170,211,213862,2,0,L|228:200,1,40.2749987709046,2|0,0:0|0:0,0:0:0:0:
433,97,214019,6,0,P|488:169|447:251,1,187.949994264221,4|0,1:2|0:0,0:0:0:0:
421,268,214331,1,8,0:0:0:0:
328,104,214487,2,0,L|345:31,1,62.6499980880738,2|0,0:0|0:0,0:0:0:0:
95,193,214644,6,0,P|40:265|81:347,1,187.949994264221,4|0,1:2|0:0,0:0:0:0:
107,364,214956,1,8,0:0:0:0:
200,200,215112,2,0,L|183:127,1,62.6499980880738,2|0,0:0|0:0,0:0:0:0:
90,60,215269,5,12,0:0:0:0:
271,156,215425,1,8,3:0:0:0:
182,281,215581,5,2,3:2:0:0:
391,143,215737,1,8,3:0:0:0:
383,379,215894,5,2,3:0:0:0:
398,338,215972,1,0,3:0:0:0:
393,294,216050,1,0,1:0:0:0:
407,252,216128,1,0,1:0:0:0:
432,216,216206,2,0,P|399:224|359:226,1,62.6499980880738,2|0,3:0|3:0,0:0:0:0:
127,127,216362,2,0,P|158:129|188:137,1,62.6499980880738,0|0,1:0|1:0,0:0:0:0:
276,191,216519,5,4,1:0:0:0:
348,111,216675,1,2,0:0:0:0:
223,56,216831,1,8,0:0:0:0:
298,266,216987,1,2,0:0:0:0:
313,26,217144,5,0,3:0:0:0:
129,147,217300,1,2,3:2:0:0:
298,266,217456,1,8,0:0:0:0:
207,19,217612,1,2,0:0:0:0:
172,327,217769,5,0,1:0:0:0:
375,217,217925,1,2,1:2:0:0:
142,128,218081,1,8,0:0:0:0:
120,250,218237,2,0,P|163:240|207:233,1,89.5,2|0,1:2|3:0,0:0:0:0:
400,89,218550,2,0,P|355:95|312:105,1,89.5,2|8,3:2|0:0,0:0:0:0:
143,11,218862,2,0,P|164:15|196:20,1,44.75,2|0,0:0|0:0,0:0:0:0:
370,190,219019,5,4,0:0:0:0:
307,265,219175,1,2,0:0:0:0:
231,202,219331,1,8,0:0:0:0:
294,127,219487,1,2,0:0:0:0:
179,264,219644,5,0,3:0:0:0:
317,380,219800,1,2,3:2:0:0:
431,242,219956,1,8,0:0:0:0:
294,127,220112,1,2,0:0:0:0:
35,218,220269,5,4,1:2:0:0:
187,37,220425,1,2,1:2:0:0:
370,190,220581,1,8,0:0:0:0:
216,370,220737,1,8,0:0:0:0:
205,119,220894,5,8,3:0:0:0:
215,157,220972,1,8,3:0:0:0:
197,193,221050,1,8,3:0:0:0:
215,228,221128,1,8,3:0:0:0:
215,228,221206,6,0,B|315:238|271:279|371:283,1,161.099995083618,12|0,0:0|0:0,0:0:0:0:
434,183,221519,6,0,L|366:194,1,62.6499980880738,4|0,1:0|0:0,0:0:0:0:
454,331,221831,2,0,L|443:263,1,62.6499980880738,4|8,1:2|3:0,0:0:0:0:
409,19,222144,6,0,L|315:34,1,80.5499975418092,4|8,1:2|3:0,0:0:0:0:
434,183,222456,2,0,L|420:96,1,80.5499975418092,4|8,1:2|3:0,0:0:0:0:
82,196,222769,6,0,L|179:206,1,98.4500030044557,4|8,1:2|3:0,0:0:0:0:
61,384,223081,2,0,L|72:285,1,98.4500030044557,4|8,1:2|3:0,0:0:0:0:
102,2,223394,6,0,L|242:18,1,116.34999467392,4|8,1:2|3:0,0:0:0:0:
82,196,223706,2,0,L|98:56,1,116.34999467392,4|8,1:2|3:0,0:0:0:0:
365,313,224019,5,4,1:2:0:0:
249,369,224175,2,0,L|486:337,1,232.69998934784,2|2,0:0|3:2,0:0:0:0:
189,138,224644,5,8,0:0:0:0:
305,194,224800,2,0,B|193:173|193:173|125:210|144:274,1,232.69998934784,2|2,0:0|3:2,0:0:0:0:
418,124,225269,5,4,3:2:0:0:
302,60,225425,1,0,3:0:0:0:
221,268,225581,5,0,0:0:0:0:
443,205,225737,1,2,0:0:0:0:
358,281,225894,5,0,3:0:0:0:
215,55,226050,2,0,B|128:45|148:79|58:67,1,156.624995220184,2|0,0:3|0:0,0:0:0:0:
48,61,226517,5,4,0:0:0:0:
101,225,226673,1,0,0:0:0:0:
0,127,226829,1,8,0:0:0:0:
178,114,226985,1,0,0:0:0:0:
23,199,227142,1,0,3:0:0:0:
131,51,227298,1,0,3:0:0:0:
171,194,227454,1,8,0:0:0:0:
98,140,227610,5,2,0:0:0:0:
246,175,227767,1,2,3:2:0:0:
394,210,227923,1,2,3:2:0:0:
305,240,228079,5,8,0:0:0:0:
411,126,228235,2,0,L|426:31,1,89.5,2|8,0:0|3:0,0:0:0:0:
328,98,228548,5,2,0:0:0:0:
476,188,228704,1,8,0:0:0:0:
387,320,228860,1,2,3:2:0:0:
387,320,228938,1,8,3:0:0:0:
387,320,229017,5,4,3:0:0:0:
402,236,229173,1,2,0:0:0:0:
469,337,229329,1,8,0:0:0:0:
493,263,229485,1,0,0:0:0:0:
401,218,229642,5,0,3:0:0:0:
502,255,229798,1,0,3:0:0:0:
373,335,229954,1,8,0:0:0:0:
468,354,230110,1,0,0:0:0:0:
474,173,230267,5,2,3:2:0:0:
320,269,230423,1,2,3:2:0:0:
136,217,230579,1,8,0:0:0:0:
217,162,230735,6,0,P|221:208|228:252,1,89.5,2|8,0:0|3:0,0:0:0:0:
64,339,231048,2,0,P|60:294|53:250,1,89.5,2|8,3:2|0:0,0:0:0:0:
188,363,231360,1,0,0:0:0:0:
188,363,231438,1,8,3:0:0:0:
188,363,231517,5,4,0:0:0:0:
266,326,231673,1,2,0:0:0:0:
148,192,231829,1,8,0:0:0:0:
98,262,231985,1,0,0:0:0:0:
277,248,232142,5,2,3:2:0:0:
234,184,232298,1,2,3:2:0:0:
118,336,232454,1,8,0:0:0:0:
194,366,232610,1,2,3:2:0:0:
186,273,232767,6,0,L|167:57,1,179,4|8,3:0|0:0,0:0:0:0:
95,50,233235,1,2,3:2:0:0:
75,126,233392,1,0,3:0:0:0:
271,108,233548,1,2,3:2:0:0:
231,31,233704,1,8,0:0:0:0:
135,207,233860,1,0,0:0:0:0:
226,196,234017,6,0,B|318:184|281:253|395:242,1,179,2|8,3:2|0:0,0:0:0:0:
478,204,234485,1,2,0:0:0:0:
363,159,234642,1,0,3:0:0:0:
372,326,234798,1,0,3:0:0:0:
497,194,234954,5,10,0:0:0:0:
293,240,235110,1,2,0:0:0:0:
89,286,235267,2,0,L|102:188,1,98.4500030044557,6|8,0:0|3:0,0:0:0:0:
179,300,235579,5,8,0:0:0:0:
49,121,235735,1,4,3:0:0:0:
259,148,235892,2,0,L|111:184,1,131.266670672608,4|8,3:0|0:0,0:0:0:0:
102,188,236204,2,0,L|90:98,2,65.6333353363038,8|8|8,0:0|3:0|0:0,0:0:0:0:
114,270,236517,5,4,1:2:0:0:
43,42,236673,2,0,P|121:40|183:90,1,161.099995083618,8|2,3:0|3:2,0:0:0:0:
265,76,237142,5,8,0:0:0:0:
194,304,237298,2,0,P|272:305|334:255,1,161.099995083618,8|2,3:0|0:0,0:0:0:0:
412,280,237767,5,0,3:0:0:0:
341,52,237923,2,0,P|419:50|481:100,1,161.099995083618,8|2,3:0|3:2,0:0:0:0:
497,186,238392,5,8,0:0:0:0:
248,229,238548,2,0,L|235:135,1,80.5499975418092,0|4,3:0|0:3,0:0:0:0:
295,91,238860,1,2,0:0:0:0:
441,250,239017,5,4,1:2:0:0:
512,66,239173,2,0,P|442:115|348:113,1,161.099995083618,8|2,3:0|3:2,0:0:0:0:
295,91,239642,5,8,0:0:0:0:
374,299,239798,2,0,P|304:250|210:252,1,161.099995083618,8|2,3:0|0:0,0:0:0:0:
156,298,240267,5,0,3:0:0:0:
219,48,240423,2,0,P|149:97|55:95,1,161.099995083618,8|2,3:0|3:2,0:0:0:0:
125,19,240892,5,8,0:0:0:0:
232,157,241048,1,0,3:0:0:0:
232,157,241204,2,0,L|370:179,1,120.824996312714,8|0,0:0|0:0,0:0:0:0:
362,185,241517,5,4,1:2:0:0:
428,348,241673,1,2,0:0:0:0:
461,246,241829,1,8,0:0:0:0:
335,297,241985,2,0,L|246:282,1,89.5,2|0,0:0|3:0,0:0:0:0:
202,97,242298,5,2,3:2:0:0:
280,41,242454,2,0,P|301:93|287:136,1,89.5,8|2,0:0|3:2,0:0:0:0:
98,310,242767,5,4,0:0:0:0:
23,145,242923,1,2,3:2:0:0:
23,145,243001,1,2,0:0:0:0:
23,145,243079,1,8,0:0:0:0:
148,29,243235,1,8,0:0:0:0:
220,178,243392,1,8,3:0:0:0:
65,231,243548,5,2,3:2:0:0:
122,114,243704,2,0,L|141:205,1,89.5,8|2,0:0|0:0,0:0:0:0:
368,343,244011,6,0,P|420:351|503:284,1,134.25,4|0,1:2|0:0,0:0:0:0:
495,301,244323,1,4,0:3:0:0:
420,68,244479,6,0,P|368:60|285:127,1,134.25,12|0,0:0|0:0,0:0:0:0:
293,110,244792,1,4,0:3:0:0:
424,210,244948,6,0,B|294:190|339:248|170:225,1,214.799993444824,12|2,0:0|3:2,0:0:0:0:
140,187,245417,1,0,3:0:0:0:
216,152,245573,1,8,3:0:0:0:
214,313,245729,5,0,1:0:0:0:
214,313,245807,1,0,1:0:0:0:
214,313,245886,1,8,3:0:0:0:
301,68,246042,1,12,0:0:0:0:
201,48,246198,5,0,3:0:0:0:
311,287,246354,1,8,3:0:0:0:
364,215,246511,6,0,B|290:164|189:215|263:279|185:340|100:330|43:277|18:207|45:127|150:78|214:163,1,572.8,4|6,1:0|0:0,0:0:0:0:
442,55,260886,6,0,P|443:79|449:112,1,44.75,12|0,3:0|0:0,0:0:0:0:
326,335,261198,2,0,P|324:310|319:278,1,44.75,2|0,0:0|0:0,0:0:0:0:
282,175,261511,6,0,P|332:209|397:206,1,125.299996176148,4|0,0:0|3:0,0:0:0:0:
512,346,261979,2,0,P|450:343|399:377,1,125.299996176148,2|0,0:0|0:0,0:0:0:0:
399,377,262448,6,0,L|416:303,1,62.6499980880738,2|0,3:2|0:0,0:0:0:0:
485,203,262761,2,0,L|411:186,1,62.6499980880738,2|0,3:2|0:0,0:0:0:0:
296,113,263073,2,0,L|279:187,1,62.6499980880738,0|0,3:0|0:0,0:0:0:0:
210,287,263386,2,0,L|284:304,1,62.6499980880738,2|0,3:2|0:0,0:0:0:0:
350,246,263698,5,2,3:2:0:0:
296,113,263854,1,0,0:0:0:0:
368,46,264011,6,0,P|432:37|500:26,1,125.299996176148,2|2,3:2|3:2,0:0:0:0:
277,194,264479,2,0,P|215:203|153:212,1,125.299996176148,2|0,0:0|0:0,0:0:0:0:
153,212,264948,6,0,L|171:136,1,62.6499980880738,2|0,3:2|0:0,0:0:0:0:
219,67,265261,2,0,P|187:63|158:53,1,62.6499980880738,2|0,3:2|0:0,0:0:0:0:
277,194,265573,2,0,L|259:270,1,62.6499980880738,2|0,3:2|0:0,0:0:0:0:
211,339,265886,2,0,P|243:343|278:355,1,62.6499980880738,2|0,3:2|0:0,0:0:0:0:
351,286,266198,5,8,3:0:0:0:
188,208,266354,1,4,0:3:0:0:
122,285,266511,6,0,P|57:298|-14:317,1,125.299996176148,2|0,3:2|3:0,0:0:0:0:
200,197,266979,2,0,P|139:181|77:169,1,125.299996176148,2|0,0:0|0:0,0:0:0:0:
187,368,267448,2,0,P|157:374|107:390,1,62.6499980880738,2|0,3:2|0:0,0:0:0:0:
390,285,267761,6,0,P|455:298|526:317,1,125.299996176148,2|0,3:2|3:0,0:0:0:0:
312,197,268229,2,0,P|372:181|434:169,1,125.299996176148,2|0,0:0|0:0,0:0:0:0:
325,368,268698,2,0,P|355:374|405:390,1,62.6499980880738,2|0,3:2|0:0,0:0:0:0:
258,312,269011,5,0,3:0:0:0:
250,293,269167,1,0,0:0:0:0:
303,215,269323,1,0,3:0:0:0:
227,118,269479,2,0,P|163:115|110:86,1,125.299996176148,2|0,0:0|0:0,0:0:0:0:
12,203,269948,6,0,P|42:188|74:183,1,62.6499980880738,2|0,3:2|0:0,0:0:0:0:
90,27,270261,2,0,P|105:57|110:89,1,62.6499980880738,2|0,3:2|0:0,0:0:0:0:
305,294,270573,2,0,P|275:279|243:274,1,62.6499980880738,2|0,3:2|0:0,0:0:0:0:
227,118,270886,2,0,P|212:148|207:180,1,62.6499980880738,2|0,3:2|0:0,0:0:0:0:
250,362,271198,5,2,3:2:0:0:
406,305,271354,1,4,0:3:0:0:
361,241,271511,6,0,P|372:172|376:107,1,125.299996176148,2|2,0:3|0:3,0:0:0:0:
375,116,272448,1,2,0:0:0:0:
451,197,272761,6,0,P|481:201|512:213,1,62.6499980880738,2|0,0:3|0:0,0:0:0:0:
289,80,273386,2,0,P|256:92|224:98,1,62.6499980880738,2|0,0:3|0:0,0:0:0:0:
172,160,274011,6,0,B|98:155|127:176|40:169,1,125.299996176148,2|2,0:0|0:3,0:0:0:0:
176,318,274948,1,2,0:0:0:0:
109,355,275261,2,0,P|98:325|101:290,1,62.6499980880738,2|0,0:3|0:0,0:0:0:0:
152,234,275886,2,0,P|163:204|160:169,1,62.6499980880738,2|0,0:3|0:0,0:0:0:0:
23,133,276490,5,6,0:0:0:0:
495,81,277740,5,2,0:0:0:0:
108,105,278990,5,2,0:0:0:0:
263,80,279615,1,2,0:0:0:0:
414,123,280240,1,2,0:0:0:0:
33,327,281514,5,2,0:0:0:0:
383,274,282764,5,2,0:0:0:0:
289,236,283389,1,2,0:0:0:0:
214,278,284014,1,2,0:0:0:0:
337,379,284620,5,2,0:0:0:0:
458,238,285283,1,2,0:0:0:0:
332,63,285888,1,2,0:0:0:0:
103,146,286513,5,2,3:2:0:0:
103,146,286669,1,0,3:0:0:0:
317,227,287763,5,2,0:0:0:0:
138,271,289013,5,2,0:0:0:0:
228,312,290263,5,2,0:0:0:0:
157,337,290888,1,2,0:0:0:0:
183,370,291513,5,2,3:2:0:0:
183,370,291669,1,0,3:0:0:0:
263,92,292763,5,2,0:0:0:0:
190,126,294013,6,0,B|262:87|356:128|289:167|385:208|456:166,1,286.4,2|0,0:0|0:0,0:0:0:0:
486,144,295888,6,0,L|476:200,1,53.7,2|0,0:3|3:0,0:0:0:0:
512,268,296434,5,0,3:0:0:0:
512,268,296513,2,0,P|502:159|498:53,2,214.799993444824,4|8|0,1:0|0:0|3:0,0:0:0:0:
188,353,297294,1,0,3:0:0:0:
410,182,297450,1,8,0:0:0:0:
450,361,297606,5,2,0:0:0:0:
217,217,297763,2,0,L|229:125,1,80.5499975418092,4|0,3:2|3:0,0:0:0:0:
406,272,298075,2,0,L|309:312,1,80.5499975418092,8|0,0:0|3:2,0:0:0:0:
331,302,298309,1,0,3:0:0:0:
331,302,298388,1,2,3:2:0:0:
373,77,298544,1,2,3:2:0:0:
461,153,298700,1,8,0:0:0:0:
343,88,298856,5,2,0:0:0:0:
453,183,299013,2,0,B|340:163|370:253|238:217,2,214.799993444824,4|8|0,3:2|0:0|3:0,0:0:0:0:
428,272,299794,1,0,3:0:0:0:
288,132,299950,1,8,0:0:0:0:
315,311,300106,5,2,0:0:0:0:
373,110,300263,2,0,L|365:18,1,89.5,4|0,3:2|3:0,0:0:0:0:
195,91,300575,5,8,0:0:0:0:
456,70,300731,1,0,3:0:0:0:
456,70,300809,1,0,3:0:0:0:
456,70,300888,1,2,0:0:0:0:
273,35,301044,2,0,L|280:124,1,89.5,0|8,3:0|0:0,0:0:0:0:
365,344,301356,6,0,L|374:274,1,44.75,2|0,2:0|3:0,3:0:0:0:
440,181,301513,2,0,B|338:164|351:238|237:216,1,201.375007681847,4|0,1:2|0:0,0:0:0:0:
256,241,301825,2,0,L|154:253,1,89.5,8|0,0:0|0:0,0:0:0:0:
0,293,302138,5,0,3:0:0:0:
179,147,302294,1,0,3:0:0:0:
228,360,302450,1,8,0:0:0:0:
64,195,302606,5,2,0:0:0:0:
64,195,302684,1,2,0:0:0:0:
64,195,302763,2,0,P|32:134|52:5,1,187.949994264221,4|0,1:2|0:0,0:0:0:0:
69,38,303075,2,0,L|153:20,1,44.75,8|0,0:0|0:0,0:0:0:0:
267,161,303231,6,0,L|145:141,1,89.5,2|2,0:0|3:2,0:0:0:0:
370,88,303544,1,2,3:2:0:0:
322,276,303700,2,0,L|291:104,1,134.25,8|0,0:0|0:0,0:0:0:0:
370,88,304013,6,0,L|409:287,1,187.949994264221,4|0,1:2|0:0,0:0:0:0:
411,297,304325,1,8,0:0:0:0:
298,43,304481,2,0,P|317:19|366:8,1,62.6499980880738,2|0,0:0|0:0,0:0:0:0:
432,169,304638,6,0,L|233:208,1,187.949994264221,4|0,1:2|0:0,0:0:0:0:
223,210,304950,1,8,0:0:0:0:
477,97,305106,2,0,P|501:116|512:165,1,62.6499980880738,2|0,0:0|0:0,0:0:0:0:
324,331,305263,5,2,0:3:0:0:
286,122,305419,1,0,3:0:0:0:
324,331,305575,2,0,L|310:250,1,53.6999983612061,12|0,0:0|0:0,0:0:0:0:
367,72,305731,5,0,3:0:0:0:
367,72,305809,1,0,3:0:0:0:
367,72,305888,1,2,1:3:0:0:
201,256,306044,1,0,3:0:0:0:
70,55,306200,2,0,P|148:63|198:123,1,161.099995083618,12|0,0:0|0:0,0:0:0:0:
277,164,306513,6,0,B|148:149|200:217|36:191,2,214.799993444824,4|8|0,1:0|0:0|3:0,0:0:0:0:
378,249,307294,1,2,3:2:0:0:
257,57,307450,1,8,0:0:0:0:
212,266,307606,5,2,0:0:0:0:
399,137,307763,2,0,L|417:46,1,80.5499975418092,4|0,3:2|3:0,0:0:0:0:
501,107,308075,5,8,0:0:0:0:
320,63,308231,1,2,0:0:0:0:
320,63,308309,1,2,0:0:0:0:
320,63,308388,1,0,3:0:0:0:
472,208,308544,1,2,3:2:0:0:
294,162,308700,1,8,0:0:0:0:
417,51,308856,5,2,0:0:0:0:
350,309,309013,2,0,P|376:271|538:286,2,214.799993444824,4|8|0,3:2|0:0|3:0,0:0:0:0:
445,337,309794,1,0,3:0:0:0:
231,169,309950,1,8,0:0:0:0:
216,294,310106,5,2,0:0:0:0:
472,208,310263,2,0,P|475:166|487:104,1,89.5,4|0,3:2|3:0,0:0:0:0:
301,3,310575,2,0,P|297:44|286:107,1,89.5,8|2,0:0|0:0,0:0:0:0:
289,91,310809,1,2,0:0:0:0:
289,91,310888,1,4,3:2:0:0:
337,284,311044,1,2,3:2:0:0:
362,185,311200,6,0,P|314:191|241:209,1,89.5,8|2,0:0|0:0,0:0:0:0:
110,52,311513,2,0,P|133:106|145:138,1,89.5,4|0,3:2|0:0,0:0:0:0:
190,211,311825,1,8,0:0:0:0:
108,257,311981,5,0,3:0:0:0:
108,257,312059,1,0,3:0:0:0:
108,257,312138,1,2,0:0:0:0:
230,126,312294,1,0,3:0:0:0:
232,302,312450,1,8,0:0:0:0:
68,171,312606,5,2,0:0:0:0:
322,113,312763,1,4,3:2:0:0:
106,91,312919,5,2,0:0:0:0:
337,209,313075,1,8,0:0:0:0:
173,221,313231,6,0,P|215:214|268:211,1,80.5499975418092,2|0,0:0|3:0,0:0:0:0:
227,2,313544,2,0,P|188:8|132:12,1,80.5499975418092,2|8,3:2|0:0,0:0:0:0:
203,132,313856,2,0,L|208:92,1,40.2749987709046,2|0,0:0|0:0,0:0:0:0:
122,37,314013,6,0,L|323:73,1,187.949994264221,4|0,1:2|0:0,0:0:0:0:
339,75,314325,1,8,0:0:0:0:
310,306,314481,2,0,L|293:230,1,62.6499980880738,2|0,0:0|0:0,0:0:0:0:
362,180,314638,6,0,L|173:212,1,187.949994264221,4|0,1:2|0:0,0:0:0:0:
147,217,314950,1,8,0:0:0:0:
313,49,315106,2,0,L|288:131,1,62.6499980880738,2|0,0:0|0:0,0:0:0:0:
382,261,315263,5,12,0:0:0:0:
223,48,315419,1,2,0:0:0:0:
383,94,315575,5,2,3:2:0:0:
219,316,315731,1,8,3:0:0:0:
295,109,315888,5,2,3:0:0:0:
295,109,315966,1,0,3:0:0:0:
295,109,316044,2,0,P|310:132|346:170,1,62.6499980880738,0|0,1:0|1:0,1:0:0:0:
299,232,316200,2,0,P|270:233|220:246,1,62.6499980880738,2|0,3:0|3:0,0:0:0:0:
176,186,316356,2,0,P|188:160|203:110,1,62.6499980880738,0|0,1:0|1:0,0:0:0:0:
379,11,316513,5,4,1:0:0:0:
295,109,316669,1,2,0:0:0:0:
326,234,316825,1,8,0:0:0:0:
443,288,316981,1,2,0:0:0:0:
400,100,317138,5,4,3:2:0:0:
208,37,317294,1,2,3:2:0:0:
90,184,317450,1,8,0:0:0:0:
148,380,317606,1,2,0:0:0:0:
316,258,317763,5,4,1:2:0:0:
173,194,317919,1,2,1:2:0:0:
0,309,318075,1,8,0:0:0:0:
173,194,318231,6,0,P|129:185|86:173,1,89.5,2|0,1:2|3:0,0:0:0:0:
294,359,318544,2,0,P|337:367|380:379,1,89.5,2|8,3:2|0:0,0:0:0:0:
236,288,318856,2,0,P|242:264|247:238,1,44.75,2|0,0:0|0:0,0:0:0:0:
315,94,319013,5,4,0:0:0:0:
426,205,319169,1,2,0:0:0:0:
236,288,319325,1,8,0:0:0:0:
320,196,319481,1,2,0:0:0:0:
67,101,319638,5,4,3:2:0:0:
146,271,319794,1,2,3:2:0:0:
356,27,319950,1,8,0:0:0:0:
157,152,320106,1,2,0:0:0:0:
425,331,320263,5,4,1:2:0:0:
247,60,320419,1,2,1:2:0:0:
92,356,320575,1,8,0:0:0:0:
309,240,320731,5,4,3:2:0:0:
153,161,320888,1,8,0:0:0:0:
142,280,321044,5,4,3:2:0:0:
327,153,321200,1,8,0:0:0:0:
157,64,321356,1,8,3:0:0:0:
403,224,321513,6,0,L|508:214,1,93.9749971321107,4|0,1:0|0:0,0:0:0:0:
497,216,321825,2,0,P|503:185|514:139,1,62.6499980880738,4|8,1:2|3:0,0:0:0:0:
315,18,322138,6,0,P|307:75|292:146,1,120.824996312714,4|0,1:2|0:0,0:0:0:0:
294,136,322450,2,0,L|382:125,1,80.5499975418092,4|8,1:2|3:0,0:0:0:0:
148,368,322763,6,0,L|137:212,1,147.675004506683,4|0,1:2|0:0,0:0:0:0:
137,220,323075,2,0,P|181:232|241:237,1,98.4500030044557,4|8,1:2|3:0,0:0:0:0:
511,362,323388,6,0,P|427:367|327:388,1,174.52499201088,4|0,1:2|0:0,0:0:0:0:
338,384,323700,2,0,L|357:258,1,116.34999467392,4|8,1:2|3:0,0:0:0:0:
149,36,324013,5,4,0:0:0:0:
237,237,324169,1,2,0:0:0:0:
165,141,324325,1,4,0:3:0:0:
235,76,324481,5,2,3:2:0:0:
117,302,324638,1,8,0:0:0:0:
82,184,324794,2,0,B|221:150|185:234|312:197,1,232.69998934784,2|2,0:0|3:2,0:0:0:0:
389,126,325263,5,4,0:0:0:0:
316,349,325419,1,8,0:0:0:0:
391,240,325575,1,2,0:0:0:0:
285,82,325731,5,0,3:0:0:0:
400,257,325888,1,8,0:0:0:0:
488,123,326044,2,0,P|406:103|306:206,1,232.69998934784,2|2,0:0|3:2,0:0:0:0:
459,358,326513,6,0,L|519:352,1,53.6999983612061,4|2,0:0|3:2,0:0:0:0:
512,352,326999,1,8,3:0:0:0:
244,293,327155,5,8,0:0:0:0:
327,367,327311,2,0,P|333:313|352:262,1,107.399996722412,0|0,3:0|0:0,0:0:0:0:
444,197,327780,5,4,3:2:0:0:
201,122,327936,1,2,3:2:0:0:
379,115,328092,5,2,0:0:0:0:
294,189,328249,2,0,P|289:162|286:121,1,53.6999983612061,0|0,3:0|0:0,0:0:0:0:
291,17,328561,6,0,P|265:24|233:29,1,53.6999983612061,4|0,1:2|0:0,0:0:0:0:
336,290,328717,2,0,P|310:293|284:300,1,53.6999983612061,12|0,0:0|0:0,0:0:0:0:
270,170,328873,6,0,B|160:154|180:240|51:221,1,223.75,12|0,1:2|0:0,0:0:0:0:
