osu file format v14

[General]
AudioFilename: audio.mp3
AudioLeadIn: 0
PreviewTime: 48476
Countdown: 1
SampleSet: Soft
StackLeniency: 0.7
Mode: 0
LetterboxInBreaks: 0
WidescreenStoryboard: 0

[Editor]
DistanceSpacing: 1.2
BeatDivisor: 3
GridSize: 8
TimelineZoom: 1

[Metadata]
Title:No title (Swing Arrangement)
TitleUnicode:No title (Swing Arrangement)
Artist:Will Stetson
ArtistUnicode:Will Stetson
Creator:ImmaPartyCookie
Version:no diff
Source:
Tags:れをる reol giga-p okiku swing -smeargle
BeatmapID:1896010
BeatmapSetID:908649

[Difficulty]
HPDrainRate:8
CircleSize:4.5
OverallDifficulty:8
ApproachRate:9.5
SliderMultiplier:1.7
SliderTickRate:1

[Events]
//Background and Video events
0,0,"massive-raked-beach-under-beautiful-sky-1920x1200-wallpaper.jpg",0,0
//Break Periods
//Storyboard Layer 0 (Background)
//Storyboard Layer 1 (Fail)
//Storyboard Layer 2 (Pass)
//Storyboard Layer 3 (Foreground)
//Storyboard Layer 4 (Overlay)
//Storyboard Sound Samples

[TimingPoints]
776,300,4,2,1,50,1,0
48776,-83.3333333333333,4,2,1,50,0,1
67976,-100,4,2,1,50,0,0
75176,-133.333333333333,4,2,1,20,0,0
77576,-133.333333333333,4,2,1,5,0,0

[Colours]
Combo1 : 255,128,128
Combo2 : 0,128,255
Combo3 : 255,159,113
Combo4 : 174,94,255

[HitObjects]
65,79,776,6,0,L|217:66,1,113.333333333333,2|0,0:0|0:0,0:0:0:0:
242,105,1076,2,0,L|383:124,1,113.333333333333
421,87,1376,1,0,0:0:0:0:
364,213,1576,1,0,0:0:0:0:
364,213,1676,1,0,0:0:0:0:
418,329,1876,1,0,0:0:0:0:
418,329,1976,6,0,P|331:331|280:290,1,113.333333333333,2|0,0:0|0:0,0:0:0:0:
257,271,2276,2,0,P|213:250|137:264,1,113.333333333333
83,291,2576,1,0,0:0:0:0:
28,174,2776,1,0,0:0:0:0:
28,174,2876,1,0,0:0:0:0:
135,81,3076,1,0,0:0:0:0:
135,81,3176,6,0,B|122:135|122:135|148:229,1,113.333333333333,2|0,0:0|0:0,0:0:0:0:
211,181,3476,2,0,B|223:126|223:126|198:33,1,113.333333333333
291,161,3776,2,0,B|278:215|278:215|304:309,1,113.333333333333
370,259,4076,2,0,B|382:204|382:204|357:111,1,113.333333333333
324,89,4376,5,2,0:0:0:0:
199,63,4576,1,0,0:0:0:0:
199,63,4676,1,0,0:0:0:0:
83,138,4876,1,0,0:0:0:0:
83,138,4976,1,0,0:0:0:0:
176,235,5176,1,0,0:0:0:0:
176,235,5276,2,0,P|169:274|185:323,2,56.6666666666667,2|2|2,0:0|0:0|0:0,0:0:0:0:
267,211,5576,6,0,P|289:282|273:360,1,113.333333333333,6|0,0:0|0:0,0:0:0:0:
193,355,5876,2,0,P|173:302|173:245,1,113.333333333333
180,150,6176,1,2,0:0:0:0:
287,61,6376,1,0,0:0:0:0:
287,61,6476,1,0,0:0:0:0:
348,214,6676,1,0,0:0:0:0:
348,214,6776,6,0,P|293:220|231:265,1,113.333333333333,2|0,0:0|0:0,0:0:0:0:
174,307,7076,2,0,P|127:324|43:308,1,113.333333333333
44,228,7376,2,0,P|80:202|180:202,1,113.333333333333,2|0,0:0|0:0,0:0:0:0:
113,95,7676,2,0,P|77:121|-23:121,1,113.333333333333
44,56,7976,1,2,0:0:0:0:
205,92,8176,1,0,0:0:0:0:
205,92,8276,1,0,0:0:0:0:
362,50,8476,1,0,0:0:0:0:
362,50,8576,1,2,0:0:0:0:
310,200,8776,1,0,0:0:0:0:
310,200,8876,1,0,0:0:0:0:
402,336,9076,1,0,0:0:0:0:
402,336,9176,2,0,L|335:352,2,56.6666666666667,2|2|2,0:0|0:0|0:0,0:0:0:0:
446,266,9476,6,0,P|464:208|440:130,1,113.333333333333,2|0,0:0|0:0,0:0:0:0:
391,91,9776,1,2,0:0:0:0:
350,212,9976,1,2,0:0:0:0:
350,212,10076,1,2,0:0:0:0:
279,93,10276,1,2,0:0:0:0:
279,93,10376,6,2,L|150:103,1,113.333333333333,6|2,0:0|0:0,0:0:0:0:
121,201,10676,2,0,L|245:190,1,113.333333333333,8|0,0:0|0:0,0:0:0:0:
392,223,10976,2,0,P|413:285|397:352,1,113.333333333333
303,361,11276,2,0,P|277:317|290:244,1,113.333333333333,8|0,0:0|0:0,0:0:0:0:
320,188,11576,5,0,0:0:0:0:
377,42,11776,1,0,0:0:0:0:
377,42,11876,1,8,0:0:0:0:
236,80,12076,2,0,P|308:99|378:37,1,170
380,152,12476,2,0,P|357:202|366:283,1,113.333333333333,8|0,0:0|0:0,0:0:0:0:
413,348,12776,6,0,L|246:332,1,113.333333333333,2|0,0:0|0:0,0:0:0:0:
240,269,13076,2,0,L|80:293,1,113.333333333333,8|0,0:0|0:0,0:0:0:0:
49,346,13376,1,0,0:0:0:0:
102,197,13576,1,0,0:0:0:0:
102,197,13676,1,8,0:0:0:0:
26,50,13876,1,0,0:0:0:0:
26,50,13976,6,0,P|75:57|139:18,1,113.333333333333
222,51,14276,2,0,P|275:77|343:56,1,113.333333333333,8|0,0:0|0:0,0:0:0:0:
428,34,14576,2,0,L|405:255,1,170,0|8,0:0|0:0,0:0:0:0:
284,307,15076,1,0,0:0:0:0:
284,307,15176,6,0,P|343:319|430:295,1,113.333333333333,2|0,0:0|0:0,0:0:0:0:
337,231,15476,2,0,P|283:215|214:234,1,113.333333333333,8|0,0:0|0:0,0:0:0:0:
133,281,15776,2,0,L|108:135,1,113.333333333333
178,95,16076,1,8,0:0:0:0:
343,130,16276,5,0,0:0:0:0:
343,130,16376,1,0,0:0:0:0:
488,67,16576,1,0,0:0:0:0:
488,67,16676,1,8,0:0:0:0:
407,198,16876,1,0,0:0:0:0:
407,198,16976,1,0,0:0:0:0:
387,33,17176,1,0,0:0:0:0:
387,33,17276,1,8,0:0:0:0:
291,164,17476,1,0,0:0:0:0:
291,164,17576,6,0,P|233:151|157:189,1,113.333333333333,2|0,0:0|0:0,0:0:0:0:
122,252,17876,2,0,P|186:280|249:260,1,113.333333333333,8|0,0:0|0:0,0:0:0:0:
331,245,18176,2,0,L|361:368,1,113.333333333333
434,282,18476,2,0,L|440:167,1,113.333333333333,8|0,0:0|0:0,0:0:0:0:
374,88,18776,6,0,P|340:68|258:82,1,113.333333333333
197,137,19076,2,0,P|123:175|73:167,1,113.333333333333,8|0,0:0|0:0,0:0:0:0:
10,141,19376,1,0,0:0:0:0:
88,285,19576,1,0,0:0:0:0:
88,285,19676,1,8,0:0:0:0:
235,228,19876,1,0,0:0:0:0:
235,228,19976,6,0,B|313:250|313:250|425:206,1,170,6|8,0:0|0:0,0:0:0:0:
425,47,20476,1,0,0:0:0:0:
425,47,20576,1,0,0:0:0:0:
310,169,20776,1,0,0:0:0:0:
310,169,20876,1,8,0:0:0:0:
220,36,21076,1,0,0:0:0:0:
220,36,21176,6,0,P|190:91|194:163,1,113.333333333333,2|0,0:0|0:0,0:0:0:0:
276,185,21476,2,0,P|299:226|306:301,1,113.333333333333,8|0,0:0|0:0,0:0:0:0:
239,350,21776,2,0,B|298:310|298:310|434:317,1,170,0|8,0:0|0:0,0:0:0:0:
452,161,22276,1,0,0:0:0:0:
456,166,22376,6,0,B|397:206|397:206|261:199,1,170,2|8,0:0|0:0,0:0:0:0:
253,47,22876,1,0,0:0:0:0:
253,47,22976,1,0,0:0:0:0:
202,207,23176,1,0,0:0:0:0:
202,207,23276,1,8,0:0:0:0:
290,343,23476,1,0,0:0:0:0:
290,343,23576,6,0,P|305:286|286:209,1,113.333333333333,2|0,0:0|0:0,0:0:0:0:
200,192,23876,2,0,P|184:148|192:71,1,113.333333333333,8|0,0:0|0:0,0:0:0:0:
281,41,24176,2,0,P|334:61|409:51,1,113.333333333333
475,55,24476,5,10,0:0:0:0:
486,110,24576,1,2,0:0:0:0:
494,166,24676,1,2,0:0:0:0:
498,214,24776,2,0,P|470:272|461:347,1,113.333333333333,6|0,0:0|0:0,0:0:0:0:
381,262,25076,2,0,P|322:246|240:274,1,113.333333333333,8|0,0:0|0:0,0:0:0:0:
195,317,25376,1,0,0:0:0:0:
119,166,25576,1,0,0:0:0:0:
119,166,25676,1,8,0:0:0:0:
264,94,25876,5,0,0:0:0:0:
264,94,25976,1,2,0:0:0:0:
105,43,26176,1,0,0:0:0:0:
105,43,26276,1,8,0:0:0:0:
129,209,26476,1,0,0:0:0:0:
129,209,26576,2,0,B|182:182|182:182|276:204,1,113.333333333333
336,215,26876,2,0,B|283:242|283:242|189:220,1,113.333333333333,8|0,0:0|0:0,0:0:0:0:
215,122,27176,6,0,P|201:75|217:12,1,113.333333333333,2|0,0:0|0:0,0:0:0:0:
311,33,27476,2,0,P|325:80|309:143,1,113.333333333333,8|0,0:0|0:0,0:0:0:0:
237,208,27776,1,0,0:0:0:0:
316,344,27976,1,0,0:0:0:0:
316,344,28076,1,8,0:0:0:0:
421,216,28276,5,0,0:0:0:0:
421,216,28376,1,2,0:0:0:0:
394,54,28576,1,0,0:0:0:0:
398,58,28676,1,8,0:0:0:0:
241,80,28876,1,0,0:0:0:0:
241,80,28976,1,2,0:0:0:0:
263,238,29176,1,0,0:0:0:0:
263,238,29276,1,8,0:0:0:0:
97,261,29476,1,0,0:0:0:0:
97,261,29576,6,0,B|68:188|68:188|108:75,1,170,6|8,0:0|0:0,0:0:0:0:
270,97,30076,2,0,P|268:159|174:221,1,170
180,124,30476,1,8,0:0:0:0:
334,41,30676,1,0,0:0:0:0:
334,41,30776,6,0,P|377:118|482:158,1,170,2|8,0:0|0:0,0:0:0:0:
301,227,31276,2,0,P|242:260|210:362,1,170
299,324,31676,1,8,0:0:0:0:
158,227,31876,1,0,0:0:0:0:
158,227,31976,6,0,L|6:206,1,113.333333333333,2|0,0:0|0:0,0:0:0:0:
52,117,32276,2,0,L|189:90,1,113.333333333333,8|0,0:0|0:0,0:0:0:0:
258,52,32576,2,0,L|279:173,1,113.333333333333
346,219,32876,1,8,0:0:0:0:
199,231,33076,1,0,0:0:0:0:
199,231,33176,6,0,B|149:145|149:145|172:28,1,170,2|8,0:0|0:0,0:0:0:0:
327,28,33676,1,0,0:0:0:0:
327,28,33776,1,0,0:0:0:0:
366,198,33976,1,0,0:0:0:0:
366,198,34076,1,8,0:0:0:0:
197,231,34276,1,0,0:0:0:0:
197,231,34376,6,0,P|168:292|213:385,1,170,2|8,0:0|0:0,0:0:0:0:
367,308,34876,2,0,P|395:243|328:129,1,170
270,112,35276,2,0,L|142:140,1,113.333333333333,8|0,0:0|0:0,0:0:0:0:
66,76,35576,6,0,B|132:38|132:38|263:45,1,170,2|8,0:0|0:0,0:0:0:0:
362,112,36076,2,0,B|418:177|418:177|514:144,1,170
449,65,36476,1,8,0:0:0:0:
289,49,36676,1,0,0:0:0:0:
289,49,36776,6,0,L|274:231,1,170,2|8,0:0|0:0,0:0:0:0:
182,213,37276,2,0,P|149:132|184:42,1,170
236,134,37676,1,8,0:0:0:0:
91,209,37876,1,0,0:0:0:0:
91,209,37976,6,0,B|93:264|93:264|143:323,1,113.333333333333,2|0,0:0|0:0,0:0:0:0:
224,316,38276,2,0,B|270:286|270:286|290:231,1,113.333333333333,8|0,0:0|0:0,0:0:0:0:
255,146,38576,2,0,B|206:120|206:120|149:130,1,113.333333333333,2|0,0:0|0:0,0:0:0:0:
190,224,38876,1,8,0:0:0:0:
287,78,39076,1,0,0:0:0:0:
287,78,39176,6,0,B|217:42|217:42|111:62,1,170,6|8,0:0|0:0,0:0:0:0:
39,214,39676,2,0,L|240:173,1,170
296,222,40076,1,8,0:0:0:0:
207,349,40276,1,0,0:0:0:0:
207,349,40376,6,0,P|174:296|207:181,1,170,2|8,0:0|0:0,0:0:0:0:
345,259,40876,2,0,B|303:335|303:335|243:251,1,170
293,177,41276,1,8,0:0:0:0:
454,156,41476,1,0,0:0:0:0:
454,156,41576,6,0,B|373:193|373:193|282:175,1,170,2|8,0:0|0:0,0:0:0:0:
333,24,42076,2,0,P|390:22|354:109,1,170
282,93,42476,1,8,0:0:0:0:
134,39,42676,5,0,0:0:0:0:
134,39,42776,2,0,B|140:90|140:90|120:170,1,113.333333333333,2|0,0:0|0:0,0:0:0:0:
49,253,43076,2,0,B|94:233|94:233|132:149,1,113.333333333333,8|0,0:0|0:0,0:0:0:0:
229,191,43376,2,0,B|210:238|210:238|155:300,1,113.333333333333
53,340,43676,2,0,B|102:343|102:343|175:287,1,113.333333333333,8|0,0:0|0:0,0:0:0:0:
273,326,43976,6,0,B|319:292|319:292|446:336,1,170,2|8,0:0|0:0,0:0:0:0:
471,163,44476,1,0,0:0:0:0:
471,163,44576,2,0,P|403:158|420:244,1,170,0|8,0:0|0:0,0:0:0:0:
299,80,45076,1,0,0:0:0:0:
299,80,45176,2,0,P|309:130|283:197,1,113.333333333333
213,125,45476,2,0,P|199:86|230:10,1,113.333333333333,8|0,0:0|0:0,0:0:0:0:
299,80,45776,2,0,B|376:108|376:108|467:62,1,170,0|8,0:0|0:0,0:0:0:0:
466,184,46276,1,0,0:0:0:0:
466,184,46376,6,0,B|387:223|387:223|310:195,1,170,2|8,0:0|0:0,0:0:0:0:
172,300,46876,1,0,0:0:0:0:
172,300,46976,2,0,P|193:350|258:375,1,113.333333333333
306,285,47276,1,8,0:0:0:0:
444,204,47476,1,0,0:0:0:0:
444,204,47576,6,0,P|461:151|455:78,1,113.333333333333,2|0,0:0|0:0,0:0:0:0:
359,74,47876,2,0,P|338:139|353:196,1,113.333333333333,8|0,0:0|0:0,0:0:0:0:
240,222,48176,2,0,P|248:176|235:110,1,113.333333333333,2|0,0:0|0:0,0:0:0:0:
147,49,48476,1,8,0:0:0:0:
63,187,48676,1,0,0:0:0:0:
63,187,48777,6,0,B|118:245|118:245|283:213,1,203.999993774414,6|8,0:0|0:0,0:0:0:0:
206,32,49277,2,0,P|117:45|167:120,1,203.999993774414,2|2,0:0|0:0,0:0:0:0:
237,223,49676,2,0,L|212:362,1,135.99999584961,8|0,0:0|0:0,0:0:0:0:
344,314,49976,6,0,B|390:222|390:222|348:112,1,203.999993774414,2|8,0:0|0:0,0:0:0:0:
181,203,50476,2,0,P|209:259|256:170,1,203.999993774414,2|2,0:0|0:0,0:0:0:0:
207,67,50876,5,8,0:0:0:0:
381,168,51076,1,2,0:0:0:0:
337,293,51176,2,0,P|214:352|141:315,1,203.999993774414,2|8,0:0|0:0,0:0:0:0:
224,159,51676,2,0,P|268:183|180:219,1,203.999993774414,2|2,0:0|0:0,0:0:0:0:
49,214,52076,1,8,0:0:0:0:
152,47,52276,1,2,0:0:0:0:
152,47,52376,6,0,L|298:36,1,135.99999584961,2|0,0:0|0:0,0:0:0:0:
412,95,52676,2,0,L|258:62,1,135.99999584961,8|0,0:0|0:0,0:0:0:0:
185,170,52976,1,2,0:0:0:0:
302,328,53176,1,2,0:0:0:0:
302,328,53276,1,8,0:0:0:0:
409,165,53476,1,2,0:0:0:0:
409,165,53576,6,0,P|311:151|260:175,1,135.99999584961,6|0,0:0|0:0,0:0:0:0:
132,237,53876,2,0,P|213:245|273:188,1,135.99999584961,8|0,0:0|0:0,0:0:0:0:
216,88,54176,1,2,0:0:0:0:
32,174,54376,1,0,0:0:0:0:
32,174,54476,1,8,0:0:0:0:
162,330,54676,1,0,0:0:0:0:
162,330,54776,2,0,P|183:263|154:173,1,135.99999584961,2|0,0:0|0:0,0:0:0:0:
96,88,55076,1,8,0:0:0:0:
93,251,55276,6,0,B|192:271|192:271|296:219,1,203.999993774414
392,141,55676,1,8,0:0:0:0:
459,332,55876,1,0,0:0:0:0:
459,332,55976,6,0,P|377:317|293:343,1,135.99999584961,2|0,0:0|0:0,0:0:0:0:
224,228,56276,2,0,P|241:154|209:84,1,135.99999584961,8|0,0:0|0:0,0:0:0:0:
85,114,56576,2,0,P|74:168|115:256,1,135.99999584961,2|0,0:0|0:0,0:0:0:0:
165,358,56876,2,0,P|221:364|295:327,1,135.99999584961,8|0,0:0|0:0,0:0:0:0:
381,225,57176,5,2,0:0:0:0:
277,55,57376,1,0,0:0:0:0:
277,55,57476,1,8,0:0:0:0:
97,157,57676,1,0,0:0:0:0:
97,157,57776,1,2,0:0:0:0:
192,329,57976,1,0,0:0:0:0:
192,329,58076,1,8,0:0:0:0:
378,149,58276,1,0,0:0:0:0:
378,149,58376,6,0,B|266:130|302:236|160:185,1,203.999993774414,6|8,0:0|0:0,0:0:0:0:
48,69,58876,2,0,B|160:50|124:156|266:105,1,203.999993774414,2|2,0:0|0:0,0:0:0:0:
434,76,59276,2,0,P|462:128|433:218,1,135.99999584961,8|0,0:0|0:0,0:0:0:0:
375,315,59576,6,0,B|305:350|305:350|184:312,1,203.999993774414,2|8,0:0|0:0,0:0:0:0:
293,145,60076,2,0,P|338:171|237:219,1,203.999993774414,2|2,0:0|0:0,0:0:0:0:
187,149,60476,1,8,0:0:0:0:
329,26,60676,1,0,0:0:0:0:
449,61,60776,6,0,L|424:270,1,203.999993774414,2|8,0:0|0:0,0:0:0:0:
239,306,61276,2,0,B|189:214|189:214|246:110,1,203.999993774414,2|2,0:0|0:0,0:0:0:0:
338,213,61676,1,8,0:0:0:0:
166,329,61876,1,0,0:0:0:0:
166,329,61976,2,0,P|119:275|103:209,1,135.99999584961,2|0,0:0|0:0,0:0:0:0:
189,84,62276,2,0,P|143:137|126:204,1,135.99999584961,8|0,0:0|0:0,0:0:0:0:
245,207,62576,1,2,0:0:0:0:
414,91,62776,1,2,0:0:0:0:
414,91,62876,2,0,P|335:74|246:120,1,135.99999584961,8|2,0:0|0:0,0:0:0:0:
362,204,63176,6,0,P|424:222|498:186,1,135.99999584961,2|0,0:0|0:0,0:0:0:0:
462,336,63476,2,0,P|394:312|315:337,1,135.99999584961,8|0,0:0|0:0,0:0:0:0:
222,250,63776,1,2,0:0:0:0:
52,340,63976,1,0,0:0:0:0:
52,340,64076,2,0,L|30:204,1,135.99999584961,8|0,0:0|0:0,0:0:0:0:
146,119,64376,6,0,L|133:272,1,135.99999584961,2|0,0:0|0:0,0:0:0:0:
249,186,64676,2,0,L|271:335,1,135.99999584961,8|0,0:0|0:0,0:0:0:0:
364,224,64976,2,0,L|378:83,1,135.99999584961,2|0,0:0|0:0,0:0:0:0:
488,158,65276,2,0,L|458:22,1,135.99999584961,8|0,0:0|0:0,0:0:0:0:
322,27,65576,6,0,P|278:52|186:49,1,135.99999584961,2|0,0:0|0:0,0:0:0:0:
98,149,65876,2,0,P|123:198|111:286,1,135.99999584961,8|0,0:0|0:0,0:0:0:0:
225,348,66176,2,0,P|269:323|361:326,1,135.99999584961,2|0,0:0|0:0,0:0:0:0:
449,227,66476,2,0,P|424:178|436:90,1,135.99999584961,8|0,0:0|0:0,0:0:0:0:
322,28,66776,5,2,0:0:0:0:
133,106,66976,1,2,0:0:0:0:
133,106,67076,1,8,0:0:0:0:
133,312,67276,1,2,0:0:0:0:
133,312,67376,2,0,B|187:342|187:342|262:336,1,135.99999584961
386,320,67676,1,10,0:0:0:0:
414,258,67776,1,2,0:0:0:0:
438,194,67876,1,2,0:0:0:0:
468,133,67976,6,0,P|413:80|289:130,1,170,6|8,0:0|0:0,0:0:0:0:
249,239,68476,2,0,P|220:273|94:229,1,170,2|2,0:0|0:0,0:0:0:0:
31,181,68876,1,8,0:0:0:0:
168,85,69076,1,0,0:0:0:0:
168,85,69176,6,0,P|184:153|178:254,1,170,2|8,0:0|0:0,0:0:0:0:
336,308,69676,2,0,P|293:254|306:133,1,170,2|2,0:0|0:0,0:0:0:0:
379,88,70076,1,8,0:0:0:0:
467,226,70276,1,2,0:0:0:0:
467,226,70376,2,0,P|405:256|377:158,1,170,2|8,0:0|0:0,0:0:0:0:
269,48,70876,2,0,P|236:-22|164:5,1,170,2|2,0:0|0:0,0:0:0:0:
203,97,71276,1,8,0:0:0:0:
63,66,71476,1,2,0:0:0:0:
63,66,71576,6,0,L|76:234,1,113.333333333333,2|0,0:0|0:0,0:0:0:0:
174,208,71876,2,0,L|162:348,1,113.333333333333,8|0,0:0|0:0,0:0:0:0:
268,293,72176,2,0,L|257:173,1,113.333333333333,2|0,0:0|0:0,0:0:0:0:
366,200,72476,2,0,L|387:68,1,113.333333333333,8|0,0:0|0:0,0:0:0:0:
461,154,72776,6,0,B|475:218|475:218|446:326,1,170,6|8,0:0|0:0,0:0:0:0:
251,272,73276,2,0,P|243:205|323:142,1,170,2|2,0:0|0:0,0:0:0:0:
394,212,73676,1,8,0:0:0:0:
249,272,73876,1,2,0:0:0:0:
249,272,73976,6,0,L|59:256,1,170,2|8,0:0|0:0,0:0:0:0:
23,106,74476,2,0,P|70:58|180:114,1,170,2|2,0:0|0:0,0:0:0:0:
226,154,74876,2,0,P|283:200|330:194,1,113.333333333333,8|2,0:0|0:0,0:0:0:0:
422,148,75176,6,0,L|430:234,1,85.0000032424928,2|0,0:0|0:0,0:0:0:0:
340,277,75476,2,0,L|333:372,1,85.0000032424928,2|0,0:0|0:0,0:0:0:0:
237,320,75776,2,0,L|228:220,1,85.0000032424928,2|0,0:0|0:0,0:0:0:0:
139,269,76076,2,0,L|116:357,1,85.0000032424928,2|0,0:0|0:0,0:0:0:0:
45,252,76376,5,2,0:0:0:0:
41,198,76476,1,2,0:0:0:0:
36,144,76576,1,2,0:0:0:0:
30,89,76676,1,2,0:0:0:0:
163,116,76876,5,0,0:0:0:0:
153,169,76976,1,2,0:0:0:0:
279,196,77176,5,0,0:0:0:0:
275,142,77276,1,2,0:0:0:0:
256,192,77376,12,0,78776,0:0:0:0:
