osu file format v14

[General]
AudioFilename: audio.mp3
AudioLeadIn: 0
PreviewTime: 205639
Countdown: 0
SampleSet: Soft
StackLeniency: 1
Mode: 0
LetterboxInBreaks: 0
WidescreenStoryboard: 0

[Editor]
DistanceSpacing: 0.8
BeatDivisor: 4
GridSize: 4
TimelineZoom: 8

[Metadata]
Title:Lagtrain
TitleUnicode:ラグトレイン
Artist:Will Stetson
ArtistUnicode:Will Stetson
Creator:Ryuusei Aika
Version:########
Source:
Tags:稲葉曇 inabakumori English Rock Pop Cover Finshie ponbot Bellicose willstetson​ David Toth Dictate Male Vocal ぬくぬくにぎりめし nukunukunigirimeshi Shii ShiiTsuin
BeatmapID:2968671
BeatmapSetID:1443224

[Difficulty]
HPDrainRate:6.2
CircleSize:3
OverallDifficulty:8.5
ApproachRate:9.5
SliderMultiplier:2.4
SliderTickRate:1

[Events]
//Background and Video events
0,0,"GB.jpg",0,0
Video,-50,"video.mp4"
//Break Periods
2,114513,115180
2,179972,180639
2,205890,206557
//Storyboard Layer 0 (Background)
//Storyboard Layer 1 (Fail)
//Storyboard Layer 2 (Pass)
//Storyboard Layer 3 (Foreground)
//Storyboard Layer 4 (Overlay)
//Storyboard Sound Samples

[TimingPoints]
-3289,408.163265306122,4,2,0,5,1,0
3037,-100,4,2,1,60,0,0
4670,-200,4,2,1,60,0,0
22833,-50,4,2,1,79,0,1
22858,-50,4,2,1,79,0,0
27527,-44.4444444444445,4,2,1,79,0,0
29364,-50,4,2,1,79,0,0
35486,-200,4,2,1,79,0,0
35792,-200,4,2,1,5,0,0
35894,-57.1428571428571,4,2,1,71,0,1
35920,-57.1428571428571,4,2,1,71,0,0
44262,-44.4444444444445,4,2,1,71,0,0
45690,-57.1428571428571,4,2,1,71,0,0
47323,-57.1428571428571,4,2,1,49,0,0
48547,-133.333333333333,4,2,1,55,0,0
48955,-100,4,2,1,60,0,0
62017,-100,4,2,1,54,0,0
62425,-133.333333333333,4,2,1,54,0,0
68547,-133.333333333333,4,2,1,60,0,0
73037,-133.333333333333,4,2,1,69,0,0
73241,-80,4,2,1,69,0,0
74670,-53.3333333333333,4,2,1,69,0,0
75282,-666.666666666667,4,2,1,48,0,0
77730,-666.666666666667,4,2,1,59,0,0
77935,-666.666666666667,4,2,1,68,0,0
78139,-666.666666666667,4,2,1,76,0,0
78343,-50,4,2,1,79,0,0
79772,-40,4,2,1,79,0,0
81608,-50,4,2,1,79,0,0
84057,-40,4,2,1,79,0,0
85078,-50,4,2,1,79,0,0
86506,-50,4,2,1,57,0,0
87731,-200,4,2,1,57,0,0
88139,-44.4444444444445,4,2,1,81,0,1
90588,-50,4,2,1,81,0,1
91404,-44.4444444444445,4,2,1,81,0,1
92833,-36.3636363636364,4,2,1,81,0,1
94670,-44.4444444444445,4,2,1,81,0,1
96098,-50,4,2,1,81,0,1
96915,-44.4444444444445,4,2,1,81,0,1
97119,-36.3636363636364,4,2,1,81,0,1
98139,-44.4444444444445,4,2,1,81,0,1
100792,-44.4444444444445,4,2,1,81,0,0
101200,-57.1428571428571,4,2,1,81,0,1
104670,-80,4,2,1,81,0,1
105078,-57.1428571428571,4,2,1,81,0,1
112629,-57.1428571428571,4,2,1,64,0,0
113241,-133.333333333333,4,2,1,64,0,0
114262,-33.3333333333333,4,2,1,58,0,0
117119,-133.333333333333,4,2,1,58,0,0
117527,-133.333333333333,4,2,1,64,0,0
127323,-133.333333333333,4,2,1,56,0,0
140384,-80,4,2,1,64,0,0
146915,-100,4,2,1,64,0,0
148343,-80,4,2,1,64,0,0
149976,-66.6666666666667,4,2,1,64,0,0
150792,-80,4,2,1,64,0,0
152833,-80,4,2,1,71,0,0
153037,-80,4,2,1,77,0,0
153241,-80,4,2,1,81,0,0
153445,-50,4,2,1,81,0,1
155894,-80,4,2,1,81,0,1
156711,-57.1428571428571,4,2,1,81,0,1
158139,-44.4444444444445,4,2,1,81,0,1
159976,-50,4,2,1,81,0,1
162221,-44.4444444444445,4,2,1,81,0,1
163649,-57.1428571428571,4,2,1,81,0,1
166506,-100,4,2,1,71,0,1
166915,-100,4,2,1,71,0,0
167323,-66.6666666666667,4,2,1,71,0,0
173037,-200,4,2,1,71,0,0
173343,-200,4,2,1,5,0,0
173445,-66.6666666666667,4,2,1,71,0,0
179568,-66.6666666666667,4,2,1,52,0,0
182425,-133.333333333333,4,2,1,52,0,0
182833,-133.333333333333,4,2,1,64,0,0
192221,-100,4,2,1,64,0,0
192323,-100,4,2,1,5,0,0
192629,-100,4,2,1,71,0,0
193037,-80,4,2,1,71,0,0
195792,-80,4,2,1,5,0,0
195894,-80,4,2,1,71,0,0
198751,-133.333333333333,4,2,1,71,0,0
199159,-133.333333333333,4,2,1,75,0,0
202425,-133.333333333333,4,2,1,78,0,0
203853,-57.1428571428571,4,2,1,78,0,0
205078,-50,4,2,1,78,0,0
205384,-50,4,2,1,5,0,0
205690,-50,4,2,1,20,0,0
208139,-666.666666666667,4,2,1,78,0,0
208853,-666.666666666667,4,2,1,5,0,0
208955,-44.4444444444445,4,2,1,85,0,1
213649,-40,4,2,1,85,0,1
216915,-44.4444444444445,4,2,1,85,0,1
217935,-40,4,2,1,85,0,1
218955,-44.4444444444445,4,2,1,85,0,1
220588,-57.1428571428571,4,2,1,85,0,1
222017,-80,4,2,1,85,0,0
222425,-33.3333333333333,4,2,1,85,0,1
224874,-44.4444444444445,4,2,1,85,0,1
225078,-44.4444444444445,4,2,1,85,0,1
225282,-40,4,2,1,85,0,1
226711,-33.3333333333333,4,2,1,85,0,1
231608,-40,4,2,1,85,0,1
233445,-66.6666666666667,4,2,1,85,0,1
233853,-100,4,2,1,85,0,1
234262,-50,4,2,1,85,0,1
234568,-50,4,2,1,5,0,1
234670,-50,4,2,1,85,0,1
235078,-666.666666666667,4,2,1,71,0,0
241608,-50,4,2,1,80,0,0

[Colours]
Combo1 : 128,128,128
Combo2 : 192,192,192

[HitObjects]
448,28,3037,5,0,2:3:0:0:
448,28,3139,1,0,2:3:0:0:
448,28,3241,1,0,3:0:0:0:
403,200,3445,1,0,3:0:0:0:
357,57,3649,5,0,1:3:0:0:
322,171,4057,5,0,2:0:0:0:
393,218,4262,1,0,3:0:0:0:
256,88,4466,1,0,1:3:0:0:
256,88,4670,2,0,L|173:98,1,60,0|0,2:0|3:0,2:0:0:0:
377,42,5078,1,0,3:0:0:0:
202,230,5282,2,0,L|238:182,1,60,0|0,1:3|2:0,2:0:0:0:
359,38,5894,5,0,3:0:0:0:
156,96,6098,2,0,L|109:161,1,60,0|0,1:3|2:0,2:0:0:0:
341,34,6506,5,0,3:0:0:0:
193,185,6711,1,0,3:0:0:0:
421,101,6915,2,0,L|283:126,1,120,0|0,1:3|2:0,2:0:0:0:
56,89,7527,1,0,3:0:0:0:
253,192,7731,2,0,L|176:183,1,60,0|0,1:3|2:0,2:0:0:0:
256,31,8139,5,0,3:0:0:0:
79,197,8343,1,0,3:0:0:0:
245,46,8547,1,0,1:3:0:0:
144,249,8751,2,0,L|169:380,1,120,0|0,2:0|3:0,2:0:0:0:
234,61,9364,1,0,1:3:0:0:
0,384,9772,5,2,3:2:0:0:
214,198,9976,1,0,2:0:0:0:
254,268,10180,2,0,L|288:339,1,60,2|2,1:2|2:0,2:0:0:0:
321,212,10588,1,2,2:0:0:0:
512,384,10792,1,0,3:2:0:0:
427,384,10996,2,0,L|401:329,1,60,2|2,1:2|2:0,2:0:0:0:
493,230,11404,5,2,3:2:0:0:
257,377,11608,2,0,L|286:305,1,60,0|2,3:2|1:2,2:0:0:0:
279,321,12017,1,2,2:0:0:0:
181,322,12221,1,2,2:0:0:0:
324,108,12425,1,0,3:2:0:0:
203,237,12629,1,2,1:2:0:0:
265,175,12833,1,2,2:0:0:0:
73,198,13037,6,0,L|192:218,1,120,2|2,3:2|1:2,2:0:0:0:
191,217,13649,1,0,2:0:0:0:
20,268,13853,5,2,2:0:0:0:
192,128,14057,1,2,3:2:0:0:
192,128,14262,1,2,1:2:0:0:
121,67,14466,2,0,L|-6:102,1,120,2|2,2:0|3:2,2:0:0:0:
180,6,15078,1,2,1:2:0:0:
52,30,15282,2,0,L|117:50,1,60,2|0,2:0|2:0,2:0:0:0:
264,23,15690,5,2,3:2:0:0:
396,156,15894,2,0,L|384:237,1,60,2|0,1:2|2:0,2:0:0:0:
405,191,16302,6,0,L|371:54,1,120,2|2,3:2|1:2,2:0:0:0:
335,284,16915,1,2,2:0:0:0:
254,249,17119,2,0,L|244:328,1,60,2|0,2:0|3:2,2:0:0:0:
477,137,17527,1,2,1:2:0:0:
477,137,17935,5,2,3:2:0:0:
244,162,18139,2,0,L|301:143,2,60,0|2|2,3:2|1:2|2:0,2:0:0:0:
343,52,18751,2,0,L|413:65,1,60,2|0,2:0|3:2,2:0:0:0:
406,354,19159,1,2,1:2:0:0:
467,257,19364,2,0,L|400:266,1,60,2|0,2:0|3:2,2:0:0:0:
217,365,19772,5,2,3:2:0:0:
217,365,19976,2,0,L|227:293,1,60,2|0,1:2|2:0,2:0:0:0:
298,248,20384,1,2,2:0:0:0:
142,316,20588,2,0,L|133:375,1,60,2|0,3:2|1:2,2:0:0:0:
133,375,20996,1,2,2:0:0:0:
365,189,21200,5,2,3:2:0:0:
53,343,21404,1,0,3:2:0:0:
53,343,22833,6,0,L|27:54,1,240,4|2,3:1|2:3,2:3:0:0:
462,362,23241,2,0,L|481:243,1,120,0|0,1:3|2:3,2:3:0:0:
410,114,23445,2,0,L|391:233,1,120,2|0,2:3|2:3,2:3:0:0:
318,384,23649,2,0,L|479:203,2,240,0|2|0,3:0|2:3|1:3,2:3:0:0:
261,320,24159,1,0,2:3:0:0:
261,320,24262,2,0,L|113:341,1,120,2|0,2:3|2:3,2:3:0:0:
27,113,24466,6,0,L|48:352,2,240,0|2|0,3:0|2:3|1:3,2:3:0:0:
474,359,25078,1,2,2:3:0:0:
127,251,25282,2,0,L|171:15,1,240,0|2,3:0|2:3,2:3:0:0:
465,377,25690,2,0,L|420:141,1,240,0|2,1:3|2:3,2:3:0:0:
373,73,25996,1,0,2:3:0:0:
300,22,26098,6,0,L|43:86,1,240,0|2,3:0|2:3,2:3:0:0:
305,126,26404,1,2,2:3:0:0:
349,216,26506,2,0,L|89:178,1,240,0|2,1:3|2:3,2:3:0:0:
348,307,26813,1,0,2:0:0:0:
321,226,26915,2,0,L|64:297,2,240,0|2|2,3:0|2:3|1:3,2:3:0:0:
33,155,27527,6,0,L|288:318,2,270,2|0|2,2:3|3:0|2:3,2:0:0:0:
435,229,28139,1,2,1:3:0:0:
504,280,28241,1,0,2:0:0:0:
431,314,28343,2,0,L|254:102,1,270,2|0,2:3|3:0,2:0:0:0:
57,363,28751,2,0,L|89:188,1,135,2|0,1:3|2:0,2:0:0:0:
129,20,28955,5,2,1:3:0:0:
229,17,29057,1,0,1:0:0:0:
329,14,29159,1,0,1:3:0:0:
429,11,29262,1,0,1:3:0:0:
352,101,29364,6,0,L|303:385,1,240,4|2,3:1|2:3,2:3:0:0:
29,23,29772,2,0,L|193:237,1,240,0|2,1:3|2:3,2:3:0:0:
294,339,30078,1,0,2:3:0:0:
197,330,30180,2,0,L|244:0,1,240,0|2,3:0|2:3,2:3:0:0:
230,92,30588,6,0,L|197:330,1,240,0|2,1:3|2:3,2:3:0:0:
290,30,30894,1,0,2:3:0:0:
172,12,30996,2,0,L|444:165,1,240,0|2,3:1|2:3,2:3:0:0:
381,129,31302,1,0,2:3:0:0:
381,129,31404,6,0,L|75:211,2,240,0|2|0,1:3|2:3|3:0,2:3:0:0:
164,100,31915,1,0,2:3:0:0:
86,38,32017,2,0,L|66:190,1,120,2|0,2:3|2:3,2:3:0:0:
64,359,32221,2,0,L|168:272,1,120,2|0,1:3|2:3,2:3:0:0:
403,141,32425,1,2,2:3:0:0:
457,212,32629,5,0,3:0:0:0:
426,294,32833,6,0,L|291:273,1,120,2|0,2:3|2:3,2:0:0:0:
66,276,33037,2,0,L|363:237,1,240,2|2,1:3|2:3,2:3:0:0:
430,123,33343,1,0,2:0:0:0:
430,123,33445,2,0,L|302:172,1,120,2|0,3:0|2:3,2:3:0:0:
109,287,33649,2,0,L|346:104,1,240,2|0,3:0|1:3,2:3:0:0:
14,142,34057,2,0,L|131:162,1,120,0|0,1:3|1:3,2:0:0:0:
486,370,34262,6,0,L|311:350,1,120,0|0,1:3|2:0,2:0:0:0:
169,347,34466,2,0,L|287:324,1,120,2|0,2:3|2:0,2:0:0:0:
367,356,34670,2,0,L|250:333,1,120,0|0,1:3|1:3,2:0:0:0:
170,365,34874,2,0,L|51:379,1,120,0|0,1:3|2:0,2:0:0:0:
26,300,35078,5,2,3:0:0:0:
253,240,35282,1,0,3:0:0:0:
491,194,35486,6,0,L|469:297,1,90,0|0,1:3|2:0,2:0:0:0:
456,296,35894,6,0,L|91:58,2,420,4|0|0,3:1|1:1|3:1,2:3:0:0:
456,296,36915,1,2,2:3:0:0:
73,149,37119,1,0,1:1:0:0:
405,73,37323,2,0,L|5:201,1,420,2|2,2:3|2:1,2:0:0:0:
405,367,37935,1,0,1:3:0:0:
452,221,38139,5,2,2:3:0:0:
475,128,38343,1,0,3:0:0:0:
452,221,38547,1,2,2:3:0:0:
493,187,38751,1,0,1:3:0:0:
473,164,38955,2,0,L|346:191,1,105,2|0,2:3|2:0,2:0:0:0:
363,287,39159,6,0,L|27:34,2,420,0|0|0,3:1|1:1|3:1,2:3:0:0:
363,287,40180,1,2,2:3:0:0:
356,45,40384,1,0,1:1:0:0:
82,256,40588,2,0,L|311:232,1,210,2|0,2:3|3:0,2:0:0:0:
214,356,40996,6,0,L|92:335,1,105,2|0,2:3|2:0,2:0:0:0:
82,256,41200,1,0,1:3:0:0:
82,256,41404,6,0,L|204:235,1,105,2|0,2:3|2:0,2:0:0:0:
214,156,41608,1,0,3:0:0:0:
214,156,41813,5,2,2:3:0:0:
235,104,41915,1,0,2:0:0:0:
217,52,42017,2,0,L|104:76,1,105,0|0,1:3|2:3,2:3:0:0:
275,224,42221,1,2,3:2:0:0:
352,273,42323,1,2,2:0:0:0:
441,244,42425,6,0,L|486:28,1,210,4|2,3:1|2:3,2:3:0:0:
483,38,42731,1,0,2:0:0:0:
483,38,42833,2,0,L|440:243,1,210,0|2,1:1|2:3,2:3:0:0:
440,243,43139,1,0,2:0:0:0:
440,243,43241,2,0,L|483:38,1,210,0|2,3:1|2:3,2:3:0:0:
389,48,43547,1,0,2:0:0:0:
367,128,43649,2,0,L|345:230,1,105,0|0,1:1|2:3,2:3:0:0:
358,351,43853,2,0,L|276:155,1,210,2|0,2:3|3:0,2:0:0:0:
358,351,44262,6,0,L|131:182,1,270,2|0,2:1|1:3,2:0:0:0:
312,12,44670,1,2,2:3:0:0:
312,12,44772,1,0,2:0:0:0:
312,12,44874,1,0,3:0:0:0:
196,85,45078,1,2,2:3:0:0:
288,27,45282,1,0,1:3:0:0:
205,52,45486,1,2,2:3:0:0:
243,60,45690,6,0,L|29:124,1,210,0|2,3:1|2:3,2:3:0:0:
476,327,46098,2,0,L|263:360,1,210,0|2,1:1|2:3,2:3:0:0:
196,312,46404,1,0,2:0:0:0:
196,312,46506,2,0,L|218:184,1,105,0|0,3:1|2:0,2:3:0:0:
354,381,46711,1,2,2:3:0:0:
15,275,46915,2,0,L|128:251,1,105,0|0,1:1|2:3,2:3:0:0:
303,221,47119,1,2,3:3:0:0:
395,201,47221,1,0,3:0:0:0:
487,181,47323,5,0,3:0:0:0:
356,239,47527,1,2,3:0:0:0:
356,239,47731,1,0,3:0:0:0:
396,157,47935,1,2,3:0:0:0:
396,157,48139,1,0,3:0:0:0:
401,207,48343,1,2,3:0:0:0:
306,169,48547,2,0,L|325:52,1,90.0000000000002,0|0,3:0|2:0,2:3:0:0:
392,40,48955,6,0,L|130:110,1,240,2|2,3:2|1:2,2:0:0:0:
160,101,49466,1,0,2:0:0:0:
160,101,49568,1,0,2:0:0:0:
83,136,49772,1,2,3:2:0:0:
83,136,49874,1,0,2:0:0:0:
83,136,49976,1,0,2:0:0:0:
10,193,50180,1,2,1:2:0:0:
93,226,50384,2,0,L|73:364,1,120,2|0,2:0|3:2,2:0:0:0:
75,344,50792,2,0,L|84:285,2,60,2|0|0,2:0|2:0|1:2,2:0:0:0:
173,301,51200,1,0,2:0:0:0:
173,301,51302,1,0,2:0:0:0:
173,301,51404,1,0,3:2:0:0:
265,301,51608,1,0,2:0:0:0:
265,301,51711,1,0,2:0:0:0:
265,301,51813,1,0,1:2:0:0:
357,301,52017,1,0,2:0:0:0:
357,301,52119,1,0,2:0:0:0:
357,301,52221,6,0,L|256:51,2,240,2|2|2,3:2|1:2|3:2,2:0:0:0:
462,239,53241,2,0,L|467:298,1,60,0|0,2:0|2:0,2:0:0:0:
436,310,53445,2,0,L|445:251,1,60,2|0,1:2|2:0,2:0:0:0:
489,255,53649,2,0,L|429:264,1,60,2|0,2:0|2:0,2:0:0:0:
405,151,53853,2,0,L|540:173,2,120,0|2|0,3:2|2:0|1:2,2:0:0:0:
477,98,54466,5,2,2:0:0:0:
359,123,54670,1,2,3:2:0:0:
477,98,54874,1,2,2:0:0:0:
382,137,55078,1,2,1:2:0:0:
451,67,55282,1,2,2:0:0:0:
374,37,55486,6,0,L|237:47,1,120,2|0,3:2|2:0,2:0:0:0:
254,45,55792,1,0,2:0:0:0:
254,45,55894,1,2,1:2:0:0:
176,9,56098,1,0,2:0:0:0:
199,114,56302,1,2,3:2:0:0:
116,78,56506,1,0,2:0:0:0:
116,78,56608,1,0,2:0:0:0:
116,78,56711,1,2,1:2:0:0:
105,245,56915,2,0,L|38:118,1,120,2|0,2:0|3:2,2:0:0:0:
49,138,57221,1,0,2:0:0:0:
49,138,57323,2,0,L|104:244,1,120,2|0,2:0|1:2,2:0:0:0:
40,369,57731,2,0,L|49:299,1,60,0|0,2:0|2:0,2:0:0:0:
129,350,57935,2,0,L|295:320,1,120,0|0,3:2|2:0,2:0:0:0:
446,359,58343,2,0,L|327:380,1,120,0|0,1:2|2:0,2:0:0:0:
218,166,58751,6,0,L|348:420,1,240,2|2,3:2|1:2,2:0:0:0:
472,193,59364,1,0,2:0:0:0:
393,166,59568,2,0,L|370:300,2,120,2|0|2,3:2|2:0|1:2,2:0:0:0:
512,0,60180,5,2,1:2:0:0:
290,74,60588,1,2,2:0:0:0:
290,74,60690,1,2,2:0:0:0:
290,74,60792,1,2,2:0:0:0:
215,16,60996,1,2,2:0:0:0:
274,88,61200,1,2,2:0:0:0:
199,30,61404,2,0,L|117:44,2,60,2|2|2,2:0|2:0|2:0,2:0:0:0:
70,90,61813,1,2,2:0:0:0:
74,325,62017,5,4,3:1:0:0:
74,325,62425,2,0,L|66:235,1,90.0000000000002,2|0,3:2|2:0,2:0:0:0:
74,325,62833,5,0,3:2:0:0:
74,325,63241,2,0,L|66:235,1,90.0000000000002,2|2,3:2|2:0,2:0:0:0:
74,325,63649,5,0,3:0:0:0:
74,325,64057,5,2,3:2:0:0:
74,325,64262,2,0,L|64:209,1,90.0000034332277,2|0,2:0|3:2,2:0:0:0:
236,241,64670,1,2,2:0:0:0:
236,241,64772,1,0,2:0:0:0:
236,241,64874,2,0,L|132:297,1,90.0000000000002,0|2,3:0|2:0,2:0:0:0:
74,325,65282,6,0,L|66:235,1,90.0000000000002,0|0,3:2|2:0,2:0:0:0:
34,347,65690,6,0,L|73:325,1,45.0000000000001,2|2,3:2|2:0,2:0:0:0:
74,325,65894,2,0,L|66:235,1,90.0000000000002,2|0,2:0|3:2,2:0:0:0:
164,373,66302,6,0,L|156:283,1,90.0000000000002,0|2,2:0|3:2,2:0:0:0:
251,333,66608,1,0,2:0:0:0:
251,333,66711,2,0,L|330:290,1,90.0000000000002,2|0,2:0|3:0,2:0:0:0:
481,307,67119,1,2,2:0:0:0:
401,349,67323,2,0,L|481:307,1,90.0000000000002,2|0,3:2|2:0,2:0:0:0:
488,219,67731,5,0,3:2:0:0:
399,241,67935,2,0,L|409:178,2,45.0000000000001,0|0|2,2:0|2:0|3:2,2:0:0:0:
399,241,68343,1,2,2:0:0:0:
457,120,68547,6,0,L|285:179,1,180,0|2,3:2|3:2,2:0:0:0:
221,122,69159,1,2,2:0:0:0:
286,178,69364,6,0,L|457:120,1,180,0|2,3:0|3:2,2:0:0:0:
457,120,69976,6,0,L|286:178,1,180,2|0,2:0|2:0,2:0:0:0:
274,260,70588,1,2,3:2:0:0:
457,120,70792,6,0,L|286:178,1,180,2|0,2:0|2:0,2:0:0:0:
292,131,71302,1,0,2:0:0:0:
298,156,71404,2,0,L|228:142,1,45.0000000000001,2|0,3:2|2:0,2:0:0:0:
457,120,71608,6,0,L|286:178,1,180,2|0,2:0|2:0,2:0:0:0:
270,15,72221,1,2,3:2:0:0:
512,0,72425,6,0,L|341:58,1,180,2|0,2:0|2:0,2:0:0:0:
0,149,73037,1,2,1:2:0:0:
187,32,73241,6,0,L|38:76,1,150,2|0,1:2|2:0,2:0:0:0:
160,218,73649,2,0,L|5:267,1,150,2|0,3:2|1:2,2:0:0:0:
154,196,73955,1,0,1:2:0:0:
213,252,74057,2,0,L|71:201,1,150,2|0,1:2|2:0,2:0:0:0:
495,376,74466,5,2,1:2:0:0:
189,358,74670,2,0,L|438:324,1,225.000005364418,2|0,1:2|2:0,2:0:0:0:
115,314,75078,5,4,3:1:0:0:
199,328,75282,2,0,L|417:354,1,216,2|2,3:2|1:2,2:0:0:0:
413,353,77935,1,2,1:2:0:0:
478,40,78139,1,0,1:2:0:0:
476,289,78343,6,0,L|393:48,1,240,4|2,3:1|2:3,2:3:0:0:
57,380,78751,2,0,L|93:122,1,240,0|2,1:3|2:3,2:3:0:0:
386,273,79057,1,0,2:3:0:0:
466,301,79159,2,0,L|410:164,1,120,0|0,3:0|2:3,2:3:0:0:
179,153,79364,2,0,L|260:51,1,120,2|0,2:3|2:3,2:3:0:0:
337,73,79568,1,0,1:3:0:0:
22,306,79772,6,0,L|350:179,2,300,2|0|2,2:3|3:0|2:3,2:3:0:0:
446,114,80384,1,0,1:3:0:0:
28,159,80588,2,0,L|391:237,1,300,2|0,2:3|3:0,2:3:0:0:
366,297,80894,1,0,2:3:0:0:
298,251,80996,2,0,L|233:73,1,150,2|0,2:3|2:3,2:3:0:0:
432,243,81200,2,0,L|380:383,1,150,0|0,1:3|2:3,2:3:0:0:
180,305,81404,1,2,1:3:0:0:
121,246,81506,1,0,1:3:0:0:
104,165,81608,6,0,L|379:109,1,240,4|2,3:1|2:3,2:3:0:0:
0,358,82017,2,0,L|188:384,1,120,0|0,1:3|2:3,2:3:0:0:
299,321,82221,2,0,L|181:305,1,120,2|0,2:3|2:3,2:3:0:0:
11,369,82425,2,0,L|285:305,1,240,0|2,3:0|2:3,2:3:0:0:
469,28,82833,2,0,L|321:13,1,120,0|0,1:3|2:3,2:3:0:0:
141,61,83037,2,0,L|260:42,1,120,2|0,2:3|2:3,2:3:0:0:
433,37,83241,2,0,L|157:-3,1,240,0|2,3:1|2:3,2:3:0:0:
63,24,83547,1,0,2:3:0:0:
96,199,83649,6,0,L|135:86,1,120,0|0,1:3|2:3,2:3:0:0:
384,158,83853,2,0,L|425:270,1,120,2|0,2:3|2:3,2:3:0:0:
17,232,84057,2,0,L|354:282,1,300,0|2,3:0|2:3,2:3:0:0:
195,166,84364,1,0,2:3:0:0:
142,331,84466,2,0,L|281:277,1,150,0|0,1:3|2:3,2:3:0:0:
33,365,84670,2,0,L|304:232,1,300,2|0,2:3|3:0,2:3:0:0:
460,281,84976,1,0,2:0:0:0:
482,372,85078,6,0,L|364:352,1,120,2|2,2:3|2:3,2:0:0:0:
364,352,85282,2,0,L|405:94,1,240,2|2,1:3|2:3,2:3:0:0:
447,42,85588,1,0,2:0:0:0:
447,42,85690,2,0,L|306:84,1,120,0|0,3:0|2:0,2:0:0:0:
331,75,85894,2,0,L|101:10,1,240,2|0,2:3|1:3,2:3:0:0:
90,315,86302,1,2,1:3:0:0:
173,301,86404,1,0,1:3:0:0:
235,240,86506,5,0,1:3:0:0:
175,330,86915,5,0,2:0:0:0:
260,345,87323,5,0,2:0:0:0:
345,360,87527,1,0,2:0:0:0:
430,375,87731,2,0,L|414:277,1,90,0|0,2:0|2:0,2:0:0:0:
391,92,88139,6,0,B|188:210|188:210|142:217,1,270,4|2,3:1|2:3,2:3:0:0:
394,118,88445,1,0,2:3:0:0:
326,161,88547,2,0,B|94:125|94:125|64:94,1,270,0|2,1:3|2:3,2:3:0:0:
136,44,88853,1,0,2:3:0:0:
136,44,88955,2,0,B|96:273|96:273|54:340,1,270,0|2,3:0|2:3,2:3:0:0:
20,233,89262,1,0,2:3:0:0:
95,331,89364,2,0,B|200:319|200:319|232:295,1,135,0|0,1:3|2:3,2:3:0:0:
285,362,89568,2,0,B|390:350|390:350|422:326,1,135,2|0,2:3|2:3,2:3:0:0:
266,384,89772,6,0,B|297:150|297:150|329:118,2,270,0|2|0,3:0|2:3|1:3,2:3:0:0:
382,183,90282,1,2,2:3:0:0:
449,240,90384,1,2,2:3:0:0:
386,296,90486,1,2,2:3:0:0:
340,223,90588,6,0,B|429:36|429:36|471:11,1,240,0|2,3:0|2:3,2:3:0:0:
383,47,90894,1,0,2:3:0:0:
383,47,90996,2,0,L|265:63,1,120,0|0,1:3|2:3,2:3:0:0:
123,51,91200,2,0,L|241:78,1,120,2|0,2:3|2:3,2:3:0:0:
16,262,91404,6,0,B|42:14|42:14|68:-10,2,270,0|2|2,3:0|2:3|1:3,2:3:0:0:
8,100,91915,1,0,2:0:0:0:
20,68,92017,2,0,B|80:157|80:157|117:168,1,135,2|0,2:3|2:0,2:0:0:0:
294,235,92221,2,0,B|262:220|262:220|15:181,1,270,0|2,3:0|2:3,2:3:0:0:
232,301,92527,1,2,2:3:0:0:
202,314,92629,2,0,B|106:345|106:345|72:340,1,135,2|0,1:3|2:0,2:3:0:0:
317,354,92833,6,0,B|356:55|356:55|402:0,2,330,2|0|2,2:3|3:0|2:3,2:0:0:0:
402,384,93343,1,2,2:3:0:0:
489,302,93445,1,2,1:3:0:0:
455,224,93547,1,2,2:3:0:0:
384,266,93649,2,0,B|343:266|343:266|59:176,1,330,2|0,2:3|3:0,2:0:0:0:
1,339,93955,1,0,2:3:0:0:
50,271,94057,2,0,B|87:263|87:263|209:184,1,165,2|0,1:3|2:0,2:0:0:0:
324,23,94262,5,0,1:3:0:0:
368,167,94364,1,0,1:3:0:0:
396,82,94466,1,0,1:3:0:0:
429,0,94568,1,0,1:0:0:0:
310,106,94670,6,0,L|408:392,1,270,4|2,3:1|2:3,2:3:0:0:
240,46,94976,1,0,2:3:0:0:
230,19,95078,2,0,B|138:53|138:53|68:56,1,135,0|0,1:3|2:3,2:3:0:0:
89,163,95282,2,0,B|105:181|105:181|215:200,1,135,2|0,2:3|2:3,2:3:0:0:
392,181,95486,2,0,B|164:220|164:220|130:238,2,270,0|2|0,3:0|2:3|1:3,2:3:0:0:
259,354,95996,1,0,2:3:0:0:
189,305,96098,2,0,L|20:289,1,120,2|0,2:3|2:3,2:3:0:0:
273,270,96302,2,0,B|83:196|83:196|59:170,1,240,0|2,3:0|2:3,2:3:0:0:
14,238,96608,1,0,2:3:0:0:
14,238,96711,6,0,L|-13:354,1,120,0|0,1:3|2:3,2:3:0:0:
252,378,96915,6,0,L|216:247,1,135,2|0,2:3|2:3,2:3:0:0:
376,92,97119,6,0,B|260:345|260:345|220:392,1,330,0|2,3:0|2:3,2:3:0:0:
349,357,97425,1,0,2:3:0:0:
490,310,97527,2,0,L|287:327,1,165,2|0,1:3|2:3,2:3:0:0:
58,163,97731,2,0,L|421:236,1,330,2|0,2:3|3:0,2:3:0:0:
89,131,98139,6,0,B|104:156|104:156|119:302,1,135,2|0,2:3|2:3,2:0:0:0:
111,346,98343,2,0,B|173:128|173:128|209:104,1,270,2|2,1:3|2:3,2:3:0:0:
286,197,98649,1,0,2:0:0:0:
356,98,98751,2,0,B|381:112|381:112|467:231,1,135,2|0,3:0|2:3,2:3:0:0:
482,272,98955,2,0,B|426:52|426:52|446:14,1,270,2|0,3:0|1:3,2:3:0:0:
114,261,99364,1,2,1:3:0:0:
41,208,99466,1,0,1:3:0:0:
24,120,99568,5,0,1:3:0:0:
446,345,99772,1,2,3:0:0:0:
109,161,99976,5,0,1:3:0:0:
145,244,100078,1,0,1:3:0:0:
210,305,100180,1,2,1:3:0:0:
289,343,100282,1,0,1:0:0:0:
370,308,100384,2,0,L|337:154,1,135,0|0,3:0|2:0,2:0:0:0:
157,248,100588,2,0,L|186:381,1,135,2|0,3:0|2:0,2:0:0:0:
313,98,100792,1,0,1:3:0:0:
313,98,101200,6,2,L|136:79,1,105,6|2,3:1|2:1,2:1:0:0:
217,217,101404,2,2,L|115:190,1,105,2|0,2:1|2:0,2:1:0:0:
53,56,101608,1,2,1:1:0:0:
126,11,101711,1,2,2:1:0:0:
125,100,101813,2,2,L|144:267,1,105,2|2,2:1|2:1,2:1:0:0:
161,287,102017,2,2,L|59:313,1,105,0|2,3:0|2:1,2:1:0:0:
219,360,102221,6,2,L|374:379,1,105,2|2,2:1|2:1,2:1:0:0:
242,383,102425,2,0,L|375:340,1,105,2|0,1:1|2:3,2:3:0:0:
394,280,102629,2,2,L|447:332,2,52.500000500679,2|0|2,2:3|2:0|2:1,2:1:0:0:
431,316,102833,2,2,L|455:90,1,210,2|2,3:1|2:1,2:1:0:0:
395,43,103139,1,0,2:0:0:0:
418,82,103241,2,0,L|306:100,1,105,0|0,1:1|2:0,2:3:0:0:
247,54,103445,5,2,2:1:0:0:
164,30,103547,1,2,2:1:0:0:
87,69,103649,2,2,L|55:320,1,210,2|2,3:1|2:1,2:1:0:0:
133,324,103955,1,0,2:0:0:0:
133,324,104057,2,2,L|17:355,2,105,2|0|2,1:1|2:3|2:3,2:1:0:0:
482,367,104466,5,2,3:1:0:0:
201,272,104670,2,2,L|241:339,1,75,2|0,2:3|2:0,1:0:0:0:
316,306,104874,2,2,L|356:373,1,75,0|0,1:3|2:0,2:1:0:0:
341,382,105078,6,2,B|358:355|358:355|403:91,2,210,2|2|2,2:1|3:1|2:1,2:1:0:0:
305,168,105588,1,0,2:0:0:0:
305,168,105690,2,2,L|184:184,1,105,2|0,1:1|2:0,2:1:0:0:
201,203,105894,2,0,L|98:165,1,105,2|2,2:1|2:1,2:0:0:0:
23,192,106098,1,2,3:1:0:0:
333,22,106302,5,2,2:1:0:0:
242,37,106404,1,2,2:1:0:0:
157,53,106506,2,0,L|42:30,1,105,2|0,1:1|2:0,2:3:0:0:
261,46,106711,5,2,2:1:0:0:
344,34,106813,1,2,2:1:0:0:
427,22,106915,2,2,L|395:229,1,210,2|2,3:1|2:1,2:1:0:0:
361,120,107221,1,2,2:1:0:0:
441,160,107323,2,2,L|278:329,1,210,2|2,1:1|1:1,2:1:0:0:
512,382,107629,1,2,1:2:0:0:
437,339,107731,5,2,3:1:0:0:
355,374,107935,5,0,3:0:0:0:
295,311,108139,6,2,L|12:295,1,210,6|2,1:0|2:1,2:1:0:0:
36,233,108445,1,0,2:0:0:0:
1,145,108547,2,0,L|105:165,1,105,2|0,3:1|2:0,2:3:0:0:
104,164,108751,2,0,L|237:380,1,210,2|2,2:1|1:1,2:0:0:0:
387,47,109159,1,2,2:1:0:0:
426,127,109262,1,0,2:1:0:0:
390,94,109364,2,2,L|146:37,1,210,2|2,3:1|2:1,2:1:0:0:
472,15,109772,1,0,1:3:0:0:
347,180,109976,5,2,2:1:0:0:
290,116,110078,1,2,2:1:0:0:
211,77,110180,2,0,L|-11:104,1,210,2|2,3:1|2:3,2:3:0:0:
432,176,110588,2,2,L|228:273,1,210,2|2,1:1|2:1,2:1:0:0:
198,191,110894,1,2,2:1:0:0:
233,229,110996,6,0,L|172:351,1,105,0|0,3:0|2:0,2:3:0:0:
484,376,111200,1,2,2:1:0:0:
310,330,111404,2,2,L|435:312,1,105,2|2,1:1|2:1,2:1:0:0:
480,258,111608,1,2,2:3:0:0:
244,384,111813,2,2,L|3:343,2,210,2|2|2,3:1|2:1|1:1,2:1:0:0:
428,193,112425,1,2,3:1:0:0:
444,107,112527,1,0,3:0:0:0:
458,20,112629,5,0,3:0:0:0:
374,38,112833,1,2,3:0:0:0:
374,38,112935,1,0,3:0:0:0:
374,38,113037,1,0,3:0:0:0:
293,72,113241,2,0,L|288:103,4,22.5000008583069,2|0|0|0|0,3:0|3:0|3:0|3:0|3:0,3:0:0:0:
329,41,113649,5,2,3:0:0:0:
234,182,113853,1,0,3:0:0:0:
243,266,114262,6,0,L|255:374,1,90.0000034332277,6|0,3:2|2:0,2:0:0:0:
252,355,117119,6,0,L|247:310,1,45.0000000000001,2|0,1:2|2:0,2:0:0:0:
229,225,117323,1,2,3:2:0:0:
406,262,117527,6,0,L|225:224,2,180,4|2|2,3:1|1:2|3:2,2:0:0:0:
166,278,118547,1,2,2:0:0:0:
166,278,118751,2,0,L|62:296,1,90.0000000000002,2|0,1:2|3:2,2:0:0:0:
64,280,119057,1,0,3:2:0:0:
50,266,119159,1,2,3:2:0:0:
80,184,119364,1,0,2:0:0:0:
34,34,119568,1,2,1:2:0:0:
4,116,119772,1,2,2:0:0:0:
46,219,119976,5,0,3:0:0:0:
64,170,120180,1,0,3:2:0:0:
37,80,120384,1,0,1:2:0:0:
19,129,120588,1,0,3:2:0:0:
197,32,120792,6,0,L|72:9,1,90.0000000000002,2|2,3:2|2:0,2:0:0:0:
192,54,121200,2,0,L|314:40,1,90.0000000000002,2|2,1:2|2:0,2:0:0:0:
356,3,121608,1,2,3:2:0:0:
329,38,121813,2,0,L|309:149,1,90.0000000000002,0|0,2:0|1:2,2:0:0:0:
427,52,122221,1,0,3:2:0:0:
440,39,122323,1,0,3:2:0:0:
454,25,122425,1,0,3:2:0:0:
481,122,122629,1,0,3:2:0:0:
427,194,122833,2,0,L|301:212,1,90.0000000000002,0|2,1:2|3:2,2:0:0:0:
477,278,123241,5,2,3:2:0:0:
477,278,123445,1,2,3:2:0:0:
266,251,123649,1,2,1:2:0:0:
334,297,123853,1,2,3:2:0:0:
291,294,124057,2,0,L|344:113,1,180,2|2,3:2|1:2,2:0:0:0:
26,383,124874,2,0,L|0:292,2,90.0000000000002,2|2|2,3:2|2:0|1:2,2:0:0:0:
251,141,125486,5,2,1:2:0:0:
203,216,125894,1,2,1:2:0:0:
169,222,125996,1,0,1:2:0:0:
136,228,126098,1,0,1:2:0:0:
84,300,126302,1,2,3:2:0:0:
196,178,126506,5,0,1:2:0:0:
359,220,126711,1,0,1:2:0:0:
247,342,126915,1,2,3:2:0:0:
165,322,127119,1,2,3:2:0:0:
101,217,127323,6,0,L|124:85,2,90.0000000000002,4|0|2,3:1|2:0|3:2,2:0:0:0:
47,82,127935,1,0,2:0:0:0:
101,217,128139,6,0,L|124:85,2,90.0000000000002,0|0|2,3:2|2:0|3:2,2:0:0:0:
53,241,128751,1,2,2:0:0:0:
77,229,128853,1,0,2:0:0:0:
101,217,128955,6,0,L|124:85,2,90.0000000000002,0|0|2,3:2|2:0|3:2,2:0:0:0:
28,149,129568,1,2,2:0:0:0:
101,217,129772,6,0,L|124:85,2,90.0000000000002,0|2|0,3:0|2:0|3:0,2:0:0:0:
204,121,130384,1,0,1:2:0:0:
204,121,130486,1,2,1:2:0:0:
204,121,130588,1,2,1:2:0:0:
101,217,130792,5,0,3:2:0:0:
116,128,130996,1,2,3:2:0:0:
101,217,131200,5,2,2:0:0:0:
116,128,131404,1,0,3:0:0:0:
101,217,131608,5,2,2:0:0:0:
61,48,131813,1,0,3:2:0:0:
101,217,132017,5,0,2:0:0:0:
101,217,132119,1,0,2:0:0:0:
101,217,132221,5,0,3:2:0:0:
32,160,132425,1,2,3:2:0:0:
101,217,132629,5,0,3:0:0:0:
116,128,132833,1,2,2:0:0:0:
101,217,133037,5,0,3:0:0:0:
116,128,133241,1,2,2:0:0:0:
202,210,133445,6,0,L|241:244,1,30.0000000000001,2|0,1:2|2:0,2:0:0:0:
288,184,133581,6,0,L|336:186,1,30.0000000000001,0|0,1:2|2:0,2:0:0:0:
361,114,133717,6,0,L|402:86,1,30.0000000000001,2|0,1:2|2:0,2:0:0:0:
369,87,133853,6,0,L|332:281,1,180,4|2,1:0|3:2,2:0:0:0:
445,160,134466,1,0,2:0:0:0:
335,263,134670,6,0,L|369:87,1,180,0|2,3:2|3:2,2:0:0:0:
275,59,135282,1,2,2:0:0:0:
330,50,135384,1,0,2:0:0:0:
369,87,135486,6,0,L|335:263,1,180,0|2,3:2|3:2,2:0:0:0:
268,313,136098,1,2,2:0:0:0:
369,87,136302,6,0,L|352:175,2,90.0000000000002,0|2|0,3:0|2:0|3:0,2:0:0:0:
318,384,136915,1,0,1:2:0:0:
352,175,137119,5,0,1:2:0:0:
352,175,137323,1,0,3:2:0:0:
352,175,137527,5,2,3:2:0:0:
352,175,137731,1,2,2:0:0:0:
352,175,137935,5,0,3:0:0:0:
352,175,138139,1,2,2:0:0:0:
352,175,138343,5,0,1:2:0:0:
441,166,138479,5,0,2:0:0:0:
405,250,138615,5,0,2:0:0:0:
352,175,138751,5,0,3:2:0:0:
390,264,138955,2,0,L|474:357,1,90.0000000000002,2|0,3:2|3:0,2:0:0:0:
246,238,139364,2,0,L|330:331,1,90.0000000000002,2|0,2:0|3:0,2:0:0:0:
306,304,139772,1,2,2:0:0:0:
162,237,139976,2,0,L|118:185,1,45.0000000000001,2|0,1:2|2:0,2:0:0:0:
129,185,140180,1,2,2:0:0:0:
129,185,140282,1,2,2:0:0:0:
129,185,140384,6,0,L|82:373,1,150,4|0,3:1|2:0,2:0:0:0:
63,72,140792,2,0,L|16:260,1,150,2|2,1:2|2:0,2:0:0:0:
252,19,141200,2,0,L|205:207,1,150,0|0,3:0|2:0,2:0:0:0:
397,384,141608,1,2,1:2:0:0:
397,384,141813,6,0,L|433:238,1,150,2|0,2:0|3:2,2:0:0:0:
366,185,142425,5,2,1:2:0:0:
254,375,142629,2,0,L|290:229,2,150,2|0|2,2:0|3:2|2:0,2:0:0:0:
366,185,143241,1,0,1:2:0:0:
409,26,143445,6,0,L|390:98,2,75,2|0|0,2:0|2:0|3:2,2:0:0:0:
503,38,144057,5,2,1:2:0:0:
503,38,144159,1,2,2:0:0:0:
503,38,144262,2,0,L|305:70,1,150,2|0,2:0|3:2,2:0:0:0:
273,73,144874,5,2,1:2:0:0:
273,73,145078,2,0,L|120:51,1,150,2|0,2:0|3:2,2:0:0:0:
64,110,145486,1,2,2:0:0:0:
273,38,145690,2,0,L|124:51,1,150,2|0,1:2|2:0,2:0:0:0:
34,229,146098,5,0,3:2:0:0:
58,258,146302,5,0,2:0:0:0:
58,258,146404,1,0,2:0:0:0:
58,258,146506,1,0,1:2:0:0:
40,287,146711,5,2,2:0:0:0:
72,337,146813,1,2,2:0:0:0:
131,347,146915,2,0,L|301:342,1,120,2|0,3:2|2:0,2:0:0:0:
396,179,147323,1,2,1:2:0:0:
271,261,147527,2,0,L|438:311,1,120,2|0,2:0|3:2,2:0:0:0:
476,229,148139,5,2,1:2:0:0:
260,294,148343,2,0,L|476:229,1,225,2|0,2:0|2:0,2:0:0:0:
494,224,148751,1,0,2:0:0:0:
303,83,148955,1,2,1:2:0:0:
97,116,149159,2,0,L|243:145,2,150,2|0|0,2:0|3:2|2:0,2:0:0:0:
387,21,149772,2,0,L|355:95,1,75,2|0,1:2|2:0,2:0:0:0:
402,45,149976,6,0,L|225:120,1,180,2|0,2:0|3:2,2:0:0:0:
236,115,150384,1,0,2:0:0:0:
76,264,150588,1,2,1:2:0:0:
76,264,150792,2,0,L|96:115,1,150,2|0,2:0|3:2,2:0:0:0:
49,45,151200,1,0,2:0:0:0:
129,340,151404,1,2,1:2:0:0:
35,54,151608,5,2,1:2:0:0:
29,141,152017,5,2,3:2:0:0:
68,221,152221,5,0,1:2:0:0:
99,245,152323,1,0,1:2:0:0:
144,255,152425,2,0,L|273:237,1,75,2|0,1:2|2:0,2:0:0:0:
236,230,152629,1,0,3:2:0:0:
86,329,152833,5,2,3:0:0:0:
247,147,153037,1,2,3:0:0:0:
63,341,153241,1,2,3:0:0:0:
453,37,153445,6,0,L|527:326,1,240,4|2,3:1|2:3,2:3:0:0:
116,29,153853,2,0,L|75:159,1,120,0|0,1:3|2:3,2:3:0:0:
38,227,154057,2,0,L|15:345,1,120,2|0,2:3|2:3,2:3:0:0:
23,21,154262,2,0,L|107:389,1,360,0|0,3:0|2:3,2:3:0:0:
201,72,154670,2,0,L|321:48,1,120,0|0,1:3|2:3,2:3:0:0:
352,211,154874,2,0,L|326:366,1,120,2|0,2:3|2:3,2:3:0:0:
304,137,155078,2,0,L|526:354,2,240,0|2|0,3:0|2:3|1:3,2:3:0:0:
427,372,155690,1,2,2:3:0:0:
246,275,155894,6,0,L|44:297,1,150,0|2,3:0|2:3,2:3:0:0:
98,294,156302,2,0,L|278:272,1,150,0|2,1:3|2:3,2:3:0:0:
225,193,156608,1,0,2:3:0:0:
232,285,156711,6,0,L|45:24,1,315,0|2,3:0|2:3,2:3:0:0:
41,47,157119,2,0,L|177:74,1,105,2|0,1:3|2:0,2:3:0:0:
341,0,157323,2,0,L|237:13,1,105,2|0,2:3|2:0,2:0:0:0:
211,16,157527,2,0,L|458:198,2,210,0|2|2,3:0|2:3|1:3,2:3:0:0:
458,65,158037,1,0,2:0:0:0:
458,104,158139,6,0,L|199:322,1,270.000010299683,2|0,2:3|3:0,2:0:0:0:
88,369,158445,1,0,2:0:0:0:
36,275,158547,2,0,L|187:300,1,135,2|2,2:3|2:3,2:0:0:0:
421,227,158751,2,0,L|287:204,1,135,2|0,1:3|2:0,2:3:0:0:
44,146,158955,2,0,L|330:82,1,270,2|0,2:3|3:0,2:0:0:0:
14,253,159364,1,2,1:3:0:0:
93,50,159568,2,0,L|251:79,1,135,0|0,1:3|2:0,2:0:0:0:
390,103,159772,1,2,1:3:0:0:
465,151,159874,1,0,1:3:0:0:
489,236,159976,6,0,L|247:303,1,240,4|2,3:1|2:3,2:3:0:0:
427,345,160282,1,0,2:3:0:0:
341,321,160384,2,0,L|182:301,1,120,0|0,1:3|2:3,2:3:0:0:
36,379,160588,2,0,L|155:364,1,120,2|0,2:3|2:3,2:3:0:0:
326,344,160792,2,0,L|235:84,1,240,0|2,3:0|2:3,2:3:0:0:
167,87,161098,1,0,2:3:0:0:
204,121,161200,6,0,L|304:56,1,120,0|0,1:3|2:3,2:3:0:0:
31,67,161404,2,0,L|131:2,1,120,2|0,2:3|2:3,2:3:0:0:
93,131,161608,2,0,L|14:384,2,240,0|2|0,3:0|2:3|1:3,2:3:0:0:
164,200,162119,1,0,2:3:0:0:
164,200,162221,2,0,L|314:242,1,135,2|0,2:3|2:3,2:3:0:0:
409,311,162425,2,0,L|315:38,1,270,0|2,3:0|2:3,2:3:0:0:
0,345,162833,2,0,L|152:247,1,135,0|0,1:3|2:3,2:3:0:0:
408,199,163037,2,0,L|125:50,1,270,2|0,2:3|3:0,2:3:0:0:
349,359,163445,5,2,2:3:0:0:
140,382,163649,2,0,L|349:359,1,210,2|2,1:3|2:3,2:3:0:0:
116,158,164057,1,0,3:0:0:0:
166,361,164262,2,0,L|106:118,1,210,2|0,3:0|1:3,2:3:0:0:
303,30,164670,5,2,1:3:0:0:
403,46,164772,1,0,1:3:0:0:
482,111,164874,1,0,1:3:0:0:
283,48,165078,1,2,3:0:0:0:
428,15,165282,1,0,1:3:0:0:
395,93,165384,1,0,1:3:0:0:
412,178,165486,2,0,L|382:286,1,105,2|0,1:3|2:0,2:0:0:0:
440,351,165690,5,0,3:0:0:0:
317,125,165894,1,2,1:3:0:0:
460,341,166098,1,0,3:0:0:0:
373,260,166302,1,4,2:3:0:0:
276,328,166506,6,0,L|295:209,1,120,0|0,3:0|3:0,2:0:0:0:
16,36,166915,5,4,1:0:0:0:
328,137,167119,1,2,2:3:0:0:
65,103,167323,2,0,L|267:83,1,180,0|2,3:0|2:3,2:3:0:0:
128,315,167731,5,0,1:3:0:0:
244,85,167935,1,2,2:3:0:0:
128,315,168139,2,0,L|151:115,1,180,0|2,3:0|2:3,2:3:0:0:
187,378,168547,5,0,1:3:0:0:
50,255,168751,1,2,2:3:0:0:
145,347,168955,2,0,L|372:367,1,180,0|2,3:0|2:3,2:3:0:0:
473,170,169364,1,0,1:3:0:0:
450,348,169568,2,0,L|473:170,1,180,2|0,2:3|3:0,2:0:0:0:
353,32,169976,5,2,2:3:0:0:
380,238,170180,1,0,1:3:0:0:
304,199,170384,1,2,2:3:0:0:
429,71,170588,2,0,L|212:96,1,180,0|2,3:0|2:3,2:0:0:0:
489,4,170996,5,0,1:3:0:0:
173,28,171200,2,0,L|353:32,1,180,2|0,2:3|3:0,2:0:0:0:
81,192,171608,1,2,2:3:0:0:
89,29,171813,1,0,1:3:0:0:
48,269,172017,2,0,L|31:89,1,180,2|0,2:3|3:0,2:0:0:0:
265,343,172425,1,2,3:0:0:0:
65,352,172629,2,0,L|285:320,1,180,0|2,1:3|3:0,2:0:0:0:
475,313,173037,5,0,3:0:0:0:
492,317,173139,1,0,3:0:0:0:
511,322,173241,2,0,L|477:334,1,30,0|0,3:0|0:0,0:0:0:0:
341,384,173445,6,0,L|381:167,1,180,4|2,3:1|2:3,2:3:0:0:
393,301,173853,2,0,L|316:67,1,180,0|2,3:0|2:3,2:3:0:0:
419,97,174262,1,0,1:3:0:0:
341,37,174466,1,2,2:3:0:0:
259,92,174670,6,0,L|217:295,1,180,0|2,3:0|2:3,2:3:0:0:
222,268,174976,1,0,2:0:0:0:
222,268,175078,1,0,1:3:0:0:
146,215,175282,1,2,2:3:0:0:
259,92,175486,2,0,L|86:143,1,180,0|2,3:0|2:3,2:3:0:0:
6,160,175894,1,0,1:3:0:0:
271,146,176098,2,0,L|97:101,1,180,2|0,2:3|3:0,2:0:0:0:
414,352,176506,5,2,2:3:0:0:
453,262,176711,1,0,1:3:0:0:
423,365,176915,1,2,2:3:0:0:
503,330,177119,2,0,L|301:299,1,180,0|2,3:0|2:3,2:0:0:0:
99,365,177527,1,0,1:0:0:0:
248,335,177731,1,0,1:3:0:0:
214,341,177833,1,0,1:3:0:0:
181,347,177935,5,2,1:3:0:0:
216,222,178139,1,2,3:0:0:0:
239,230,178241,1,0,3:0:0:0:
264,239,178343,1,0,3:0:0:0:
136,247,178547,1,2,3:0:0:0:
141,257,178649,1,0,3:0:0:0:
146,269,178751,1,0,3:0:0:0:
324,174,178955,5,2,3:0:0:0:
50,286,179159,1,0,1:3:0:0:
9,214,179364,1,0,3:0:0:0:
78,124,179568,5,4,3:1:0:0:
389,234,179772,1,0,3:1:0:0:
389,234,182425,6,0,L|406:151,1,45.0000000000001,2|0,1:2|2:0,2:0:0:0:
406,157,182629,1,2,3:2:0:0:
458,87,182833,5,0,3:2:0:0:
370,111,183037,1,0,3:2:0:0:
282,135,183241,1,2,1:2:0:0:
194,159,183445,1,2,2:0:0:0:
26,211,183649,5,0,3:2:0:0:
114,235,183853,1,0,2:0:0:0:
202,259,184057,1,2,1:2:0:0:
290,283,184262,1,2,3:2:0:0:
305,309,184364,1,0,3:0:0:0:
320,335,184466,5,0,3:2:0:0:
255,270,184670,1,0,2:0:0:0:
191,205,184874,1,2,1:2:0:0:
127,140,185078,1,2,2:0:0:0:
448,75,185282,5,0,3:2:0:0:
384,140,185486,1,2,2:0:0:0:
320,205,185690,1,2,1:2:0:0:
255,270,185894,1,2,3:2:0:0:
512,132,186098,5,4,3:1:0:0:
319,327,186302,1,0,2:0:0:0:
384,262,186506,1,2,1:2:0:0:
448,197,186711,1,2,3:2:0:0:
286,89,186915,5,0,3:2:0:0:
263,177,187119,1,0,2:0:0:0:
240,265,187323,1,2,1:2:0:0:
216,354,187527,1,2,3:2:0:0:
201,328,187629,1,0,3:0:0:0:
186,302,187731,5,0,3:2:0:0:
266,256,187935,1,0,2:0:0:0:
344,210,188139,1,2,1:2:0:0:
423,165,188343,1,2,3:2:0:0:
427,169,188547,5,0,3:2:0:0:
339,192,188751,1,0,2:0:0:0:
162,239,188955,1,2,1:2:0:0:
251,216,189159,1,2,3:2:0:0:
512,184,189364,5,4,1:0:0:0:
237,183,189568,1,0,2:0:0:0:
329,183,189772,1,2,1:2:0:0:
421,183,189976,1,2,3:2:0:0:
336,209,190180,5,0,3:2:0:0:
246,195,190384,1,0,2:0:0:0:
155,182,190588,1,2,1:2:0:0:
64,170,190792,1,2,3:2:0:0:
64,200,190894,1,0,3:0:0:0:
64,231,190996,5,0,3:2:0:0:
120,158,191200,1,0,2:0:0:0:
176,85,191404,1,2,1:2:0:0:
234,15,191608,1,2,3:2:0:0:
242,30,191813,5,0,3:2:0:0:
117,341,192017,1,2,1:2:0:0:
117,341,192221,2,0,L|24:323,1,60,2|0,1:2|2:0,2:0:0:0:
58,329,192629,5,4,3:1:0:0:
452,337,192833,1,0,3:0:0:0:
452,337,193037,2,0,P|261:372|261:372,1,150,0|0,1:3|2:0,2:0:0:0:
58,329,193445,5,0,3:0:0:0:
452,337,193649,1,0,3:0:0:0:
452,337,193853,2,0,P|272:322|272:322,1,150,0|0,1:3|2:0,2:0:0:0:
58,329,194262,5,0,3:0:0:0:
452,337,194466,1,0,3:0:0:0:
452,337,194670,2,0,P|323:226|323:226,1,150,0|0,1:3|2:0,2:0:0:0:
58,329,195078,5,0,3:0:0:0:
452,337,195282,1,0,3:0:0:0:
452,337,195486,2,0,P|468:85|468:85,1,225,0|0,1:3|2:0,2:0:0:0:
467,85,195894,5,4,3:1:0:0:
170,119,196098,1,0,3:0:0:0:
371,154,196302,2,0,L|246:72,1,150,0|0,1:3|2:0,2:0:0:0:
467,85,196711,5,0,3:0:0:0:
170,119,196915,1,0,3:0:0:0:
384,130,197119,2,0,L|246:72,1,150,0|0,1:3|2:0,2:0:0:0:
467,85,197527,5,0,3:0:0:0:
170,119,197731,1,0,3:0:0:0:
336,48,197935,1,0,1:3:0:0:
318,52,198037,2,0,L|246:72,1,75,0|0,2:0|2:0,2:0:0:0:
467,85,198343,5,0,3:0:0:0:
170,119,198547,1,0,3:0:0:0:
170,119,198751,6,0,L|151:227,1,90.0000000000002,0|0,1:3|3:0,2:0:0:0:
33,285,199159,5,4,1:0:0:0:
92,261,199364,5,0,1:0:0:0:
152,237,199568,5,0,1:0:0:0:
212,213,199772,5,0,1:0:0:0:
272,189,199976,5,0,1:0:0:0:
331,165,200180,5,0,1:0:0:0:
391,141,200384,5,0,1:0:0:0:
450,116,200588,5,0,1:0:0:0:
476,330,200792,5,0,1:0:0:0:
408,290,200996,5,0,1:0:0:0:
340,246,201200,5,0,1:0:0:0:
273,206,201404,5,0,1:0:0:0:
206,164,201608,5,0,1:0:0:0:
138,120,201812,5,0,1:0:0:0:
71,78,202016,5,0,1:0:0:0:
3,36,202221,5,0,1:0:0:0:
256,384,202425,5,4,3:1:0:0:
181,319,202629,1,0,3:0:0:0:
189,281,202731,1,0,3:0:0:0:
198,243,202833,1,0,3:0:0:0:
206,206,202935,1,0,3:0:0:0:
215,168,203037,1,0,3:0:0:0:
223,130,203139,1,0,3:0:0:0:
232,93,203241,1,0,1:3:0:0:
172,35,203445,1,0,1:3:0:0:
93,57,203649,1,0,1:3:0:0:
340,368,203853,6,0,L|499:181,1,210,4|0,3:1|2:0,2:0:0:0:
363,383,204262,2,0,L|328:97,1,210,0|0,3:0|1:3,2:0:0:0:
345,88,204568,1,0,1:3:0:0:
401,23,204670,1,0,1:3:0:0:
120,380,205078,2,0,L|-27:380,1,120,0|0,1:3|2:0,2:0:0:0:
363,380,205282,2,0,L|483:380,1,120,0|0,1:3|2:0,2:0:0:0:
483,380,205690,5,0,2:0:0:0:
483,383,208139,6,2,B|493:355|493:355|486:343|486:343|497:330|497:330|490:323,1,63,0|0,2:0|2:0,2:0:0:0:
461,35,208955,6,0,B|360:244|360:244|291:285,1,270,4|2,3:1|2:3,2:3:0:0:
410,230,209262,1,0,2:3:0:0:
380,134,209364,2,0,L|63:175,1,270,0|2,1:3|2:3,2:3:0:0:
37,107,209670,1,0,2:3:0:0:
91,177,209772,2,0,L|385:310,1,270,0|2,3:0|2:3,2:3:0:0:
132,65,210078,1,0,2:3:0:0:
211,115,210180,2,0,B|193:209|193:209|139:274,1,135,0|0,1:3|2:3,2:3:0:0:
24,376,210384,2,0,B|43:355|43:355|143:318,1,135,2|0,2:3|2:3,2:3:0:0:
294,379,210588,6,0,B|74:312|74:312|42:289,1,270,0|2,3:0|2:3,2:3:0:0:
359,210,210894,1,0,2:3:0:0:
442,223,210996,2,0,L|496:347,1,135,0|0,1:3|2:3,2:3:0:0:
461,384,211200,2,0,L|484:251,1,135,2|0,2:3|2:3,2:3:0:0:
494,147,211404,2,0,B|271:111|271:111|232:74,1,270,0|2,3:0|2:3,2:3:0:0:
305,31,211711,1,0,2:3:0:0:
229,62,211813,2,0,L|54:95,1,135,0|0,1:3|2:3,2:3:0:0:
21,181,212017,2,0,L|175:194,1,135,2|0,2:3|2:3,2:3:0:0:
485,37,212221,6,0,B|51:260|51:260|19:301,2,539.999999999999,0|2|0,3:0|1:3|3:0,2:3:0:0:
424,95,213139,1,0,2:0:0:0:
341,137,213241,2,0,B|242:179|242:179|152:170,1,135,2|2,2:3|2:3,2:0:0:0:
304,273,213445,2,0,B|279:261|279:261|215:176,1,135,2|0,1:3|2:0,2:3:0:0:
0,357,213649,6,0,B|35:353|35:353|475:14,1,600,2|2,2:3|2:3,2:0:0:0:
26,247,214159,1,2,2:3:0:0:
0,328,214262,2,0,L|178:365,1,150,2|0,1:3|2:0,2:3:0:0:
442,360,214466,2,0,B|95:169|95:169|19:80,1,450,2|0,2:3|2:3,2:0:0:0:
61,109,214874,6,0,L|244:82,1,150,0|0,1:3|2:0,2:0:0:0:
504,254,215078,2,0,B|252:310|252:310|177:295,1,300,0|0,1:3|1:3,2:0:0:0:
469,74,215384,1,0,1:3:0:0:
485,174,215486,6,4,L|115:27,1,300,4|2,3:1|2:3,3:0:0:0:
416,0,215792,1,0,2:3:0:0:
512,54,215894,2,0,B|277:171|277:171|206:175,1,300,0|2,1:3|2:3,2:3:0:0:
66,4,216200,1,0,2:3:0:0:
21,82,216302,2,0,L|318:126,2,300,0|2|0,3:0|2:3|1:3,2:3:0:0:
315,208,216813,5,0,2:3:0:0:
196,301,216915,2,0,L|239:173,1,135,2|0,2:3|2:3,2:3:0:0:
82,206,217119,2,0,B|114:239|114:239|373:342,1,270,0|2,3:0|2:3,2:3:0:0:
51,343,217425,1,0,2:3:0:0:
58,315,217527,2,0,L|355:285,1,270,0|2,1:3|2:3,2:3:0:0:
502,210,217833,1,0,2:3:0:0:
389,384,217935,6,0,B|475:139|475:139|504:112,1,300,0|2,3:0|2:3,2:3:0:0:
493,351,218241,1,2,2:3:0:0:
470,248,218343,2,0,B|457:222|457:222|350:136,1,150,2|0,1:3|2:3,2:3:0:0:
225,43,218547,1,2,3:0:0:0:
297,89,218751,5,0,3:0:0:0:
372,45,218955,6,0,L|216:65,1,135,2|0,3:0|2:0,2:0:0:0:
131,43,219159,2,0,B|198:274|198:274|251:312,1,270,2|0,1:3|2:0,2:0:0:0:
222,291,219466,1,0,0:0:0:0:
222,291,219568,2,0,L|378:271,1,135,0|0,3:0|2:0,2:0:0:0:
72,273,219772,2,0,B|140:42|140:42|193:4,1,270,0|0,3:0|1:3,2:0:0:0:
383,148,220180,1,2,1:3:0:0:
256,384,220384,5,0,1:3:0:0:
127,308,220588,2,0,L|232:298,1,105,2|0,3:0|2:0,2:0:0:0:
232,298,220792,1,0,1:3:0:0:
290,224,220996,2,0,L|400:235,1,105,2|0,3:0|2:0,2:0:0:0:
426,239,221200,1,0,1:3:0:0:
120,159,221404,2,0,L|225:149,1,105,2|0,3:0|2:0,2:0:0:0:
290,81,221608,6,0,L|269:26,1,52.500000500679,0|0,3:0|0:0,0:0:0:0:
379,65,221710,2,0,B|382:39|382:39|409:-3,1,52.500000500679,0|0,3:0|0:0,0:0:0:0:
459,112,221813,2,0,B|499:102|499:102|514:80,1,52.500000500679,0|0,3:0|0:0,0:0:0:0:
502,190,221915,2,0,P|484:210|487:255,1,52.500000500679,0|0,3:0|0:0,0:0:0:0:
504,281,222017,6,2,P|441:348|279:376,1,225,0|0,3:0|2:0,2:1:0:0:
234,357,222425,6,0,P|101:189|184:23,1,360,4|2,1:0|2:3,2:3:0:0:
397,130,222731,1,0,2:3:0:0:
351,249,222833,2,0,P|181:193|36:89,1,360,0|2,3:0|2:3,2:3:0:0:
431,210,223139,1,0,2:3:0:0:
317,159,223241,2,0,P|243:181|103:261,1,180,0|0,1:3|2:3,2:3:0:0:
64,283,223445,2,0,P|128:258|284:241,1,180,2|0,2:3|2:3,2:3:0:0:
389,371,223649,6,0,P|480:161|487:-20,2,360,0|2|0,3:0|2:3|1:3,2:3:0:0:
317,159,224159,1,2,2:3:0:0:
248,262,224262,1,2,2:3:0:0:
175,340,224364,1,2,2:3:0:0:
94,377,224466,1,0,3:0:0:0:
107,23,224670,1,2,2:3:0:0:
41,74,224772,1,2,2:3:0:0:
81,154,224874,2,0,L|222:130,1,135.000005149842,0|0,1:3|2:3,2:3:0:0:
8,304,225078,2,0,L|158:208,1,135,2|0,2:3|2:3,2:3:0:0:
261,23,225282,6,0,B|285:44|285:44|346:353,2,300,0|2|2,3:0|2:3|1:3,2:3:0:0:
206,93,225792,1,2,2:3:0:0:
225,173,225894,1,2,2:3:0:0:
302,210,225996,1,2,2:3:0:0:
380,173,226098,2,0,B|133:225|133:225|37:304,2,300,0|2|2,3:0|2:3|1:3,2:3:0:0:
464,158,226608,1,0,2:0:0:0:
512,330,226711,6,0,P|123:276|12:187,1,540.000000000001,2|0,2:3|2:0,2:0:0:0:
180,7,227119,2,0,P|106:55|90:141,1,180,2|2,2:3|2:3,2:0:0:0:
508,201,227323,2,0,P|500:135|434:28,1,180,2|0,1:3|2:0,2:3:0:0:
172,366,227527,2,0,P|349:151|376:0,1,360,2|0,2:3|3:0,2:0:0:0:
304,22,227833,1,0,2:3:0:0:
231,127,227935,2,0,P|245:183|331:289,1,180,2|0,1:3|2:0,2:0:0:0:
86,384,228139,2,0,P|72:328|-14:222,1,180,2|0,1:3|2:0,2:0:0:0:
145,99,228343,1,2,1:3:0:0:
137,269,228445,1,0,1:3:0:0:
141,184,228547,6,0,P|179:136|479:31,1,360,4|2,1:0|2:3,2:3:0:0:
495,112,228853,1,0,2:3:0:0:
479,337,228955,2,0,P|386:184|365:7,1,360,0|2,1:3|2:3,2:3:0:0:
493,202,229262,1,0,2:3:0:0:
407,293,229364,2,0,P|285:334|-2:359,2,360,0|2|0,3:0|2:3|1:3,2:3:0:0:
505,215,229874,1,0,2:3:0:0:
489,87,229976,2,0,P|362:86|282:140,1,180,2|0,2:3|2:3,2:3:0:0:
200,186,230180,6,0,P|339:202|476:37,1,360,0|2,3:0|2:3,2:3:0:0:
366,0,230486,1,0,2:3:0:0:
252,33,230588,2,0,P|83:171|9:309,1,360,0|2,1:3|2:3,2:3:0:0:
142,0,230894,1,0,2:3:0:0:
64,31,230996,2,0,P|68:154|236:407,1,360,0|2,3:0|2:3,2:3:0:0:
266,376,231302,1,0,2:3:0:0:
402,241,231404,2,0,P|313:258|230:296,1,180,2|0,1:3|2:3,2:3:0:0:
389,341,231608,6,0,B|418:306|418:306|460:-3,1,300,2|0,2:3|3:0,2:3:0:0:
478,377,232017,1,2,2:3:0:0:
384,98,232221,2,0,P|406:238|478:377,1,300,2|2,1:3|2:3,2:3:0:0:
472,31,232629,1,2,3:0:0:0:
170,99,232833,2,0,B|429:77|429:77|490:26,1,300,2|0,3:0|1:3,2:3:0:0:
95,365,233241,2,0,B|38:267|38:267|33:229,1,150,2|0,1:3|0:0,0:0:0:0:
15,146,233445,6,0,L|103:161,1,90.0000034332277,0|0,1:0|0:0,0:0:0:0:
242,206,233649,2,0,L|332:220,1,90.0000034332277,2|0,3:0|0:0,0:0:0:0:
469,266,233853,5,0,1:3:0:0:
365,355,233955,1,0,1:3:0:0:
230,360,234057,1,0,1:3:0:0:
116,264,234159,1,0,1:0:0:0:
121,119,234262,6,0,P|126:200|409:324,1,360,0|0,1:3|2:0,2:0:0:0:
469,266,234670,2,0,B|414:242|414:242|348:264,1,120,0|0,1:3|2:0,2:0:0:0:
233,297,234874,2,0,B|176:318|176:318|112:299,1,120,2|0,2:3|2:0,2:0:0:0:
17,219,235078,6,0,L|26:149,1,67.4999979400635,4|0,3:2|2:0,2:0:0:0:
495,165,235894,6,0,L|486:235,1,67.4999979400635,4|0,3:2|2:0,2:0:0:0:
17,219,236711,6,0,L|26:149,1,67.4999979400635,4|0,3:2|2:0,2:0:0:0:
495,165,237527,6,0,L|486:235,1,67.4999979400635,4|0,3:2|2:0,2:0:0:0:
229,1,238343,6,0,L|299:10,1,67.4999979400635,4|0,3:2|2:0,2:0:0:0:
283,383,239159,6,0,L|213:374,1,67.4999979400635,4|0,3:2|2:0,2:0:0:0:
229,1,239976,6,0,L|299:10,1,67.4999979400635,4|0,3:2|2:0,2:0:0:0:
283,383,240792,6,0,L|213:374,1,67.4999979400635,4|0,3:2|2:0,2:0:0:0:
6,348,241608,6,0,P|24:278|274:52,1,420,6|0,3:2|2:0,2:0:0:0:
6,258,242017,2,0,P|130:137|397:40,1,420,6|0,3:2|2:0,2:0:0:0:
26,178,242425,2,0,P|252:88|455:108,1,420,6|0,3:2|2:0,2:0:0:0:
71,105,242833,2,0,P|144:91|327:157,1,240,6|0,3:2|1:2,2:0:0:0:
352,207,243139,1,0,1:2:0:0:
351,292,243241,6,0,B|8:358|8:358|87:299,1,420,4|0,3:2|2:0,2:0:0:0:
452,368,243649,2,0,B|88:341|88:341|51:300,1,420,4|0,3:2|2:0,2:0:0:0:
435,283,244057,2,0,B|373:277|373:277|94:141,1,360,6|0,3:2|1:2,2:0:0:0:
415,310,244466,2,0,B|322:302|322:302|272:278,1,120,6|0,1:2|2:0,2:0:0:0:
225,251,244670,2,0,B|132:243|132:243|82:219,1,120,2|0,1:2|2:0,2:0:0:0:
33,190,244874,6,0,L|443:103,1,420,6|0,3:2|2:0,2:0:0:0:
512,158,245282,2,0,L|88:69,1,420,6|0,3:2|2:0,2:0:0:0:
109,154,245690,2,0,L|330:25,1,240,6|0,1:2|3:2,2:0:0:0:
486,33,245996,1,0,3:0:0:0:
403,33,246098,2,0,L|356:179,1,120,2|0,3:2|2:0,2:0:0:0:
52,0,246302,5,6,1:2:0:0:
