osu file format v14

[General]
AudioFilename: audio.mp3
AudioLeadIn: 0
PreviewTime: 138710
Countdown: 1
SampleSet: Soft
StackLeniency: 0.4
Mode: 0
LetterboxInBreaks: 0
WidescreenStoryboard: 0

[Editor]
DistanceSpacing: 1.04
BeatDivisor: 4
GridSize: 16
TimelineZoom: 2.1

[Metadata]
Title:Kimi no Shiranai Monogatari (English Cover)
TitleUnicode:Kimi no Shiranai Monogatari (English Cover)
Artist:Will Stetson
ArtistUnicode:Will Stetson
Creator:Timperjuncio
Version:Star Rain
Source:
Tags:
BeatmapID:1803026
BeatmapSetID:861925

[Difficulty]
HPDrainRate:6
CircleSize:4
OverallDifficulty:8.8
ApproachRate:9.3
SliderMultiplier:1.7
SliderTickRate:1

[Events]
//Background and Video events
0,0,"3209496-night-sky-wallpapers.png",0,0
//Break Periods
2,228742,239625
//Storyboard Layer 0 (Background)
//Storyboard Layer 1 (Fail)
//Storyboard Layer 2 (Pass)
//Storyboard Layer 3 (Foreground)
//Storyboard Sound Samples

[TimingPoints]
957,363.636363636364,4,2,1,30,1,0
1645,363.636363636364,4,2,1,30,1,0
6735,-133.333333333333,4,2,1,30,0,0
9634,363.636363636364,4,2,1,50,1,0
12543,-90.9090909090909,4,2,1,60,0,0
17179,-90.9090909090909,4,2,1,40,0,0
17634,-90.9090909090909,4,2,1,60,0,0
29073,363.636363636364,4,2,1,60,1,0
29239,363.636363636364,4,2,1,60,1,0
29997,363.636363636364,4,2,1,30,1,0
29997,-133.333333333333,4,2,1,30,0,0
41620,363.636363636364,4,2,1,30,1,0
41620,-100,4,2,1,40,0,0
52892,-133.333333333333,4,2,1,40,0,0
53179,-133.333333333333,4,2,1,5,0,0
53251,363.636363636364,4,2,1,40,1,0
54705,-100,4,2,1,50,0,0
61989,363.636363636364,4,2,1,50,1,0
67807,-76.9230769230769,4,2,1,70,0,1
72989,-76.9230769230769,4,2,1,5,0,1
73079,-76.9230769230769,4,2,1,50,0,1
73625,-76.9230769230769,4,2,1,70,0,1
84625,-76.9230769230769,4,2,1,5,0,1
84716,-76.9230769230769,4,2,1,50,0,1
85261,-100,4,2,1,60,0,0
91079,-100,4,2,1,40,0,0
91443,-100,4,2,1,50,0,0
92534,-100,4,2,1,60,0,0
93989,-76.9230769230769,4,2,1,70,0,0
96898,-90.9090909090909,4,2,1,50,0,0
101256,363.636363636364,4,2,1,50,1,0
102710,-133.333333333333,4,2,1,40,0,0
114346,-100,4,2,1,40,0,0
125619,-133.333333333333,4,2,1,40,0,0
125892,-133.333333333333,4,2,1,5,0,0
125983,-100,4,2,1,50,0,0
127437,-100,4,2,1,60,0,0
128892,-100,4,2,1,50,0,0
134710,-200,4,2,1,40,0,0
137528,-200,4,2,1,5,0,0
137619,-200,4,2,1,50,0,0
139074,-200,4,2,1,60,0,0
139801,-200,4,2,1,70,0,0
140528,-76.9230769230769,4,2,1,70,0,1
145710,-76.9230769230769,4,2,1,5,0,1
145801,-76.9230769230769,4,2,1,50,0,1
146346,-76.9230769230769,4,2,1,70,0,1
157346,-76.9230769230769,4,2,1,5,0,1
157437,-76.9230769230769,4,2,1,50,0,1
157983,-76.9230769230769,4,2,1,70,0,0
158165,-100,4,2,1,60,0,0
163801,-76.9230769230769,4,2,1,50,0,0
165256,-76.9230769230769,4,2,1,60,0,0
166710,-76.9230769230769,4,2,1,70,0,0
169619,-76.9230769230769,4,2,1,60,0,0
171801,-100,4,2,1,50,0,0
172528,-100,4,2,1,60,0,0
175619,-100,4,2,1,30,0,0
178165,-100,4,2,1,60,0,0
178710,-100,4,2,1,30,0,0
180528,-100,4,2,1,50,0,0
192892,-100,4,2,1,40,0,0
195801,-100,4,2,1,50,0,0
198710,-100,4,2,1,60,0,0
200165,-100,4,2,1,70,0,0
201619,-100,4,2,1,60,0,0
202361,363.636363636364,4,2,1,50,1,1
213997,-100,4,2,1,40,0,0
216724,-200,4,2,1,40,0,0
216906,-100,4,2,1,40,0,0
219815,-100,4,2,1,50,0,0
225270,-133.333333333333,4,2,1,40,0,0
225542,-133.333333333333,4,2,1,5,0,0
225633,-133.333333333333,4,2,1,50,0,0
227088,-133.333333333333,4,2,1,60,0,0
227815,-133.333333333333,4,2,1,70,0,0
228542,-133.333333333333,4,2,1,30,0,0
240179,-133.333333333333,4,2,1,40,0,0
245997,-133.333333333333,4,2,1,30,0,0
250724,-133.333333333333,4,2,1,5,0,0
251088,-133.333333333333,4,2,1,50,0,0
251815,-100,4,2,1,50,0,0
257451,-100,4,2,1,60,0,0
257633,-100,4,2,1,30,0,0
258361,-100,4,2,1,40,0,0
259088,-100,4,2,1,50,0,0
260542,-100,4,2,1,60,0,0
263451,-100,4,2,1,40,0,0
288179,-100,4,2,1,50,0,0
288906,-100,4,2,1,60,0,0
289633,-100,4,2,1,40,0,0
291088,-100,4,2,1,50,0,0
291815,-100,4,2,1,60,0,0
292542,-100,4,2,1,50,0,0
293997,-100,4,2,1,60,0,0
294724,-100,4,2,1,70,0,0
298361,-76.9230769230769,4,2,1,70,0,1
303542,-76.9230769230769,4,2,1,5,0,1
303633,-76.9230769230769,4,2,1,70,0,1
304179,-100,4,2,1,50,0,0
309997,-100,4,2,1,40,0,0
311451,-100,4,2,1,50,0,0
312906,-100,4,2,1,60,0,0
315815,-100,4,2,1,50,0,0
324542,-100,4,2,1,40,0,0
325270,-100,4,2,1,50,0,0
325997,-100,4,2,1,60,0,0
327270,-100,4,2,1,70,0,0
328199,363.636363636364,4,2,1,40,1,0
335835,-100,4,2,1,5,0,0

[HitObjects]
137,67,957,6,0,L|52:58,2,85
197,148,1502,1,0,0:0:0:0:
197,148,1645,2,0,L|294:138,1,85
357,241,2008,2,0,L|260:231,1,85
197,333,2372,6,0,L|293:323,2,85
62,215,2917,2,0,L|147:224,2,85
15,103,3463,2,0,L|99:94,1,85
240,15,3826,6,0,L|248:99,1,85
312,209,4190,2,0,L|320:124,1,85
384,15,4554,2,0,L|392:99,1,85
456,209,4917,2,0,L|464:124,1,85
378,242,5281,6,0,L|386:326,2,85
277,153,5826,2,0,L|268:237,2,85
192,46,6372,2,0,L|169:127,1,85
102,246,6735,6,0,P|201:280|275:224,1,191.250007295609
342,88,7463,2,0,P|263:156|274:249,1,191.250007295609
358,374,8190,2,0,P|337:271|252:234,1,191.250007295609
91,352,8917,2,0,P|190:386|264:330,1,191.250007295609
266,235,9634,5,6,0:0:0:0:
170,279,9815,1,2,0:0:0:0:
280,156,9997,1,2,0:0:0:0:
162,163,10179,1,2,0:0:0:0:
322,79,10361,1,2,0:0:0:0:
198,41,10543,1,2,0:0:0:0:
280,156,10724,1,2,0:0:0:0:
190,29,10906,1,2,0:0:0:0:
334,74,11088,5,2,0:0:0:0:
151,170,11270,1,2,0:0:0:0:
296,158,11452,1,2,0:0:0:0:
183,18,11634,1,2,0:0:0:0:
140,177,11815,1,2,0:0:0:0:
346,69,11997,1,2,0:0:0:0:
176,7,12179,1,2,0:0:0:0:
242,250,12361,1,2,0:0:0:0:
358,64,12543,6,0,L|252:48,1,93.5000028533936,6|0,0:0|0:0,0:0:0:0:
140,177,12906,2,0,L|232:163,1,93.5000028533936,8|0,0:0|0:0,0:0:0:0:
334,264,13270,2,0,L|242:250,1,93.5000028533936,2|0,0:0|0:0,0:0:0:0:
116,377,13634,2,0,L|208:363,1,93.5000028533936,8|0,0:0|0:0,0:0:0:0:
401,203,13997,6,0,L|387:111,1,93.5000028533936,2|0,0:0|0:0,0:0:0:0:
264,30,14361,2,0,L|250:122,1,93.5000028533936,8|0,0:0|0:0,0:0:0:0:
316,305,14724,2,0,L|300:203,1,93.5000028533936,2|0,0:0|0:0,0:0:0:0:
165,114,15088,2,0,L|149:215,1,93.5000028533936,8|0,0:0|0:0,0:0:0:0:
316,305,15452,6,0,L|408:290,1,93.5000028533936,2|0,0:0|0:0,0:0:0:0:
479,178,15815,2,0,L|386:163,1,93.5000028533936,8|0,0:0|0:0,0:0:0:0:
332,74,16179,2,0,L|424:59,1,93.5000028533936,2|0,0:0|0:0,0:0:0:0:
408,289,16543,2,0,L|315:303,1,93.5000028533936,8|0,0:0|0:0,0:0:0:0:
108,180,16906,6,0,L|201:194,1,93.5000028533936,2|0,0:0|0:0,0:0:0:0:
214,196,17179,1,8,0:0:0:0:
227,198,17270,1,8,0:0:0:0:
240,200,17361,1,8,0:0:0:0:
253,203,17452,1,8,0:0:0:0:
312,325,17634,2,0,L|219:311,1,93.5000028533936,2|0,0:0|0:0,0:0:0:0:
191,307,17906,1,8,0:0:0:0:
162,308,17997,2,0,L|69:322,1,93.5000028533936,8|0,0:0|0:0,0:0:0:0:
15,166,18361,6,0,L|108:180,1,93.5000028533936,6|0,0:0|0:0,0:0:0:0:
235,77,18724,2,0,L|142:91,1,93.5000028533936,8|0,0:0|0:0,0:0:0:0:
195,228,19088,2,0,L|288:214,1,93.5000028533936,2|0,0:0|0:0,0:0:0:0:
327,90,19452,2,0,L|234:76,1,93.5000028533936,8|0,0:0|0:0,0:0:0:0:
195,228,19815,6,0,L|209:321,1,93.5000028533936,2|0,0:0|0:0,0:0:0:0:
341,356,20179,2,0,L|355:263,1,93.5000028533936,8|0,0:0|0:0,0:0:0:0:
284,160,20543,1,2,0:0:0:0:
284,160,20634,1,8,0:0:0:0:
284,160,20724,1,2,0:0:0:0:
144,161,20906,1,2,0:0:0:0:
125,182,20996,1,2,0:0:0:0:
115,208,21087,1,2,0:0:0:0:
113,237,21178,1,2,0:0:0:0:
121,264,21270,6,0,P|162:312|225:319,1,93.5000028533936,6|0,0:0|0:0,0:0:0:0:
207,327,21543,1,8,0:0:0:0:
225,329,21634,1,8,0:0:0:0:
352,216,21815,6,0,P|311:168|248:161,1,93.5000028533936
144,161,22179,1,2,0:0:0:0:
270,245,22361,1,8,0:0:0:0:
196,86,22543,6,0,B|106:46|102:122|2:56,1,187.000005706787,4|0,0:0|0:0,0:0:0:0:
144,161,23088,1,8,0:0:0:0:
77,3,23270,5,12,0:0:0:0:
16,274,23634,1,12,0:0:0:0:
16,274,24179,6,0,B|126:255|97:338|233:291,1,187.000005706787,6|8,0:0|0:0,0:0:0:0:
176,132,24724,1,0,0:0:0:0:
176,132,24906,2,0,P|159:190|165:237,1,93.5000028533936,2|0,0:0|0:0,0:0:0:0:
341,254,25270,2,0,P|358:196|352:149,1,93.5000028533936,8|0,0:0|0:0,0:0:0:0:
241,63,25634,6,0,B|177:47|177:47|50:71,1,187.000005706787,2|8,0:0|0:0,0:0:0:0:
158,247,26179,2,0,B|222:231|222:231|349:255,1,187.000005706787
396,370,26724,2,0,L|292:351,1,93.5000028533936,8|0,0:0|0:0,0:0:0:0:
72,274,27088,6,0,P|74:213|104:173,1,93.5000028533936,2|0,0:0|0:0,0:0:0:0:
236,103,27452,2,0,P|256:144|254:190,1,93.5000028533936,8|0,0:0|0:0,0:0:0:0:
90,186,27815,1,2,0:0:0:0:
168,164,27997,1,0,0:0:0:0:
72,274,28179,1,8,0:0:0:0:
14,106,28361,1,6,0:0:0:0:
14,106,28724,5,8,0:0:0:0:
168,164,28906,1,8,0:0:0:0:
9,216,29073,1,8,0:0:0:0:
128,57,29238,1,8,0:0:0:0:
183,272,29420,1,8,0:0:0:0:
322,84,29602,1,8,0:0:0:0:
413,327,29784,1,8,0:0:0:0:
296,244,29997,6,0,P|301:204|294:177,1,63.7500024318696
217,211,30361,2,0,P|204:172|186:151,1,63.7500024318696
131,214,30724,2,0,P|103:184|78:172,1,63.7500024318696
58,254,31088,1,0,0:0:0:0:
58,254,31270,1,0,0:0:0:0:
196,270,31452,6,0,P|211:241|216:210,1,63.7500024318696
123,108,31815,2,0,P|139:134|164:154,1,63.7500024318696
300,124,32179,2,0,P|268:125|238:136,1,63.7500024318696
289,209,32543,1,0,0:0:0:0:
289,209,32724,1,0,0:0:0:0:
393,107,32906,6,0,P|374:65|349:43,1,63.7500024318696
237,53,33270,2,0,P|210:90|203:123,1,63.7500024318696
199,226,33634,2,0,P|167:231|136:225,1,63.7500024318696
70,132,33997,2,0,P|81:102|101:78,1,63.7500024318696
237,53,34361,6,0,L|306:65,2,63.7500024318696
154,149,34906,2,0,L|223:137,2,63.7500024318696
104,265,35452,2,0,L|165:232,1,63.7500024318696
268,245,35815,6,0,L|291:378,1,127.500004863739
289,119,36543,2,0,L|266:252,1,127.500004863739
215,48,37270,6,0,P|275:23|340:26,1,127.500004863739
410,141,37997,2,0,P|350:116|284:119,1,127.500004863739
392,222,38724,2,0,B|329:164|266:213|266:213|178:188|178:188|143:223|83:221,1,318.750012159348
103,119,39815,2,0,P|142:92|167:87,1,63.7500024318696
267,64,40179,6,0,L|257:126,1,63.7500024318696
178,188,40543,2,0,L|187:251,1,63.7500024318696
257,374,40906,2,0,L|267:312,1,63.7500024318696
187,251,41270,2,0,L|178:189,1,63.7500024318696
267,64,41620,6,0,L|251:162,1,85,6|0,0:0|0:0,0:0:0:0:
385,228,41983,2,0,L|369:129,1,85,2|0,0:0|0:0,0:0:0:0:
503,64,42347,2,0,L|487:162,1,85,2|0,0:0|0:0,0:0:0:0:
385,228,42710,1,2,0:0:0:0:
507,270,42892,1,0,0:0:0:0:
353,331,43074,6,0,L|266:319,1,85,2|0,0:0|0:0,0:0:0:0:
179,219,43438,2,0,L|263:207,1,85,2|0,0:0|0:0,0:0:0:0:
353,107,43801,2,0,L|268:95,1,85,2|0,0:0|0:0,0:0:0:0:
138,136,44165,1,2,0:0:0:0:
187,7,44347,1,0,0:0:0:0:
32,84,44529,6,0,L|43:168,1,85,2|0,0:0|0:0,0:0:0:0:
98,309,44892,2,0,L|109:224,1,85,2|0,0:0|0:0,0:0:0:0:
164,84,45256,2,0,L|175:168,1,85,2|0,0:0|0:0,0:0:0:0:
252,273,45620,1,2,0:0:0:0:
109,224,45801,1,0,0:0:0:0:
193,359,45983,6,0,L|297:372,1,85,2|0,0:0|0:0,0:0:0:0:
336,262,46347,2,0,L|232:275,1,85,2|0,0:0|0:0,0:0:0:0:
193,165,46710,2,0,L|297:178,1,85,2|0,0:0|0:0,0:0:0:0:
405,141,47074,1,2,0:0:0:0:
336,262,47256,1,0,0:0:0:0:
472,216,47438,6,0,P|505:147|462:59,2,170,2|2|2,0:0|0:0|0:0,0:0:0:0:
336,262,48347,1,0,0:0:0:0:
336,262,48529,2,0,L|246:269,1,85,2|0,0:0|0:0,0:0:0:0:
84,272,48892,6,0,B|170:253|170:253|278:273,2,170,2|2|2,0:0|0:0|0:0,0:0:0:0:
109,371,49801,1,0,0:0:0:0:
109,371,49983,2,0,L|202:351,1,85,2|0,0:0|0:0,0:0:0:0:
416,303,50347,2,0,L|249:267,2,170,2|2|2,0:0|0:0|0:0,0:0:0:0:
448,176,51256,1,0,0:0:0:0:
448,176,51438,2,0,L|364:193,1,85,2|0,0:0|0:0,0:0:0:0:
238,89,51801,6,0,B|327:114|268:171|383:198,1,170,2|2,0:0|0:0,0:0:0:0:
378,107,52347,1,0,0:0:0:0:
226,166,52529,2,0,P|255:217|299:250,1,85,2|0,0:0|0:0,0:0:0:0:
406,305,52892,2,0,P|347:304|296:328,1,95.6250036478044,2|0,0:0|0:0,0:0:0:0:
299,327,53251,5,6,0:0:0:0:
299,327,53614,1,8,0:0:0:0:
233,208,53795,1,8,0:0:0:0:
206,340,53977,1,8,0:0:0:0:
310,182,54159,1,8,0:0:0:0:
299,327,54341,1,8,0:0:0:0:
251,128,54523,1,8,0:0:0:0:
206,340,54704,5,8,0:0:0:0:
361,251,54886,1,8,0:0:0:0:
134,223,55068,1,8,0:0:0:0:
299,327,55250,1,8,0:0:0:0:
85,340,55432,1,8,0:0:0:0:
310,182,55614,1,8,0:0:0:0:
206,340,55795,1,8,0:0:0:0:
188,84,55977,1,8,0:0:0:0:
399,175,56160,6,0,P|384:233|358:259,1,85,6|0,0:0|0:0,0:0:0:0:
236,263,56524,2,0,P|212:298|206:340,1,85,2|0,0:0|0:0,0:0:0:0:
398,327,56887,2,0,P|391:285|367:250,1,85,8|0,0:0|0:0,0:0:0:0:
236,263,57251,2,0,P|211:228|205:186,1,85,2|0,0:0|0:0,0:0:0:0:
272,33,57614,5,2,0:0:0:0:
303,215,57795,1,8,0:0:0:0:
384,168,57978,2,0,P|346:131|307:119,1,85,2|0,0:0|0:0,0:0:0:0:
236,263,58341,2,0,P|274:226|313:214,1,85,8|0,0:0|0:0,0:0:0:0:
384,358,58705,2,0,P|346:321|307:309,1,85,2|0,0:0|0:0,0:0:0:0:
148,235,59069,6,0,P|146:277|162:317,1,85,2|0,0:0|0:0,0:0:0:0:
244,150,59433,2,0,P|246:108|231:69,1,85,2|0,0:0|0:0,0:0:0:0:
70,141,59796,2,0,P|112:142|151:127,1,85,8|0,0:0|0:0,0:0:0:0:
310,248,60160,2,0,P|267:246|228:261,1,85,2|0,0:0|0:0,0:0:0:0:
217,275,60432,1,2,0:0:0:0:
207,288,60523,5,0,0:0:0:0:
357,345,60705,1,8,0:0:0:0:
401,200,60887,2,0,P|360:159|303:142,1,85,2|0,0:0|0:0,0:0:0:0:
319,143,61160,1,8,0:0:0:0:
302,140,61251,1,8,0:0:0:0:
132,175,61433,1,2,0:0:0:0:
207,288,61615,1,2,0:0:0:0:
223,199,61796,1,2,0:0:0:0:
76,347,61989,5,12,0:0:0:0:
207,288,62171,1,0,0:0:0:0:
75,233,62353,5,8,0:0:0:0:
219,297,62535,1,0,0:0:0:0:
76,347,62716,5,8,0:0:0:0:
231,306,62898,1,0,0:0:0:0:
75,233,63080,5,8,0:0:0:0:
243,315,63262,1,0,0:0:0:0:
76,347,63444,5,8,0:0:0:0:
182,178,63626,1,0,0:0:0:0:
172,367,63807,5,8,0:0:0:0:
77,143,63989,1,0,0:0:0:0:
76,347,64171,5,8,0:0:0:0:
192,167,64353,1,0,0:0:0:0:
172,367,64535,5,8,0:0:0:0:
71,128,64716,1,0,0:0:0:0:
76,347,64898,5,2,0:0:0:0:
302,260,65080,1,2,0:0:0:0:
71,128,65262,1,2,0:0:0:0:
172,367,65443,1,2,0:0:0:0:
172,367,65534,1,2,0:0:0:0:
172,367,65625,1,10,0:0:0:0:
256,106,65806,1,2,0:0:0:0:
76,347,65988,1,2,0:0:0:0:
302,260,66170,1,2,0:0:0:0:
199,26,66352,5,8,0:0:0:0:
199,26,67807,6,0,B|200:103|200:103|229:166|229:166|224:258,1,220.999989883423,6|8,0:0|0:0,0:0:0:0:
134,323,68353,1,0,0:0:0:0:
300,356,68535,1,2,0:0:0:0:
151,189,68716,1,0,0:0:0:0:
209,370,68898,2,0,P|221:311|198:260,1,110.499994941712,8|0,0:0|0:0,0:0:0:0:
57,142,69261,6,0,B|150:189|150:189|280:201,1,220.999989883423,2|8,0:0|0:0,0:0:0:0:
420,126,69807,2,0,B|327:79|327:79|197:67,1,220.999989883423
155,189,70352,2,0,L|266:199,1,110.499994941712,8|0,0:0|0:0,0:0:0:0:
436,272,70716,6,0,B|359:273|359:273|296:302|296:302|204:297,1,220.999989883423,2|8,0:0|0:0,0:0:0:0:
155,189,71261,1,0,0:0:0:0:
90,347,71443,1,2,0:0:0:0:
274,222,71625,1,0,0:0:0:0:
71,221,71807,2,0,P|110:265|184:275,1,110.499994941712,8|0,0:0|0:0,0:0:0:0:
363,124,72170,6,0,B|248:141|248:141|154:188,1,220.999989883423,2|8,0:0|0:0,0:0:0:0:
90,347,72716,2,0,B|197:331|197:331|283:287,1,165.749992412568
267,293,73079,5,12,0:0:0:0:
154,188,73261,1,12,0:0:0:0:
165,370,73443,1,0,0:0:0:0:
320,186,73625,6,0,B|243:187|243:187|180:216|180:216|88:211,1,220.999989883423,2|8,0:0|0:0,0:0:0:0:
48,113,74170,1,0,0:0:0:0:
39,296,74352,1,2,0:0:0:0:
164,133,74534,1,0,0:0:0:0:
0,199,74716,2,0,P|8:260|53:303,1,110.499994941712,8|0,0:0|0:0,0:0:0:0:
168,231,75079,5,2,0:0:0:0:
137,345,75261,1,0,0:0:0:0:
259,180,75443,1,8,0:0:0:0:
290,294,75625,1,0,0:0:0:0:
164,133,75807,2,0,L|186:19,1,110.499994941712,2|0,0:0|0:0,0:0:0:0:
383,208,76170,2,0,L|403:316,1,110.499994941712,12|0,0:0|0:0,0:0:0:0:
121,329,76534,6,0,B|81:248|81:248|94:96,1,220.999989883423,6|8,0:0|0:0,0:0:0:0:
220,32,77079,1,0,0:0:0:0:
220,32,77170,1,0,0:0:0:0:
220,32,77261,2,0,B|260:113|260:113|247:265,1,220.999989883423,2|8,0:0|0:0,0:0:0:0:
86,261,77806,1,0,0:0:0:0:
86,261,77897,1,0,0:0:0:0:
86,261,77988,5,8,0:0:0:0:
170,131,78170,1,0,0:0:0:0:
200,273,78352,5,8,0:0:0:0:
84,88,78534,1,0,0:0:0:0:
126,339,78715,5,8,0:0:0:0:
170,369,78807,1,8,0:0:0:0:
225,371,78898,1,8,0:0:0:0:
272,344,78989,1,8,0:0:0:0:
297,296,79078,1,8,0:0:0:0:
283,265,79170,1,2,0:0:0:0:
281,231,79261,1,2,0:0:0:0:
290,199,79352,1,2,0:0:0:0:
310,171,79443,6,0,B|365:121|365:121|389:56|389:56|443:0,1,220.999989883423,6|8,0:0|0:0,0:0:0:0:
287,67,79988,1,0,0:0:0:0:
471,105,80170,1,2,0:0:0:0:
365,9,80352,1,0,0:0:0:0:
310,171,80534,2,0,P|369:135|392:69,1,110.499994941712,8|0,0:0|0:0,0:0:0:0:
193,119,80897,6,0,B|234:226|234:226|330:310,1,220.999989883423,2|8,0:0|0:0,0:0:0:0:
429,223,81443,2,0,B|388:116|388:116|292:32,1,220.999989883423
231,223,81988,2,0,L|314:296,1,110.499994941712,8|0,0:0|0:0,0:0:0:0:
469,349,82352,6,0,B|392:350|392:350|329:379|329:379|237:374,1,220.999989883423,2|8,0:0|0:0,0:0:0:0:
231,223,82897,1,0,0:0:0:0:
137,371,83079,1,2,0:0:0:0:
314,303,83261,1,0,0:0:0:0:
136,236,83443,2,0,P|167:296|235:319,1,110.499994941712,8|0,0:0|0:0,0:0:0:0:
442,195,83806,6,0,B|354:178|354:178|223:225,1,220.999989883423,2|8,0:0|0:0,0:0:0:0:
68,108,84352,2,0,B|151:124|151:124|276:79,1,165.749992412568
242,88,84716,5,12,0:0:0:0:
197,261,84898,1,12,0:0:0:0:
152,153,85079,1,0,0:0:0:0:
335,162,85261,5,8,0:0:0:0:
217,355,85443,2,0,P|145:344|123:323,2,85,2|0|2,0:0|0:0|0:0,0:0:0:0:
313,352,85989,2,0,P|276:279|196:260,1,170,8|0,0:0|0:0,0:0:0:0:
137,338,86534,1,0,0:0:0:0:
67,207,86716,5,8,0:0:0:0:
196,260,86897,2,0,P|228:302|236:348,1,85,2|0,0:0|0:0,0:0:0:0:
137,338,87261,1,2,0:0:0:0:
200,181,87443,2,0,P|250:142|306:132,1,85,8|0,0:0|0:0,0:0:0:0:
416,217,87806,1,0,0:0:0:0:
286,235,87988,1,0,0:0:0:0:
400,117,88170,5,8,0:0:0:0:
340,320,88352,2,0,P|285:336|241:323,2,85,2|0|2,0:0|0:0|0:0,0:0:0:0:
315,140,88897,2,0,P|273:136|233:151,1,85,8|0,0:0|0:0,0:0:0:0:
405,265,89261,2,0,P|408:223|393:183,1,85,2|0,0:0|0:0,0:0:0:0:
195,227,89625,5,8,0:0:0:0:
258,331,89806,1,2,0:0:0:0:
265,112,89988,1,0,0:0:0:0:
195,227,90169,1,2,0:0:0:0:
192,74,90352,1,8,0:0:0:0:
276,212,90533,1,2,0:0:0:0:
259,26,90715,1,8,0:0:0:0:
143,152,90898,1,8,0:0:0:0:
143,152,90988,1,8,0:0:0:0:
143,152,91079,5,12,0:0:0:0:
143,152,91443,5,8,0:0:0:0:
112,330,91625,1,8,0:0:0:0:
221,74,91806,1,8,0:0:0:0:
252,252,91988,1,8,0:0:0:0:
361,152,92170,1,8,0:0:0:0:
330,330,92352,1,8,0:0:0:0:
457,62,92534,5,8,0:0:0:0:
488,240,92716,1,8,0:0:0:0:
327,0,92897,1,8,0:0:0:0:
512,151,93079,1,8,0:0:0:0:
210,61,93261,1,8,0:0:0:0:
457,62,93443,1,8,0:0:0:0:
183,217,93625,1,8,0:0:0:0:
327,0,93807,1,8,0:0:0:0:
275,289,93989,6,0,B|200:317|200:317|39:305,1,220.999989883423,12|0,0:0|0:0,0:0:0:0:
114,41,94534,2,0,B|185:5|185:5|326:0,1,220.999989883423,12|0,0:0|0:0,0:0:0:0:
434,184,95079,2,0,L|419:294,1,110.499994941712,12|0,0:0|0:0,0:0:0:0:
183,217,95443,5,2,0:0:0:0:
434,184,95625,1,2,0:0:0:0:
233,50,95807,1,8,0:0:0:0:
419,293,95989,1,2,0:0:0:0:
113,271,96352,6,0,P|88:193|181:237,1,220.999989883423,2|0,0:0|0:0,0:0:0:0:
303,356,96898,6,0,B|340:265|267:264|309:142,1,187.000005706787,6|8,0:0|0:0,0:0:0:0:
390,213,97443,1,0,0:0:0:0:
224,311,97625,2,0,B|173:318|138:285,1,93.5000028533936,2|0,0:0|0:0,0:0:0:0:
286,91,97988,2,0,P|342:94|385:122,1,93.5000028533936,8|0,0:0|0:0,0:0:0:0:
392,365,98352,6,0,B|319:372|319:372|215:305,1,187.000005706787,2|8,0:0|0:0,0:0:0:0:
117,145,98897,2,0,B|190:152|190:152|294:85,1,187.000005706787
147,11,99443,2,0,L|56:72,1,93.5000028533936,8|0,0:0|0:0,0:0:0:0:
63,233,99807,6,0,P|129:249|176:231,1,93.5000028533936,2|0,0:0|0:0,0:0:0:0:
285,90,100170,2,0,P|219:74|172:92,1,93.5000028533936,8|0,0:0|0:0,0:0:0:0:
152,243,100534,1,2,0:0:0:0:
230,165,100715,1,0,0:0:0:0:
277,318,100897,1,8,0:0:0:0:
230,165,101079,1,6,0:0:0:0:
230,165,101438,5,8,0:0:0:0:
178,325,101620,1,8,0:0:0:0:
302,132,101801,1,8,0:0:0:0:
277,318,101983,1,8,0:0:0:0:
380,97,102165,1,8,0:0:0:0:
382,320,102347,1,8,0:0:0:0:
458,62,102528,1,8,0:0:0:0:
454,250,102710,6,0,P|406:224|372:214,1,63.7500024318696,2|0,0:0|0:0,0:0:0:0:
292,246,103074,2,0,P|262:233|235:216,1,63.7500024318696,2|0,0:0|0:0,0:0:0:0:
180,131,103437,2,0,P|192:101|209:74,1,63.7500024318696,2|0,0:0|0:0,0:0:0:0:
295,19,103801,2,0,P|324:31|351:48,1,63.7500024318696,2|0,0:0|0:0,0:0:0:0:
407,134,104164,6,0,P|394:163|377:190,1,63.7500024318696,2|0,0:0|0:0,0:0:0:0:
228,249,104528,2,0,P|259:245|291:245,1,63.7500024318696,2|0,0:0|0:0,0:0:0:0:
417,346,104892,2,0,P|397:320|382:292,1,63.7500024318696,2|0,0:0|0:0,0:0:0:0:
377,190,105255,1,2,0:0:0:0:
291,245,105437,1,0,0:0:0:0:
305,119,105619,6,0,P|353:92|381:90,1,63.7500024318696,2|0,0:0|0:0,0:0:0:0:
429,224,105983,2,0,P|381:195|365:172,1,63.7500024318696,2|0,0:0|0:0,0:0:0:0:
457,64,106346,2,0,P|456:119|444:144,1,63.7500024318696,2|0,0:0|0:0,0:0:0:0:
305,119,106709,1,2,0:0:0:0:
376,189,106891,1,0,0:0:0:0:
353,42,107074,6,0,P|310:28|268:37,1,63.7500024318696,2|0,0:0|0:0,0:0:0:0:
217,89,107437,2,0,P|185:88|156:76,1,63.7500024318696,2|0,0:0|0:0,0:0:0:0:
53,25,107801,2,0,P|52:56|40:85,1,63.7500024318696,2|0,0:0|0:0,0:0:0:0:
0,195,108164,2,0,P|0:226|12:255,1,63.7500024318696,2|0,0:0|0:0,0:0:0:0:
173,276,108528,6,0,P|123:216|65:206,2,127.500004863739,6|0|2,0:0|0:0|0:0,0:0:0:0:
76,365,109437,1,0,0:0:0:0:
76,365,109619,2,0,L|81:300,1,63.7500024318696,2|0,0:0|0:0,0:0:0:0:
163,148,109982,6,0,L|174:295,2,127.500004863739,2|2|2,0:0|0:0|0:0,0:0:0:0:
270,57,110891,1,0,0:0:0:0:
292,180,111073,1,2,0:0:0:0:
181,70,111255,1,0,0:0:0:0:
356,103,111437,6,0,B|408:146|411:245|316:279|316:279|306:328|306:328|249:358,1,318.750012159348,2|0,0:0|0:0,0:0:0:0:
238,245,112528,2,0,P|263:210|298:197,1,63.7500024318696,2|0,0:0|0:0,0:0:0:0:
356,103,112892,6,0,L|279:83,1,63.7500024318696,2|0,0:0|0:0,0:0:0:0:
152,163,113255,2,0,L|229:143,1,63.7500024318696,2|0,0:0|0:0,0:0:0:0:
342,216,113619,2,0,L|265:196,1,63.7500024318696,2|0,0:0|0:0,0:0:0:0:
138,276,113983,2,0,L|215:256,1,63.7500024318696,2|0,0:0|0:0,0:0:0:0:
314,315,114346,5,6,0:0:0:0:
199,259,114528,1,0,0:0:0:0:
261,384,114709,1,2,0:0:0:0:
342,216,114891,1,0,0:0:0:0:
196,340,115073,1,2,0:0:0:0:
252,178,115255,1,0,0:0:0:0:
314,315,115436,1,2,0:0:0:0:
199,259,115619,1,0,0:0:0:0:
329,124,115801,6,0,P|372:97|412:99,1,85,2|0,0:0|0:0,0:0:0:0:
252,178,116165,2,0,P|207:153|188:118,1,85,2|0,0:0|0:0,0:0:0:0:
337,217,116528,2,0,P|338:268|316:301,1,85,2|0,0:0|0:0,0:0:0:0:
252,178,116892,1,2,0:0:0:0:
199,259,117074,1,0,0:0:0:0:
91,14,117255,5,2,0:0:0:0:
128,155,117437,1,0,0:0:0:0:
247,97,117619,1,2,0:0:0:0:
199,259,117801,1,0,0:0:0:0:
168,56,117983,1,2,0:0:0:0:
329,180,118165,1,0,0:0:0:0:
128,155,118346,1,2,0:0:0:0:
372,61,118528,1,0,0:0:0:0:
244,193,118710,6,0,P|266:245|298:263,1,85,2|0,0:0|0:0,0:0:0:0:
417,128,119074,2,0,P|395:76|363:58,1,85,2|0,0:0|0:0,0:0:0:0:
259,31,119437,2,0,P|224:76|225:112,1,85,2|0,0:0|0:0,0:0:0:0:
288,259,119801,2,0,P|322:213|321:177,1,85,2|0,0:0|0:0,0:0:0:0:
199,302,120164,6,0,P|260:353|350:340,2,170,6|2|2,0:0|0:0|0:0,0:0:0:0:
187,129,121073,1,0,0:0:0:0:
187,129,121255,2,0,L|291:115,1,85,2|0,0:0|0:0,0:0:0:0:
439,140,121619,6,0,L|263:116,2,170,2|2|2,0:0|0:0|0:0,0:0:0:0:
510,301,122528,1,0,0:0:0:0:
510,301,122710,2,0,L|401:315,1,85,2|0,0:0|0:0,0:0:0:0:
217,273,123074,6,0,B|226:182|226:182|271:114,2,170,2|2|2,0:0|0:0|0:0,0:0:0:0:
347,339,123982,1,0,0:0:0:0:
347,339,124164,2,0,L|338:254,1,85,2|0,0:0|0:0,0:0:0:0:
269,116,124528,6,0,B|179:77|177:153|74:105,1,170,2|2,0:0|0:0,0:0:0:0:
136,33,125074,1,0,0:0:0:0:
220,193,125256,2,0,P|164:212|107:207,1,85,2|0,0:0|0:0,0:0:0:0:
48,284,125619,2,0,P|120:305|156:335,1,95.6250036478044,2|0,0:0|0:0,0:0:0:0:
149,331,125983,5,6,0:0:0:0:
149,331,126346,1,8,0:0:0:0:
220,193,126528,1,8,0:0:0:0:
231,364,126710,1,8,0:0:0:0:
123,174,126892,1,8,0:0:0:0:
67,354,127074,1,8,0:0:0:0:
220,193,127256,1,8,0:0:0:0:
149,331,127437,5,8,0:0:0:0:
11,241,127619,1,8,0:0:0:0:
220,193,127801,1,8,0:0:0:0:
67,354,127983,1,8,0:0:0:0:
185,104,128165,1,8,0:0:0:0:
149,331,128346,1,8,0:0:0:0:
110,75,128528,1,8,0:0:0:0:
231,308,128710,1,8,0:0:0:0:
23,68,128892,6,0,P|47:17|80:-4,1,85,6|0,0:0|0:0,0:0:0:0:
247,48,129256,2,0,P|279:94|280:133,1,85,2|0,0:0|0:0,0:0:0:0:
160,267,129619,2,0,P|183:216|217:195,1,85,8|0,0:0|0:0,0:0:0:0:
393,232,129983,2,0,P|336:236|302:218,1,85,2|0,0:0|0:0,0:0:0:0:
282,121,130346,5,2,0:0:0:0:
160,267,130528,1,8,0:0:0:0:
142,173,130710,2,0,P|196:178|232:204,1,85,2|0,0:0|0:0,0:0:0:0:
333,312,131074,2,0,P|279:307|243:281,1,85,8|0,0:0|0:0,0:0:0:0:
142,173,131437,2,0,P|196:178|232:204,1,85
181,346,131801,6,0,P|158:296|162:252,1,85,2|0,0:0|0:0,0:0:0:0:
199,114,132165,2,0,P|221:163|217:207,1,85,2|0,0:0|0:0,0:0:0:0:
62,194,132528,2,0,P|111:171|155:175,1,85,8|0,0:0|0:0,0:0:0:0:
316,280,132892,2,0,P|266:302|222:298,1,85,2|0,0:0|0:0,0:0:0:0:
220,297,133165,1,2,0:0:0:0:
203,291,133256,5,2,0:0:0:0:
190,95,133437,1,8,0:0:0:0:
288,138,133619,2,0,P|258:186|218:206,1,85,2|0,0:0|0:0,0:0:0:0:
219,207,133892,1,8,0:0:0:0:
202,209,133983,1,8,0:0:0:0:
64,122,134165,1,2,0:0:0:0:
190,95,134346,1,2,0:0:0:0:
111,213,134528,1,2,0:0:0:0:
203,0,134710,6,0,B|293:30|300:121|242:175|242:175|111:297|241:407|323:359|325:251|241:196|179:364|82:321,1,658.75,6|0,0:0|0:0,0:0:0:0:
83,320,137619,5,12,0:0:0:0:
83,320,137983,1,8,0:0:0:0:
210,185,138165,1,8,0:0:0:0:
209,349,138346,1,8,0:0:0:0:
97,148,138528,1,8,0:0:0:0:
288,290,138710,1,8,0:0:0:0:
183,74,138892,1,8,0:0:0:0:
157,267,139074,5,8,0:0:0:0:
348,132,139256,1,8,0:0:0:0:
97,148,139437,1,8,0:0:0:0:
374,250,139619,1,8,0:0:0:0:
183,74,139801,1,8,0:0:0:0:
325,346,139983,1,8,0:0:0:0:
291,21,140165,1,8,0:0:0:0:
157,267,140346,1,8,0:0:0:0:
418,360,140528,6,0,B|417:283|417:283|388:220|388:220|393:128,1,220.999989883423,6|8,0:0|0:0,0:0:0:0:
291,21,141074,1,0,0:0:0:0:
481,76,141256,1,2,0:0:0:0:
292,129,141437,1,0,0:0:0:0:
415,0,141619,2,0,P|400:65|364:99,1,110.499994941712,8|0,0:0|0:0,0:0:0:0:
75,101,141983,6,0,B|185:97|185:97|315:135,1,220.999989883423,2|8,0:0|0:0,0:0:0:0:
426,338,142528,2,0,B|316:342|316:342|186:304,1,220.999989883423
184,96,143074,2,0,L|291:128,1,110.499994941712,8|0,0:0|0:0,0:0:0:0:
210,311,143437,6,0,B|209:234|209:234|180:171|180:171|184:96,1,220.999989883423,2|8,0:0|0:0,0:0:0:0:
340,37,143983,1,0,0:0:0:0:
167,5,144165,1,2,0:0:0:0:
341,170,144346,1,0,0:0:0:0:
254,0,144528,2,0,P|253:69|280:111,1,110.499994941712,8|0,0:0|0:0,0:0:0:0:
471,212,144892,6,0,B|341:170|341:170|239:188,1,220.999989883423,2|8,0:0|0:0,0:0:0:0:
104,315,145437,2,0,B|200:350|200:350|311:336,1,165.749992412568
284,337,145801,5,12,0:0:0:0:
257,184,145983,1,12,0:0:0:0:
167,353,146165,1,0,0:0:0:0:
342,239,146346,6,0,B|341:162|341:162|312:99|312:99|316:24,1,220.999989883423,2|8,0:0|0:0,0:0:0:0:
257,184,146892,1,0,0:0:0:0:
400,80,147074,1,2,0:0:0:0:
225,53,147256,1,0,0:0:0:0:
342,239,147437,2,0,P|352:157|316:104,1,110.499994941712,8|0,0:0|0:0,0:0:0:0:
144,166,147801,5,2,0:0:0:0:
257,184,147983,1,0,0:0:0:0:
72,100,148165,1,8,0:0:0:0:
225,53,148347,1,8,0:0:0:0:
225,53,148437,1,8,0:0:0:0:
225,53,148528,6,0,L|330:17,1,110.499994941712,8|0,0:0|0:0,0:0:0:0:
343,317,148892,2,0,L|238:281,1,110.499994941712,8|0,0:0|0:0,0:0:0:0:
0,120,149256,6,0,B|74:100|74:100|254:162,1,220.999989883423,12|8,0:0|0:0,0:0:0:0:
343,317,149801,1,2,0:0:0:0:
343,317,149892,1,2,0:0:0:0:
343,317,149983,2,0,B|269:337|269:337|89:275,1,220.999989883423,2|8,0:0|0:0,0:0:0:0:
210,147,150528,1,0,0:0:0:0:
210,147,150619,1,0,0:0:0:0:
210,147,150710,5,8,0:0:0:0:
269,337,150892,1,0,0:0:0:0:
310,134,151074,5,8,0:0:0:0:
266,350,151256,1,0,0:0:0:0:
407,146,151437,5,4,0:0:0:0:
396,92,151527,1,8,0:0:0:0:
359,52,151618,1,8,0:0:0:0:
306,38,151709,1,8,0:0:0:0:
254,54,151801,1,8,0:0:0:0:
244,78,151891,1,2,0:0:0:0:
227,98,151982,1,2,0:0:0:0:
205,113,152073,1,2,0:0:0:0:
179,120,152165,6,0,B|112:153|112:153|72:210|72:210|6:249,1,220.999989883423,6|8,0:0|0:0,0:0:0:0:
166,222,152710,1,0,0:0:0:0:
7,142,152892,1,2,0:0:0:0:
73,315,153074,1,0,0:0:0:0:
179,120,153256,2,0,P|115:134|70:187,1,110.499994941712,8|0,0:0|0:0,0:0:0:0:
187,331,153619,6,0,B|214:222|214:222|176:112,1,220.999989883423,2|8,0:0|0:0,0:0:0:0:
309,0,154165,2,0,B|282:109|282:109|320:219,1,220.999989883423
488,272,154710,2,0,L|451:163,1,110.499994941712,8|0,0:0|0:0,0:0:0:0:
279,327,155074,6,0,B|353:320|353:320|411:283|411:283|487:271,1,220.999989883423,2|8,0:0|0:0,0:0:0:0:
321,232,155619,1,0,0:0:0:0:
450,368,155801,1,2,0:0:0:0:
450,183,155983,1,0,0:0:0:0:
279,327,156165,2,0,P|362:330|411:285,1,110.499994941712,8|0,0:0|0:0,0:0:0:0:
380,24,156528,6,0,B|329:119|329:119|320:238,1,220.999989883423,2|8,0:0|0:0,0:0:0:0:
114,351,157074,2,0,B|164:255|164:255|172:172,1,165.749992412568
171,175,157437,5,12,0:0:0:0:
15,196,157619,1,12,0:0:0:0:
175,299,157801,1,0,0:0:0:0:
92,98,157983,5,8,0:0:0:0:
248,264,158165,2,0,P|216:291|174:298,2,85,2|0|2,0:0|0:0|0:0,0:0:0:0:
330,207,158710,2,0,P|256:168|180:198,1,170,8|0,0:0|0:0,0:0:0:0:
174,298,159256,1,0,0:0:0:0:
79,203,159437,5,8,0:0:0:0:
248,264,159619,2,0,P|251:325|221:366,1,85,2|0,0:0|0:0,0:0:0:0:
116,368,159983,1,2,0:0:0:0:
253,180,160165,2,0,P|308:204|331:249,1,85,8|0,0:0|0:0,0:0:0:0:
240,345,160528,1,0,0:0:0:0:
156,164,160710,1,0,0:0:0:0:
319,223,160892,5,8,0:0:0:0:
148,254,161074,2,0,P|100:236|73:196,1,85,2|0,0:0|0:0,0:0:0:0:
130,81,161437,1,2,0:0:0:0:
222,226,161619,2,0,P|223:277|196:317,1,85,8|0,0:0|0:0,0:0:0:0:
45,351,161983,1,0,0:0:0:0:
148,254,162165,1,0,0:0:0:0:
138,370,162346,5,8,0:0:0:0:
52,243,162528,1,2,0:0:0:0:
225,291,162710,1,0,0:0:0:0:
52,243,162892,1,2,0:0:0:0:
272,190,163074,1,8,0:0:0:0:
52,243,163256,1,0,0:0:0:0:
232,84,163437,5,8,0:0:0:0:
242,110,163527,1,8,0:0:0:0:
252,137,163618,1,8,0:0:0:0:
262,163,163709,1,8,0:0:0:0:
272,190,163800,5,2,0:0:0:0:
157,176,163983,1,2,0:0:0:0:
242,110,164165,1,2,0:0:0:0:
206,258,164346,1,2,0:0:0:0:
150,78,164528,1,2,0:0:0:0:
272,190,164710,1,2,0:0:0:0:
115,258,164892,1,2,0:0:0:0:
220,20,165074,1,2,0:0:0:0:
300,286,165256,5,8,0:0:0:0:
58,182,165437,1,8,0:0:0:0:
297,77,165619,1,8,0:0:0:0:
233,352,165801,1,8,0:0:0:0:
128,69,165983,1,8,0:0:0:0:
423,134,166165,1,8,0:0:0:0:
115,258,166346,1,8,0:0:0:0:
404,6,166528,1,8,0:0:0:0:
484,381,166710,5,14,0:0:0:0:
262,233,166892,1,0,0:0:0:0:
308,333,167074,1,0,0:0:0:0:
423,134,167256,5,14,0:0:0:0:
161,186,167438,1,0,0:0:0:0:
262,233,167620,1,0,0:0:0:0:
205,2,167801,5,14,0:0:0:0:
56,224,167983,1,0,0:0:0:0:
75,18,168165,5,14,0:0:0:0:
262,233,168346,1,2,0:0:0:0:
56,224,168528,1,2,0:0:0:0:
295,28,168710,1,10,0:0:0:0:
254,313,169074,6,0,P|178:275|275:253,1,220.999989883423,8|0,0:0|0:0,0:0:0:0:
414,322,169619,5,12,0:0:0:0:
411,154,169801,1,2,0:0:0:0:
261,232,169983,1,2,0:0:0:0:
398,270,170165,5,12,0:0:0:0:
360,140,170347,1,2,0:0:0:0:
261,232,170529,1,2,0:0:0:0:
374,233,170710,5,12,0:0:0:0:
318,140,170892,1,2,0:0:0:0:
261,232,171074,1,2,0:0:0:0:
347,209,171256,5,12,0:0:0:0:
285,149,171437,1,2,0:0:0:0:
261,232,171619,1,2,0:0:0:0:
411,148,171801,6,0,L|366:38,1,85,2|0,0:0|0:0,0:0:0:0:
204,6,172165,2,0,L|159:116,1,85,2|0,0:0|0:0,0:0:0:0:
131,275,172528,5,12,0:0:0:0:
217,273,172710,1,2,0:0:0:0:
175,197,172892,1,2,0:0:0:0:
146,304,173074,5,12,0:0:0:0:
244,277,173256,1,2,0:0:0:0:
175,197,173438,1,2,0:0:0:0:
175,331,173619,5,12,0:0:0:0:
277,267,173801,1,2,0:0:0:0:
175,197,173983,1,2,0:0:0:0:
217,354,174165,5,12,0:0:0:0:
317,248,174347,1,2,0:0:0:0:
175,197,174529,1,2,0:0:0:0:
272,362,174710,6,0,P|299:354|327:346,1,42.5,2|0,0:0|0:0,0:0:0:0:
404,300,174892,1,8,0:0:0:0:
414,276,174982,1,8,0:0:0:0:
418,250,175073,1,8,0:0:0:0:
415,224,175164,1,8,0:0:0:0:
406,200,175255,1,8,0:0:0:0:
391,179,175346,1,8,0:0:0:0:
372,162,175437,5,6,0:0:0:0:
206,102,175801,1,0,0:0:0:0:
212,117,176165,1,0,0:0:0:0:
218,132,176528,1,0,0:0:0:0:
224,147,176892,1,0,0:0:0:0:
230,162,177255,1,0,0:0:0:0:
236,177,177619,1,0,0:0:0:0:
242,192,177983,1,0,0:0:0:0:
98,249,178165,5,8,0:0:0:0:
260,294,178346,1,8,0:0:0:0:
117,153,178528,1,8,0:0:0:0:
68,348,178710,5,0,0:0:0:0:
84,344,179074,1,0,0:0:0:0:
100,340,179437,1,0,0:0:0:0:
116,336,179802,1,0,0:0:0:0:
132,332,180165,1,0,0:0:0:0:
148,327,180528,2,0,L|243:293,1,85
208,182,180892,2,0,L|288:210,1,85
385,83,181256,6,0,P|428:129|421:261,1,170,6|0,0:0|0:0,0:0:0:0:
324,288,181801,1,0,0:0:0:0:
324,288,181983,2,0,L|296:111,1,170,8|0,0:0|0:0,0:0:0:0:
258,379,182710,5,2,0:0:0:0:
351,367,182892,2,0,P|395:332|402:282,1,85,8|0,0:0|0:0,0:0:0:0:
334,126,183256,1,2,0:0:0:0:
297,212,183438,2,0,P|305:267|345:298,1,85,8|0,0:0|0:0,0:0:0:0:
409,99,183801,2,0,P|353:107|322:147,1,85
435,336,184165,6,0,B|440:236|378:266|399:154,1,170,6|0,0:0|0:0,0:0:0:0:
487,196,184710,1,0,0:0:0:0:
348,312,184892,2,0,P|312:239|309:150,1,170,8|0,0:0|0:0,0:0:0:0:
388,29,185437,1,0,0:0:0:0:
487,114,185619,5,2,0:0:0:0:
295,56,185801,2,0,P|233:64|190:85,1,85,8|0,0:0|0:0,0:0:0:0:
116,209,186165,1,2,0:0:0:0:
308,151,186347,2,0,P|370:159|413:180,1,85,8|0,0:0|0:0,0:0:0:0:
422,334,186710,2,0,P|360:326|317:305,1,85,2|8,0:0|0:0,0:0:0:0:
320,306,186983,1,8,0:0:0:0:
303,292,187074,6,0,B|220:269|220:269|123:277,1,170,6|0,0:0|0:0,0:0:0:0:
51,85,187619,1,0,0:0:0:0:
51,85,187801,2,0,B|134:108|134:108|231:100,1,170,12|0,0:0|0:0,0:0:0:0:
409,74,188346,1,0,0:0:0:0:
409,74,188437,1,0,0:0:0:0:
409,74,188528,6,0,B|393:161|393:161|418:263,1,170,6|0,0:0|0:0,0:0:0:0:
236,328,189074,1,0,0:0:0:0:
236,328,189256,2,0,L|252:241,1,85,12|0,0:0|0:0,0:0:0:0:
133,144,189619,2,0,L|149:231,1,85
218,58,189983,6,0,B|131:42|131:42|29:67,1,170,6|0,0:0|0:0,0:0:0:0:
148,227,190528,1,0,0:0:0:0:
148,227,190710,2,0,B|235:211|235:211|337:236,1,170,12|0,0:0|0:0,0:0:0:0:
268,338,191256,1,0,0:0:0:0:
148,227,191437,2,0,P|136:167|148:134,1,85,6|0,0:0|0:0,0:0:0:0:
261,111,191801,1,0,0:0:0:0:
224,270,191983,2,0,P|178:310|143:316,1,85,0|4,0:0|0:0,0:0:0:0:
67,230,192347,1,0,0:0:0:0:
224,183,192528,1,8,0:0:0:0:
192,368,192710,1,0,0:0:0:0:
121,113,192892,5,2,0:0:0:0:
224,183,193074,1,2,0:0:0:0:
67,230,193256,1,2,0:0:0:0:
126,100,193437,1,2,0:0:0:0:
170,300,193619,1,2,0:0:0:0:
67,230,193801,1,2,0:0:0:0:
224,183,193983,1,2,0:0:0:0:
165,313,194164,1,2,0:0:0:0:
126,100,194346,5,2,0:0:0:0:
224,183,194528,1,2,0:0:0:0:
261,4,194710,1,2,0:0:0:0:
110,106,194892,1,2,0:0:0:0:
299,200,195074,1,2,0:0:0:0:
238,85,195256,1,2,0:0:0:0:
137,237,195438,1,2,0:0:0:0:
315,200,195620,1,2,0:0:0:0:
110,106,195801,5,2,0:0:0:0:
208,314,195983,1,2,0:0:0:0:
238,85,196165,1,2,0:0:0:0:
137,237,196346,1,2,0:0:0:0:
346,96,196528,1,2,0:0:0:0:
110,106,196710,1,2,0:0:0:0:
347,264,196892,1,2,0:0:0:0:
238,85,197074,1,2,0:0:0:0:
208,314,197256,5,2,0:0:0:0:
346,96,197437,1,2,0:0:0:0:
403,384,197619,1,2,0:0:0:0:
270,209,197801,1,2,0:0:0:0:
508,288,197983,1,2,0:0:0:0:
208,314,198165,1,2,0:0:0:0:
346,96,198346,1,2,0:0:0:0:
317,365,198528,1,2,0:0:0:0:
135,78,198710,5,8,0:0:0:0:
430,157,198892,1,8,0:0:0:0:
138,215,199074,1,8,0:0:0:0:
346,96,199256,1,8,0:0:0:0:
42,146,199437,1,8,0:0:0:0:
395,303,199619,1,8,0:0:0:0:
135,78,199801,1,8,0:0:0:0:
274,351,199983,1,8,0:0:0:0:
208,0,200165,5,8,0:0:0:0:
274,351,200346,1,8,0:0:0:0:
299,0,200528,1,8,0:0:0:0:
184,340,200710,1,8,0:0:0:0:
446,117,200892,5,8,0:0:0:0:
95,183,201073,1,8,0:0:0:0:
446,208,201255,1,8,0:0:0:0:
106,93,201437,1,8,0:0:0:0:
327,160,201619,6,2,L|374:167,1,42.5
368,286,201801,2,2,L|321:293,1,42.5
205,93,201983,2,2,L|252:100,1,42.5
246,219,202165,2,2,L|199:226,1,42.5
106,93,202361,6,0,L|115:178,1,85,6|0,0:0|0:0,0:0:0:0:
269,335,202724,2,0,L|277:250,1,85,8|0,0:0|0:0,0:0:0:0:
449,128,203088,2,0,L|439:213,1,85,2|0,0:0|0:0,0:0:0:0:
269,335,203451,2,0,L|259:250,1,85,8|0,0:0|0:0,0:0:0:0:
305,65,203815,6,0,P|389:69|448:127,1,170,2|8,0:0|0:0,0:0:0:0:
265,146,204361,2,0,B|217:118|217:69|217:69|176:81|136:56,1,170
183,186,204906,2,0,P|241:227|281:235,1,85,8|0,0:0|0:0,0:0:0:0:
398,194,205270,6,0,P|290:190|247:244,1,170,2|8,0:0|0:0,0:0:0:0:
481,251,205815,2,0,P|483:141|430:99,1,170
341,273,206361,2,0,P|353:320|382:352,1,85,8|0,0:0|0:0,0:0:0:0:
398,194,206724,6,0,B|345:159|290:191|290:191|256:164|202:172,2,170,2|8|2,0:0|0:0|0:0,0:0:0:0:
375,347,207633,1,0,0:0:0:0:
375,347,207815,2,0,P|350:314|341:273,1,85,8|0,0:0|0:0,0:0:0:0:
365,126,208179,6,0,P|382:226|329:277,2,170,6|8|2,0:0|0:0|0:0,0:0:0:0:
218,168,209088,1,0,0:0:0:0:
218,168,209270,2,0,P|288:190|318:188,1,85,8|0,0:0|0:0,0:0:0:0:
285,61,209633,2,0,P|215:39|185:41,1,85,2|0,0:0|0:0,0:0:0:0:
182,41,209906,1,0,0:0:0:0:
161,44,209997,1,8,0:0:0:0:
41,121,210179,1,0,0:0:0:0:
177,229,210361,6,0,P|178:169|232:118,1,127.5,2|0,0:0|0:0,0:0:0:0:
255,199,210724,2,0,P|267:257|315:294,1,85,8|0,0:0|0:0,0:0:0:0:
398,217,211088,6,0,L|406:166,3,42.5,2|0|0|0,0:0|0:0|0:0|0:0,0:0:0:0:
401,85,211451,1,8,0:0:0:0:
377,49,211541,1,0,0:0:0:0:
342,26,211632,1,0,0:0:0:0:
301,18,211723,1,0,0:0:0:0:
260,28,211814,1,2,0:0:0:0:
226,53,211905,1,0,0:0:0:0:
204,89,211996,1,0,0:0:0:0:
182,125,212088,1,0,0:0:0:0:
148,150,212179,1,8,0:0:0:0:
107,159,212270,1,0,0:0:0:0:
65,152,212361,1,8,0:0:0:0:
30,128,212452,1,8,0:0:0:0:
7,93,212543,5,8,0:0:0:0:
303,121,212724,1,8,0:0:0:0:
303,121,213088,1,8,0:0:0:0:
303,121,213179,1,8,0:0:0:0:
303,121,213270,5,8,0:0:0:0:
252,374,213451,1,8,0:0:0:0:
181,318,213997,6,0,P|234:284|288:291,1,85,2|0,0:0|0:0,0:0:0:0:
384,332,214361,1,8,0:0:0:0:
325,227,214542,2,0,P|272:193|218:200,1,85,0|2,0:0|0:0,0:0:0:0:
122,241,214906,1,0,0:0:0:0:
181,136,215088,2,0,P|234:102|288:109,1,85,8|0,0:0|0:0,0:0:0:0:
384,150,215451,1,2,0:0:0:0:
325,45,215633,2,0,P|272:11|218:18,1,85,0|8,0:0|0:0,0:0:0:0:
122,59,215997,1,0,0:0:0:0:
251,191,216179,5,2,0:0:0:0:
254,100,216361,1,0,0:0:0:0:
133,224,216542,1,8,0:0:0:0:
251,191,216724,2,0,L|288:180,1,21.25
411,241,216906,5,2,0:0:0:0:
328,259,217088,1,0,0:0:0:0:
375,126,217270,1,8,0:0:0:0:
411,241,217451,2,0,P|403:297|365:338,1,85,0|2,0:0|0:0,0:0:0:0:
292,374,217815,1,0,0:0:0:0:
328,259,217997,2,0,P|320:203|282:162,1,85,8|0,0:0|0:0,0:0:0:0:
209,126,218361,1,2,0:0:0:0:
245,241,218542,2,0,P|237:297|199:338,1,85,0|8,0:0|0:0,0:0:0:0:
126,374,218907,1,0,0:0:0:0:
162,259,219088,2,0,P|154:203|116:162,1,85,2|0,0:0|0:0,0:0:0:0:
9,77,219451,2,0,P|17:133|55:174,1,85,8|0,0:0|0:0,0:0:0:0:
227,139,219815,5,12,0:0:0:0:
93,94,219997,1,2,0:0:0:0:
93,94,220179,1,2,0:0:0:0:
289,91,220361,5,12,0:0:0:0:
149,160,220543,1,2,0:0:0:0:
149,160,220725,1,2,0:0:0:0:
199,50,220906,5,12,0:0:0:0:
274,204,221088,1,2,0:0:0:0:
93,94,221270,5,12,0:0:0:0:
289,91,221451,1,2,0:0:0:0:
289,91,221633,1,2,0:0:0:0:
68,173,221815,5,12,0:0:0:0:
199,50,221996,1,2,0:0:0:0:
199,50,222178,1,2,0:0:0:0:
127,249,222361,5,12,0:0:0:0:
115,10,222542,1,2,0:0:0:0:
220,249,222724,6,0,P|204:313|172:342,2,85,6|0|8,0:0|0:0|0:0,0:0:0:0:
171,127,223270,2,0,P|187:63|219:34,2,85,0|2|0,0:0|0:0|0:0,0:0:0:0:
220,249,223815,2,0,P|255:271|297:276,1,85,8|0,0:0|0:0,0:0:0:0:
386,148,224179,5,2,0:0:0:0:
275,76,224361,2,0,P|239:53|197:48,1,85,0|8,0:0|0:0,0:0:0:0:
109,177,224724,1,0,0:0:0:0:
220,249,224906,2,0,P|255:271|297:276,1,85,2|0,0:0|0:0,0:0:0:0:
364,213,225270,2,0,P|326:232|295:281,1,95.6250036478044,8|0,0:0|0:0,0:0:0:0:
297,308,225633,5,8,0:0:0:0:
246,174,225815,1,8,0:0:0:0:
155,289,225997,1,8,0:0:0:0:
162,100,226179,1,8,0:0:0:0:
231,256,226361,1,8,0:0:0:0:
262,65,226542,1,8,0:0:0:0:
161,209,226724,1,8,0:0:0:0:
184,6,226906,1,8,0:0:0:0:
309,229,227088,5,8,0:0:0:0:
162,100,227270,1,8,0:0:0:0:
346,63,227451,1,8,0:0:0:0:
161,209,227633,1,8,0:0:0:0:
401,160,227815,1,8,0:0:0:0:
184,6,227997,1,8,0:0:0:0:
309,229,228179,1,8,0:0:0:0:
68,146,228361,1,8,0:0:0:0:
250,80,228542,5,0,0:0:0:0:
127,97,240179,6,0,P|183:88|206:93,1,63.7500024318696,2|0,0:0|0:0,0:0:0:0:
169,182,240542,2,0,P|214:215|227:235,1,63.7500024318696,2|0,0:0|0:0,0:0:0:0:
94,384,240906,2,0,P|99:327|139:269,1,127.500004863739,8|0,0:0|0:0,0:0:0:0:
218,220,241451,2,8,L|264:210,2,31.8750012159348,8|8|2,0:0|0:0|0:0,0:0:0:0:
88,207,241815,5,8,0:0:0:0:
206,307,241997,2,0,P|261:297|289:270,1,95.6250036478044,2|0,0:0|0:0,0:0:0:0:
297,253,242361,2,0,P|332:222|373:217,1,63.7500024318696,8|0,0:0|0:0,0:0:0:0:
367,217,242633,1,0,0:0:0:0:
386,219,242724,1,2,0:0:0:0:
488,267,242906,1,8,0:0:0:0:
488,267,242997,1,8,0:0:0:0:
488,267,243088,5,8,0:0:0:0:
464,123,243270,1,8,0:0:0:0:
386,219,243451,2,0,P|375:270|381:309,1,63.7500024318696,2|0,0:0|0:0,0:0:0:0:
286,315,243815,2,0,P|297:264|291:225,1,63.7500024318696,8|0,0:0|0:0,0:0:0:0:
204,173,244179,2,0,P|193:224|199:263,1,63.7500024318696,2|8,0:0|0:0,0:0:0:0:
198,253,244451,1,8,0:0:0:0:
208,269,244542,5,2,0:0:0:0:
308,175,244724,1,8,0:0:0:0:
226,87,244906,2,0,P|184:85|151:100,1,63.7500024318696,2|0,0:0|0:0,0:0:0:0:
147,101,245179,1,8,0:0:0:0:
134,114,245270,1,8,0:0:0:0:
115,207,245451,1,2,0:0:0:0:
204,173,245633,1,2,0:0:0:0:
134,114,245815,1,2,0:0:0:0:
186,269,245997,6,0,P|240:267|265:252,1,63.7500024318696
325,154,246361,2,0,P|232:157|190:183,1,127.500004863739
415,178,247088,2,0,P|413:124|398:99,1,63.7500024318696
325,154,247451,6,0,P|285:117|257:110,1,63.7500024318696
127,215,247815,2,0,P|220:212|262:186,1,127.500004863739
180,84,248542,2,0,P|122:83|93:98,1,63.7500024318696
256,192,248906,12,0,250724,0:0:0:0:
150,119,251088,5,8,0:0:0:0:
358,138,251270,1,8,0:0:0:0:
358,138,251815,6,0,P|382:204|327:283,1,170,6|8,0:0|0:0,0:0:0:0:
272,109,252361,1,0,0:0:0:0:
272,109,252542,2,0,P|309:60|342:47,1,85,2|0,0:0|0:0,0:0:0:0:
380,216,252906,2,0,P|378:173|357:137,1,85,8|0,0:0|0:0,0:0:0:0:
131,190,253270,6,0,B|227:160|212:232|315:195,1,170,2|8,0:0|0:0,0:0:0:0:
171,271,253815,2,0,P|76:262|42:193,1,170
85,81,254361,2,0,P|116:108|131:148,1,85,8|0,0:0|0:0,0:0:0:0:
133,169,254633,1,0,0:0:0:0:
131,190,254724,6,0,B|227:160|212:232|315:195,1,170,6|8,0:0|0:0,0:0:0:0:
262,121,255270,1,0,0:0:0:0:
171,271,255451,2,0,P|221:292|278:295,1,85,2|0,0:0|0:0,0:0:0:0:
376,176,255815,2,0,P|326:197|269:200,1,85,8|0,0:0|0:0,0:0:0:0:
159,106,256179,6,0,B|129:201|201:186|164:290,1,170,2|8,0:0|0:0,0:0:0:0:
49,371,256724,2,0,P|44:266|118:238,1,170
132,345,257270,1,8,0:0:0:0:
243,237,257451,1,8,0:0:0:0:
243,237,257542,1,8,0:0:0:0:
243,237,257633,6,8,L|285:216,3,42.5
256,133,257997,2,8,L|301:143,3,42.5
338,68,258361,2,8,L|362:108,3,42.5
441,80,258724,2,8,L|430:125,3,42.5
505,161,259088,5,8,0:0:0:0:
510,202,259178,1,8,0:0:0:0:
498,243,259269,1,8,0:0:0:0:
470,274,259360,1,8,0:0:0:0:
432,291,259451,1,8,0:0:0:0:
389,291,259542,1,8,0:0:0:0:
351,273,259633,1,8,0:0:0:0:
324,241,259724,1,8,0:0:0:0:
313,200,259815,1,8,0:0:0:0:
301,159,259905,1,8,0:0:0:0:
274,127,259996,1,8,0:0:0:0:
236,109,260087,1,8,0:0:0:0:
194,108,260178,1,8,0:0:0:0:
155,125,260269,1,8,0:0:0:0:
127,157,260360,1,8,0:0:0:0:
115,197,260451,1,8,0:0:0:0:
121,239,260542,6,0,L|143:331,1,85,6|0,0:0|0:0,0:0:0:0:
146,343,260815,1,8,0:0:0:0:
152,363,260906,1,8,0:0:0:0:
294,365,261088,2,0,L|315:273,1,85,4|0,0:0|0:0,0:0:0:0:
318,261,261361,1,8,0:0:0:0:
324,241,261452,1,8,0:0:0:0:
194,108,261633,2,0,L|215:199,1,85,6|0,0:0|0:0,0:0:0:0:
218,212,261906,1,8,0:0:0:0:
224,232,261997,5,8,0:0:0:0:
58,265,262179,2,0,L|79:173,1,85,6|0,0:0|0:0,0:0:0:0:
82,161,262452,1,8,0:0:0:0:
88,141,262543,1,8,0:0:0:0:
94,120,262633,1,8,0:0:0:0:
101,100,262724,2,8,L|117:47,3,42.5
211,61,263088,1,2,0:0:0:0:
219,87,263179,1,2,0:0:0:0:
227,116,263269,1,2,0:0:0:0:
235,143,263361,1,2,0:0:0:0:
241,170,263451,5,2,0:0:0:0:
424,91,263815,1,0,0:0:0:0:
419,108,264542,1,0,0:0:0:0:
414,125,265270,1,0,0:0:0:0:
409,142,265997,1,0,0:0:0:0:
283,58,266361,5,0,0:0:0:0:
262,238,266724,1,0,0:0:0:0:
268,252,267451,1,0,0:0:0:0:
274,266,268179,1,0,0:0:0:0:
280,280,268906,1,0,0:0:0:0:
453,158,269270,5,0,0:0:0:0:
400,316,269633,1,0,0:0:0:0:
388,319,270361,1,0,0:0:0:0:
376,322,271088,1,0,0:0:0:0:
288,274,271451,2,0,P|330:234|381:225,1,85
437,181,271815,2,0,P|395:141|344:132,1,85
281,85,272179,6,0,P|323:45|438:60,1,170,4|0,0:0|0:0,0:0:0:0:
437,181,272724,1,0,0:0:0:0:
437,181,272906,2,0,P|395:221|280:206,1,170
284,90,273450,1,0,0:0:0:0:
284,90,273633,6,0,P|203:73|136:122,1,170,4|0,0:0|0:0,0:0:0:0:
155,236,274179,1,0,0:0:0:0:
155,236,274362,6,0,P|223:190|233:161,1,85
206,45,274724,2,0,P|234:14|274:0,1,85
448,113,275088,6,0,B|361:120|361:120|269:84,1,170,2|8,0:0|0:0,0:0:0:0:
206,45,275633,1,8,0:0:0:0:
206,45,275815,2,0,L|193:134,1,85,2|0,0:0|0:0,0:0:0:0:
296,173,276179,2,0,L|283:84,1,85,2|0,0:0|0:0,0:0:0:0:
208,238,276542,6,0,B|285:268|285:268|372:261,1,170,2|0,0:0|0:0,0:0:0:0:
454,125,277088,2,0,B|382:166|382:166|295:173,1,170
241,96,277633,2,0,L|325:89,1,85,8|0,0:0|0:0,0:0:0:0:
206,190,277997,6,0,B|110:143|190:104|63:57,1,170,4|8,0:0|0:0,0:0:0:0:
62,156,278542,1,8,0:0:0:0:
62,156,278724,2,0,P|84:212|123:247,1,85,2|0,0:0|0:0,0:0:0:0:
244,264,279088,2,0,P|222:208|183:173,1,85,2|0,0:0|0:0,0:0:0:0:
174,348,279451,6,0,B|266:347|266:347|344:305,1,170
404,226,279997,2,0,B|312:227|312:227|234:269,1,170,8|0,0:0|0:0,0:0:0:0:
174,348,280542,2,0,P|144:315|136:265,1,85,8|0,0:0|0:0,0:0:0:0:
138,255,280815,1,8,0:0:0:0:
141,234,280906,6,0,B|233:182|229:254|326:199,1,170,6|8,0:0|0:0,0:0:0:0:
322,76,281451,1,10,0:0:0:0:
322,76,281633,2,0,P|265:114|252:146,1,85,2|0,0:0|0:0,0:0:0:0:
315,288,281997,2,0,P|310:219|289:192,1,85,2|0,0:0|0:0,0:0:0:0:
177,313,282361,6,0,P|253:341|315:289,1,170,0|8,0:0|0:0,0:0:0:0:
225,181,282906,2,0,P|162:233|177:312,1,170,2|0,0:0|0:0,0:0:0:0:
311,204,283451,2,0,P|308:147|285:115,1,85,2|0,0:0|0:0,0:0:0:0:
134,73,283815,6,0,P|147:152|224:180,1,170,6|8,0:0|0:0,0:0:0:0:
294,124,284361,1,8,0:0:0:0:
294,124,284542,2,0,P|357:136|390:176,1,85
470,260,284906,2,0,P|407:248|374:208,1,85,2|0,0:0|0:0,0:0:0:0:
445,15,285270,6,0,B|410:104|476:90|454:181,1,170
286,263,285815,2,0,P|297:182|371:147,1,170,8|0,0:0|0:0,0:0:0:0:
465,288,286361,2,0,P|410:281|378:254,1,85,2|8,0:0|0:0,0:0:0:0:
376,250,286633,1,8,0:0:0:0:
366,235,286724,5,6,0:0:0:0:
371,147,286906,1,2,0:0:0:0:
287,279,287088,1,2,0:0:0:0:
282,191,287270,1,2,0:0:0:0:
198,235,287451,5,2,0:0:0:0:
203,147,287633,1,2,0:0:0:0:
119,279,287815,1,2,0:0:0:0:
114,191,287997,1,2,0:0:0:0:
198,235,288179,5,2,0:0:0:0:
114,191,288361,1,2,0:0:0:0:
203,147,288542,1,2,0:0:0:0:
119,279,288724,1,2,0:0:0:0:
119,91,288906,1,2,0:0:0:0:
198,235,289088,1,2,0:0:0:0:
29,134,289270,1,2,0:0:0:0:
206,52,289451,1,2,0:0:0:0:
119,279,289633,5,2,0:0:0:0:
114,191,289815,1,2,0:0:0:0:
198,235,289997,1,2,0:0:0:0:
203,147,290179,1,2,0:0:0:0:
287,279,290360,5,2,0:0:0:0:
282,191,290542,1,2,0:0:0:0:
366,235,290724,1,2,0:0:0:0:
371,147,290906,1,2,0:0:0:0:
441,195,291088,5,2,0:0:0:0:
282,191,291270,1,2,0:0:0:0:
446,111,291451,1,2,0:0:0:0:
287,278,291633,1,2,0:0:0:0:
380,60,291815,1,2,0:0:0:0:
361,328,291997,1,2,0:0:0:0:
282,38,292179,1,2,0:0:0:0:
447,295,292361,1,2,0:0:0:0:
314,133,292542,5,6,0:0:0:0:
361,328,292724,1,2,0:0:0:0:
211,180,292906,1,2,0:0:0:0:
164,375,293088,1,2,0:0:0:0:
14,133,293270,1,2,0:0:0:0:
61,328,293452,1,2,0:0:0:0:
211,180,293633,1,2,0:0:0:0:
164,375,293815,1,2,0:0:0:0:
123,88,293997,5,2,0:0:0:0:
146,273,294179,1,2,0:0:0:0:
282,38,294361,1,2,0:0:0:0:
68,203,294542,1,2,0:0:0:0:
410,117,294724,1,2,0:0:0:0:
123,88,294906,1,2,0:0:0:0:
452,282,295088,1,2,0:0:0:0:
282,38,295270,1,2,0:0:0:0:
319,332,295451,6,8,L|307:400,2,42.5
260,163,295815,1,0,0:0:0:0:
183,325,295997,2,8,L|126:364,2,42.5
260,163,296361,1,0,0:0:0:0:
91,223,296542,2,8,L|23:211,2,42.5
260,163,296906,1,0,0:0:0:0:
98,85,297088,2,8,L|58:28,2,42.5
260,163,297452,1,0,0:0:0:0:
246,64,297633,5,4,0:0:0:0:
215,72,297723,1,8,0:0:0:0:
189,89,297814,1,8,0:0:0:0:
170,114,297905,1,8,0:0:0:0:
159,143,297996,1,8,0:0:0:0:
159,175,298087,1,2,0:0:0:0:
168,205,298178,1,2,0:0:0:0:
186,230,298269,1,2,0:0:0:0:
211,249,298361,6,0,B|288:248|288:248|351:219|351:219|443:224,1,220.999989883423,6|8,0:0|0:0,0:0:0:0:
259,162,298906,1,0,0:0:0:0:
368,304,299088,1,2,0:0:0:0:
400,140,299270,1,0,0:0:0:0:
211,249,299451,2,0,P|290:259|336:231,1,110.499994941712,8|0,0:0|0:0,0:0:0:0:
217,39,299815,6,0,B|179:133|179:133|213:257,1,220.999989883423,2|8,0:0|0:0,0:0:0:0:
368,304,300361,2,0,B|406:210|406:210|372:86,1,220.999989883423
180,141,300906,2,0,L|210:248,1,110.499994941712,8|0,0:0|0:0,0:0:0:0:
394,166,301270,6,0,B|317:165|317:165|254:136|254:136|180:141,1,220.999989883423,2|8,0:0|0:0,0:0:0:0:
93,238,301815,1,0,0:0:0:0:
74,64,301997,1,2,0:0:0:0:
235,220,302179,1,0,0:0:0:0:
53,148,302361,2,0,P|128:147|178:186,1,110.499994941712,8|0,0:0|0:0,0:0:0:0:
172,372,302724,6,0,B|131:269|131:269|156:162,1,220.999989883423,2|8,0:0|0:0,0:0:0:0:
300,71,303270,2,0,B|341:174|341:174|318:272,1,165.749992412568
324,249,303633,5,12,0:0:0:0:
156,162,303815,1,12,0:0:0:0:
366,119,303997,1,0,0:0:0:0:
192,280,304179,5,8,0:0:0:0:
408,189,304361,2,0,P|394:149|365:118,2,85,2|0|2,0:0|0:0|0:0,0:0:0:0:
278,134,304906,2,0,P|318:46|391:35,1,170,8|0,0:0|0:0,0:0:0:0:
475,110,305451,1,2,0:0:0:0:
475,110,305542,1,2,0:0:0:0:
475,110,305633,5,2,0:0:0:0:
340,207,305815,2,0,P|283:229|230:214,1,85,8|0,0:0|0:0,0:0:0:0:
221,55,306179,1,2,0:0:0:0:
372,123,306361,2,0,P|419:161|433:214,1,85,8|0,0:0|0:0,0:0:0:0:
228,310,306724,2,0,P|181:272|167:219,1,85
245,140,307088,5,12,0:0:0:0:
312,275,307270,2,0,P|318:335|290:382,1,85,2|0,0:0|0:0,0:0:0:0:
158,348,307633,1,2,0:0:0:0:
234,214,307815,2,0,P|282:178|337:178,1,85,8|0,0:0|0:0,0:0:0:0:
456,275,308179,2,0,P|400:250|373:202,1,85,2|0,0:0|0:0,0:0:0:0:
404,95,308542,5,8,0:0:0:0:
385,232,308724,1,2,0:0:0:0:
286,37,308906,1,0,0:0:0:0:
305,174,309088,1,2,0:0:0:0:
206,95,309270,1,8,0:0:0:0:
187,232,309451,1,2,0:0:0:0:
79,4,309633,5,8,0:0:0:0:
84,33,309724,1,8,0:0:0:0:
88,62,309815,1,8,0:0:0:0:
92,91,309906,1,8,0:0:0:0:
96,120,309997,5,8,0:0:0:0:
206,95,310179,1,8,0:0:0:0:
137,207,310361,1,8,0:0:0:0:
200,83,310542,1,8,0:0:0:0:
233,228,310724,1,8,0:0:0:0:
184,74,310906,1,8,0:0:0:0:
317,183,311088,1,8,0:0:0:0:
167,74,311270,1,8,0:0:0:0:
305,66,311451,5,8,0:0:0:0:
233,228,311633,1,8,0:0:0:0:
167,74,311815,1,8,0:0:0:0:
317,183,311997,1,8,0:0:0:0:
226,1,312179,1,8,0:0:0:0:
96,157,312361,1,8,0:0:0:0:
305,66,312542,1,8,0:0:0:0:
90,6,312724,1,8,0:0:0:0:
233,228,312906,5,12,0:0:0:0:
227,17,313088,1,2,0:0:0:0:
226,1,313270,1,2,0:0:0:0:
141,220,313451,5,12,0:0:0:0:
313,35,313633,1,2,0:0:0:0:
327,20,313815,1,2,0:0:0:0:
67,143,313997,5,12,0:0:0:0:
369,131,314179,1,2,0:0:0:0:
90,6,314361,5,8,0:0:0:0:
134,279,315815,6,0,B|234:236|220:311|321:250,1,170,6|8,0:0|0:0,0:0:0:0:
251,188,316361,1,0,0:0:0:0:
190,349,316542,2,0,P|259:361|308:349,1,85,2|0,0:0|0:0,0:0:0:0:
334,198,316906,2,0,P|265:186|216:198,1,85,8|0,0:0|0:0,0:0:0:0:
411,269,317270,6,0,B|416:181|416:181|370:85,1,170,2|8,0:0|0:0,0:0:0:0:
250,187,317815,2,0,B|255:274|255:274|209:370,1,170
83,341,318361,2,0,L|119:261,1,85,8|0,0:0|0:0,0:0:0:0:
267,92,318724,6,0,B|368:132|305:175|419:203,1,170,2|8,0:0|0:0,0:0:0:0:
413,109,319270,1,0,0:0:0:0:
250,187,319451,2,0,P|284:241|315:267,1,85,2|0,0:0|0:0,0:0:0:0:
462,177,319815,2,0,P|428:123|397:97,1,85,8|0,0:0|0:0,0:0:0:0:
245,98,320179,6,0,B|336:117|336:117|436:106,1,170,2|8,0:0|0:0,0:0:0:0:
466,265,320724,2,0,B|375:246|375:246|275:257,1,170
262,368,321270,2,0,L|349:359,1,85,8|0,0:0|0:0,0:0:0:0:
431,182,321633,6,0,B|331:139|345:214|244:153,1,170,2|8,0:0|0:0,0:0:0:0:
311,92,322179,1,0,0:0:0:0:
374,256,322361,2,0,P|317:269|270:261,1,85,2|0,0:0|0:0,0:0:0:0:
228,102,322724,2,0,P|285:89|332:97,1,85,8|0,0:0|0:0,0:0:0:0:
173,258,323088,6,0,B|186:166|186:166|239:84,1,170,2|8,0:0|0:0,0:0:0:0:
387,176,323633,2,0,B|400:268|400:268|453:350,1,170
497,231,324179,2,0,L|485:146,1,85,8|0,0:0|0:0,0:0:0:0:
376,41,324542,5,2,0:0:0:0:
387,176,324724,1,2,0:0:0:0:
286,0,324906,1,8,0:0:0:0:
275,135,325088,1,2,0:0:0:0:
174,41,325270,1,2,0:0:0:0:
185,176,325452,1,0,0:0:0:0:
84,0,325633,1,8,0:0:0:0:
67,198,325815,1,8,0:0:0:0:
275,135,325997,5,2,0:0:0:0:
84,0,326179,1,2,0:0:0:0:
135,257,326361,1,2,0:0:0:0:
174,41,326542,1,2,0:0:0:0:
283,300,326724,1,2,0:0:0:0:
84,104,326906,1,2,0:0:0:0:
420,220,327088,1,2,0:0:0:0:
37,360,327270,1,2,0:0:0:0:
256,192,328199,5,4,0:0:0:0:
256,192,328289,12,0,335835,0:0:0:0:
