osu file format v14

[General]
AudioFilename: audio.mp3
AudioLeadIn: 0
PreviewTime: 56710
Countdown: 0
SampleSet: Soft
StackLeniency: 0.4
Mode: 0
LetterboxInBreaks: 0
WidescreenStoryboard: 0

[Editor]
Bookmarks: 610,11410,18610,28210,37810,47410,57010,66610,76210,85810,92860,94810
DistanceSpacing: 1.5
BeatDivisor: 4
GridSize: 8
TimelineZoom: 3.299999

[Metadata]
Title:Kimi no Bouken (Short Ver.)
TitleUnicode:キミの冒険 (Short Ver.)
Artist:Will Stetson
ArtistUnicode:Will Stetson
Creator:GreenHue
Version:lit120's Expert
Source:ポケットモンスター サン&ムーン
Tags:pokemon pokémon pocket monsters sun and moon opening op your adventure nintendo the game Dictate fiery rage fieryrage lit120 Error- Haruto xlolicore- lolicore reform kujin canderos quanhitter38 thievley im hide imhide coppertine mun only biscuit onlybiscuit
BeatmapID:1927725
BeatmapSetID:923122

[Difficulty]
HPDrainRate:6
CircleSize:4
OverallDifficulty:9.3
ApproachRate:9.6
SliderMultiplier:1.8
SliderTickRate:1

[Events]
//Background and Video events
0,0,"pkmnbg.jpg",0,0
//Break Periods
//Storyboard Layer 0 (Background)
//Storyboard Layer 1 (Fail)
//Storyboard Layer 2 (Pass)
//Storyboard Layer 3 (Foreground)
//Storyboard Sound Samples

[TimingPoints]
610,300,4,2,3,45,1,0
610,-133.333333333333,4,2,3,45,0,0
5410,-133.333333333333,4,2,3,55,0,0
7810,-133.333333333333,4,2,3,60,0,0
9010,-200,4,2,3,65,0,0
11410,-86.9565217391304,4,2,3,65,0,0
18610,-100,4,2,3,55,0,0
37810,-133.333333333333,4,2,3,45,0,0
52210,-133.333333333333,4,2,3,50,0,0
57010,-86.9565217391304,4,2,3,69,0,1
85510,-50,4,2,3,69,0,1
85810,-86.9565217391304,4,2,3,69,0,0

[Colours]
Combo1 : 244,231,164
Combo2 : 156,234,134
Combo3 : 81,210,238
Combo4 : 250,182,196

[HitObjects]
294,130,610,5,2,0:0:0:0:
336,265,760,1,2,0:0:0:0:
222,180,910,1,2,0:0:0:0:
364,182,1060,1,2,0:0:0:0:
248,264,1210,2,0,P|182:258|136:190,1,135.000005149842,2|0,0:0|0:0,0:0:0:0:
220,112,1660,6,0,L|222:180,1,67.5000025749208,2|0,0:0|0:0,0:0:0:0:
145,329,1960,1,2,0:0:0:0:
336,265,2110,1,2,0:0:0:0:
139,208,2260,1,2,0:0:0:0:
292,341,2410,2,0,P|326:346|359:343,1,67.5000025749208,2|0,0:0|0:0,0:0:0:0:
430,183,2710,2,0,P|397:178|364:181,1,67.5000025749208,2|0,0:0|0:0,0:0:0:0:
292,341,3010,6,0,P|286:307|272:276,1,67.5000025749208,2|0,0:0|0:0,0:0:0:0:
99,257,3310,2,0,P|128:241|154:219,1,67.5000025749208,2|0,0:0|0:0,0:0:0:0:
117,47,3610,2,0,P|142:71|171:88,1,67.5000025749208,2|0,0:0|0:0,0:0:0:0:
324,2,3910,2,0,P|309:32|301:65,1,67.5000025749208,2|0,0:0|0:0,0:0:0:0:
430,183,4210,6,0,P|364:181|309:219,1,135.000005149842,2|0,0:0|0:0,0:0:0:0:
292,341,4660,1,0,0:0:0:0:
153,286,4810,2,0,L|154:219,1,67.5000025749208,2|0,0:0|0:0,0:0:0:0:
311,151,5110,2,0,L|310:219,1,67.5000025749208,2|0,0:0|0:0,0:0:0:0:
171,89,5410,6,0,L|172:21,1,67.5000025749208,2|0,3:2|0:0,0:0:0:0:
232,218,5710,1,10,0:2:0:0:
103,88,5860,2,0,P|137:86|171:89,1,67.5000025749208,2|0,0:0|3:2,0:0:0:0:
311,152,6160,2,0,P|277:154|243:151,1,67.5000025749208,2|8,0:0|0:2,0:0:0:0:
70,30,6460,6,0,P|89:58|104:89,1,67.5000025749208,2|0,0:0|3:2,0:0:0:0:
85,298,6760,1,2,0:0:0:0:
156,161,6910,2,0,P|158:194|155:228,1,67.5000025749208,10|2,0:2|0:0,0:0:0:0:
26,331,7210,2,0,P|54:312|85:298,1,67.5000025749208,2|0,3:2|0:0,0:0:0:0:
239,359,7510,2,0,P|208:344|180:325,1,67.5000025749208,10|0,0:2|0:0,0:0:0:0:
311,155,7810,6,0,P|313:188|310:222,1,67.5000025749208,2|0,3:2|0:0,0:0:0:0:
97,194,8110,2,0,P|125:175|156:160,1,67.5000025749208,10|0,0:2|0:0,0:0:0:0:
369,255,8410,2,0,P|338:241|311:222,1,67.5000025749208,2|0,3:2|0:0,0:0:0:0:
97,127,8710,2,0,P|128:141|156:161,1,67.5000025749208,10|0,0:2|0:0,0:0:0:0:
239,359,9010,6,0,B|328:314|408:373|408:373|414:273|505:234|505:234|422:179|433:80,1,540,6|0,3:2|0:0,0:0:0:0:
65,203,11410,6,0,P|116:212|167:204,1,103.500001974106,6|0,3:2|3:2,0:0:0:0:
296,19,11710,2,0,P|262:58|243:106,1,103.500001974106,2|0,0:0|3:2,0:0:0:0:
234,178,11935,1,0,3:2:0:0:
234,178,12010,1,10,0:0:0:0:
340,310,12160,2,0,P|322:261|290:221,1,103.500001974106,2|0,3:2|0:0,0:0:0:0:
112,316,12460,6,0,P|163:325|214:318,1,103.500001974106,10|0,0:0|3:2,0:0:0:0:
392,222,12760,2,0,P|341:213|291:221,1,103.500001974106,10|0,0:0|3:2,0:0:0:0:
142,104,13060,2,0,P|193:113|244:106,1,103.500001974106,2|8,3:2|0:0,0:0:0:0:
422,10,13360,1,2,3:2:0:0:
291,220,13510,1,2,0:0:0:0:
92,15,13660,1,10,0:0:0:0:
346,108,13810,6,0,P|396:117|447:109,1,103.500001974106,2|0,3:2|3:2,0:0:0:0:
291,220,14110,2,0,P|240:211|189:219,1,103.500001974106,2|0,0:0|3:2,0:0:0:0:
125,256,14335,1,0,3:2:0:0:
125,256,14410,1,10,0:0:0:0:
3,65,14560,2,0,L|3:177,1,103.500001974106,2|0,3:2|0:0,0:0:0:0:
125,359,14860,6,0,L|125:256,1,103.500001974106,10|0,0:0|3:2,0:0:0:0:
169,30,15160,2,0,L|169:133,1,103.500001974106,10|0,0:0|3:2,0:0:0:0:
291,324,15460,2,0,L|291:220,1,103.500001974106,2|8,3:2|0:0,0:0:0:0:
169,30,15760,1,2,3:2:0:0:
125,256,15910,1,2,0:0:0:0:
325,64,16060,1,10,0:0:0:0:
391,333,16210,6,0,P|441:342|492:334,1,103.500001974106,2|0,3:2|3:2,0:0:0:0:
291,221,16510,2,0,P|240:211|189:219,1,103.500001974106,2|0,0:0|3:2,0:0:0:0:
125,256,16735,1,0,3:2:0:0:
125,256,16810,1,10,0:0:0:0:
391,333,16960,2,0,L|391:229,1,103.500001974106,2|0,3:2|0:0,0:0:0:0:
242,28,17260,6,0,L|242:132,1,103.500001974106,10|0,0:0|3:2,0:0:0:0:
125,330,17560,1,10,0:0:0:0:
152,80,17710,1,2,3:2:0:0:
215,380,17860,1,2,3:2:0:0:
331,80,18010,1,10,0:0:0:0:
14,191,18160,1,2,0:0:0:0:
390,333,18310,1,10,0:0:0:0:
423,289,18385,1,8,0:0:0:0:
440,237,18460,1,10,0:0:0:0:
439,183,18535,1,8,0:0:0:0:
419,131,18610,6,0,L|418:30,1,90,6|0,3:2|0:0,0:0:0:0:
230,207,18910,1,10,0:0:0:0:
440,237,19060,1,2,0:0:0:0:
250,100,19210,2,0,P|206:98|161:105,1,90,2|0,3:2|0:0,0:0:0:0:
34,287,19510,1,10,0:0:0:0:
251,100,19660,6,0,P|253:56|246:11,1,90,2|0,0:0|3:2,0:0:0:0:
166,194,19960,1,2,0:0:0:0:
430,93,20110,1,10,0:0:0:0:
350,276,20260,1,2,0:0:0:0:
251,101,20410,2,0,P|248:145|255:190,1,90,2|2,3:2|0:0,0:0:0:0:
445,361,20710,1,10,0:0:0:0:
472,237,20860,1,2,0:0:0:0:
228,315,21010,5,2,3:2:0:0:
445,361,21160,1,2,0:0:0:0:
179,239,21310,1,10,0:0:0:0:
396,285,21460,1,2,0:0:0:0:
138,320,21610,1,2,3:2:0:0:
347,209,21760,1,2,0:0:0:0:
147,84,21910,2,0,P|140:128|142:173,1,90,8|0,0:0|0:0,0:0:0:0:
301,380,22210,6,0,P|308:335|306:291,1,90,0|0,3:2|0:0,0:0:0:0:
147,84,22510,2,0,P|182:111|222:132,1,90,8|0,0:0|0:0,0:0:0:0:
481,97,22810,1,2,3:2:0:0:
310,187,22960,1,2,0:0:0:0:
474,291,23110,1,10,0:0:0:0:
422,192,23260,1,2,0:0:0:0:
302,380,23410,6,0,P|257:382|212:375,1,90,6|0,3:2|0:0,0:0:0:0:
44,247,23710,1,10,0:0:0:0:
260,300,23860,1,2,0:0:0:0:
31,342,24010,1,2,3:2:0:0:
218,220,24160,1,2,0:0:0:0:
19,120,24310,1,10,0:0:0:0:
170,295,24460,1,2,0:0:0:0:
247,76,24610,6,0,P|291:69|336:71,1,90,2|0,3:2|0:0,0:0:0:0:
146,164,24910,1,10,0:0:0:0:
19,120,25060,2,0,P|12:75|14:30,1,90,2|0,0:0|3:2,0:0:0:0:
146,164,25360,2,0,P|152:208|150:253,1,90,2|8,0:0|0:0,0:0:0:0:
31,342,25660,1,2,0:0:0:0:
146,164,25810,6,0,P|190:157|235:159,1,90,2|0,3:2|0:0,0:0:0:0:
428,262,26110,2,0,P|383:268|338:266,1,90,10|0,0:0|0:0,0:0:0:0:
336,72,26410,2,0,P|342:116|340:161,1,90,2|2,3:2|0:0,0:0:0:0:
238,354,26710,2,0,P|231:309|233:264,1,90,10|0,0:0|0:0,0:0:0:0:
145,75,27010,6,0,P|157:164|150:253,1,180,2|8,3:2|0:0,0:0:0:0:
48,340,27460,1,0,0:0:0:0:
58,167,27610,2,0,P|146:154|236:161,1,180,2|8,3:2|0:0,0:0:0:0:
338,266,28060,1,0,0:0:0:0:
441,74,28210,6,0,L|442:164,1,90,6|0,3:2|0:0,0:0:0:0:
336,339,28510,1,10,0:0:0:0:
236,161,28660,1,2,0:0:0:0:
440,282,28810,1,2,3:2:0:0:
339,103,28960,1,2,0:0:0:0:
235,279,29110,1,10,0:0:0:0:
44,103,29260,6,0,P|89:96|134:99,1,90,2|0,0:0|3:2,0:0:0:0:
337,221,29560,1,2,0:0:0:0:
175,19,29710,2,0,P|150:57|134:99,1,90,10|2,0:0|0:0,0:0:0:0:
129,335,30010,1,2,3:2:0:0:
236,160,30160,1,2,0:0:0:0:
416,363,30310,1,10,0:0:0:0:
235,279,30460,1,2,0:0:0:0:
500,182,30610,5,2,3:2:0:0:
318,98,30760,2,0,P|311:142|313:187,2,90,2|8|0,0:0|0:0|0:0,0:0:0:0:
236,280,31210,2,0,P|198:304|156:321,1,90,0|0,3:2|0:0,0:0:0:0:
355,301,31510,2,0,P|395:322|431:350,1,90,8|0,0:0|0:0,0:0:0:0:
313,187,31810,5,2,3:2:0:0:
236,280,31960,2,0,P|229:324|231:369,2,90,2|8|0,0:0|0:0|0:0,0:0:0:0:
393,145,32410,2,0,P|355:170|314:187,1,90,0|0,3:2|0:0,0:0:0:0:
118,117,32710,2,0,P|159:137|194:165,1,90,10|0,0:0|0:0,0:0:0:0:
114,347,33010,6,0,L|114:257,1,90,2|0,3:2|0:0,0:0:0:0:
194,75,33310,2,0,L|194:165,1,90,10|0,0:0|0:0,0:0:0:0:
311,328,33610,1,2,3:2:0:0:
393,145,33760,1,2,0:0:0:0:
485,336,33910,1,10,0:0:0:0:
294,156,34060,1,2,0:0:0:0:
114,347,34210,6,0,P|69:349|24:342,1,90,2|0,3:2|0:0,0:0:0:0:
212,236,34510,2,0,P|257:234|302:241,1,90,10|0,0:0|0:0,0:0:0:0:
102,138,34810,2,0,P|57:140|12:133,1,90,2|0,3:2|0:0,0:0:0:0:
200,27,35110,1,10,0:0:0:0:
107,242,35260,1,2,0:0:0:0:
294,136,35410,6,0,P|376:167|406:249,1,180,2|8,3:2|0:0,0:0:0:0:
347,336,35860,1,2,0:0:0:0:
123,239,36010,2,0,P|212:231|302:241,1,180,2|8,3:2|0:0,0:0:0:0:
451,344,36460,1,0,0:0:0:0:
466,163,36610,6,0,L|465:60,1,90,0|0,3:2|0:0,0:0:0:0:
302,241,36910,2,0,L|303:330,1,90,8|0,0:0|0:0,0:0:0:0:
213,85,37210,1,8,0:0:0:0:
123,239,37360,1,8,0:3:0:0:
213,188,37510,1,4,0:3:0:0:
123,136,37660,1,4,0:3:0:0:
211,292,37810,5,6,3:2:0:0:
302,136,37960,1,2,0:0:0:0:
123,239,38110,1,2,0:0:0:0:
391,190,38260,1,2,0:0:0:0:
123,136,38410,1,10,0:0:0:0:
302,241,38560,1,2,0:0:0:0:
121,343,38710,1,2,0:0:0:0:
213,188,38860,1,10,0:0:0:0:
301,346,39010,6,0,P|350:347|374:343,1,67.5000025749208,2|8,3:2|0:0,0:0:0:0:
212,292,39310,2,0,P|163:291|139:295,1,67.5000025749208,2|0,3:2|0:0,0:0:0:0:
302,241,39610,2,0,P|368:239|427:206,1,135.000005149842,8|0,0:0|0:0,0:0:0:0:
302,31,40060,1,8,0:0:0:0:
213,188,40210,5,2,3:2:0:0:
391,84,40360,1,2,0:0:0:0:
123,136,40510,1,2,0:0:0:0:
427,205,40660,1,2,0:0:0:0:
123,239,40810,1,10,0:0:0:0:
303,175,40960,1,2,0:0:0:0:
267,363,41110,1,2,0:0:0:0:
231,259,41260,1,10,0:0:0:0:
406,278,41410,6,0,P|372:281|339:280,1,67.5000025749208,2|8,3:2|0:0,0:0:0:0:
267,118,41710,2,0,P|287:145|302:175,1,67.5000025749208,2|0,3:2|0:0,0:0:0:0:
198,318,42010,2,0,P|212:287|231:259,1,67.5000025749208,8|0,0:0|0:0,0:0:0:0:
334,115,42310,2,0,P|320:146|303:175,1,67.5000025749208,2|0,3:2|0:0,0:0:0:0:
92,99,42610,6,0,P|125:95|159:97,1,67.5000025749208,6|0,3:2|0:0,0:0:0:0:
198,318,42910,2,0,P|178:290|162:260,1,67.5000025749208,2|0,0:0|0:0,0:0:0:0:
334,115,43210,2,0,P|354:143|370:173,1,67.5000025749208,10|0,0:0|0:0,0:0:0:0:
198,317,43510,2,0,P|211:287|230:259,1,67.5000025749208,2|8,0:0|0:0,0:0:0:0:
442,336,43810,6,0,P|408:339|374:337,1,67.5000025749208,2|8,3:2|0:0,0:0:0:0:
401,113,44110,2,0,P|387:144|370:173,1,67.5000025749208,2|0,3:2|0:0,0:0:0:0:
189,37,44409,2,0,P|209:65|225:95,1,67.5000025749208,10|0,0:0|0:0,0:0:0:0:
17,183,44710,2,0,P|51:180|85:181,1,67.5000025749208,2|8,0:0|0:0,0:0:0:0:
364,253,45010,6,0,P|298:263|231:259,1,135.000005149842,2|0,3:2|0:0,0:0:0:0:
85,181,45460,2,0,P|151:171|218:175,1,135.000005149842,2|0,0:0|0:0,0:0:0:0:
401,113,45910,1,2,0:0:0:0:
230,259,46060,1,10,0:0:0:0:
190,37,46210,5,2,3:2:0:0:
365,254,46360,1,8,0:0:0:0:
218,175,46510,2,0,P|185:171|151:171,1,67.5000025749208,0|0,3:2|0:0,0:0:0:0:
334,118,46810,2,0,P|368:114|402:114,1,67.5000025749208,8|0,0:0|0:0,0:0:0:0:
190,37,47110,1,0,3:2:0:0:
365,254,47260,1,8,0:0:0:0:
89,297,47410,5,6,3:2:0:0:
218,175,47560,1,2,0:0:0:0:
258,348,47710,1,2,0:0:0:0:
118,199,47860,1,2,0:0:0:0:
158,370,48010,1,10,0:0:0:0:
288,250,48160,2,0,P|296:172|285:98,1,135.000005149842,2|8,0:0|0:0,0:0:0:0:
158,303,48610,6,0,L|158:370,1,67.5000025749208,2|10,3:2|0:0,0:0:0:0:
288,250,48910,1,2,3:2:0:0:
118,199,49060,1,2,0:0:0:0:
258,348,49210,2,0,P|291:347|325:343,1,67.5000025749208,10|0,0:0|0:0,0:0:0:0:
185,194,49510,2,0,P|151:195|118:199,1,67.5000025749208,2|8,0:0|0:0,0:0:0:0:
241,81,49810,6,0,P|230:49|216:19,1,67.5000025749208,2|0,3:2|0:0,0:0:0:0:
366,101,50109,2,0,P|393:81|418:58,1,67.5000025749208,2|0,0:0|0:0,0:0:0:0:
387,225,50410,2,0,P|414:244|443:261,1,67.5000025749208,10|0,0:0|0:0,0:0:0:0:
274,282,50710,2,0,P|264:314|258:348,1,67.5000025749208,2|8,0:0|0:0,0:0:0:0:
185,194,51010,6,0,P|118:199|53:219,1,135.000005149842,2|0,3:2|3:2,0:0:0:0:
23,308,51460,1,0,0:0:0:0:
185,194,51610,2,0,L|185:127,1,67.5000025749208,10|0,0:0|0:0,0:0:0:0:
275,283,51910,2,0,L|275:350,1,67.5000025749208,2|0,3:2|0:0,0:0:0:0:
366,168,52210,6,0,L|366:101,1,67.5000025749208,6|0,3:2|0:0,0:0:0:0:
185,262,52510,2,0,L|185:329,1,67.5000025749208,8|0,0:0|0:0,0:0:0:0:
456,189,52810,2,0,L|455:121,1,67.5000025749208,10|0,0:0|0:0,0:0:0:0:
95,241,53110,2,0,L|95:308,1,67.5000025749208,8|0,0:0|0:0,0:0:0:0:
483,277,53410,5,10,0:0:0:0:
206,172,53560,1,8,0:0:0:0:
455,121,53710,1,10,0:0:0:0:
137,61,53860,1,8,0:0:0:0:
424,207,54010,5,10,0:0:0:0:
95,241,54160,1,8,0:0:0:0:
368,90,54310,1,10,0:0:0:0:
262,383,54460,1,8,0:0:0:0:
28,179,54610,5,10,0:0:0:0:
72,164,54685,1,8,0:0:0:0:
118,163,54760,1,8,0:0:0:0:
163,176,54835,1,8,0:0:0:0:
202,201,54910,1,8,0:0:0:0:
240,226,54985,1,8,0:0:0:0:
285,238,55060,1,10,0:0:0:0:
331,237,55135,1,8,0:0:0:0:
375,223,55210,5,8,0:0:0:0:
342,164,55285,1,8,0:0:0:0:
284,132,55360,1,8,0:0:0:0:
217,136,55435,1,8,0:0:0:0:
163,176,55510,1,10,0:0:0:0:
139,238,55585,1,8,0:0:0:0:
151,303,55660,1,8,0:0:0:0:
197,352,55735,1,8,0:0:0:0:
261,368,55810,6,0,B|465:365|465:365|392:331,1,270.000010299683,6|0,3:2|0:0,0:0:0:0:
69,345,56710,5,2,0:0:0:0:
69,345,56785,1,2,0:0:0:0:
69,345,56860,1,2,0:0:0:0:
69,345,56935,1,2,0:0:0:0:
69,345,57010,5,6,3:2:0:0:
163,176,57160,1,2,0:0:0:0:
364,366,57310,1,10,0:0:0:0:
151,303,57460,1,2,0:0:0:0:
312,149,57610,2,0,P|448:146|527:163,1,207.000003948212,2|8,3:2|0:0,0:0:0:0:
312,252,58060,6,0,L|312:149,1,103.500001974106,2|0,0:0|3:2,0:0:0:0:
213,33,58360,1,2,0:0:0:0:
151,303,58510,1,10,0:0:0:0:
66,61,58660,1,2,0:0:0:0:
311,252,58810,2,0,P|363:256|414:246,1,103.500001974106,2|0,3:2|0:0,0:0:0:0:
163,176,59110,2,0,P|111:171|60:181,1,103.500001974106,10|0,0:0|0:0,0:0:0:0:
312,253,59410,6,0,P|312:174|299:134,1,103.500001974106,2|0,3:2|0:0,0:0:0:0:
55,79,59710,2,0,P|51:131|61:182,1,103.500001974106,10|0,0:0|0:0,0:0:0:0:
419,349,60010,2,0,P|423:297|414:247,1,103.500001974106,2|0,3:2|0:0,0:0:0:0:
163,176,60310,2,0,P|158:227|168:278,1,103.500001974106,10|0,0:0|0:0,0:0:0:0:
408,145,60610,6,0,P|362:65|253:62,1,207.000003948212,2|8,3:2|0:0,0:0:0:0:
163,176,61060,1,0,0:0:0:0:
408,145,61210,2,0,P|459:140|510:150,1,103.500001974106,2|0,3:2|0:0,0:0:0:0:
312,253,61510,2,0,P|260:257|209:247,1,103.500001974106,10|0,0:0|0:0,0:0:0:0:
61,78,61810,6,0,L|61:182,1,103.500001974106,6|0,3:2|0:0,0:0:0:0:
204,349,62110,1,10,0:0:0:0:
278,142,62260,2,0,L|277:38,1,103.500001974106,2|0,0:0|3:2,0:0:0:0:
414,259,62560,2,0,L|414:362,1,103.500001974106,2|8,0:0|0:0,0:0:0:0:
175,146,62860,6,0,P|226:137|278:142,1,103.500001974106,2|0,0:0|3:2,0:0:0:0:
414,362,63160,1,2,0:0:0:0:
500,183,63310,2,0,L|499:79,1,103.500001974106,10|2,0:0|0:0,0:0:0:0:
279,245,63610,2,0,L|279:348,1,103.500001974106,2|0,3:2|0:0,0:0:0:0:
175,145,63910,2,0,L|174:41,1,103.500001974106,10|0,0:0|0:0,0:0:0:0:
37,284,64210,6,0,P|88:292|140:285,1,103.500001974106,6|0,3:2|0:0,0:0:0:0:
416,105,64510,2,0,P|365:97|313:103,1,103.500001974106,10|0,0:0|0:0,0:0:0:0:
279,348,64810,2,0,L|279:245,1,103.500001974106,2|0,3:2|0:0,0:0:0:0:
174,41,65110,2,0,L|175:145,1,103.500001974106,10|0,0:0|0:0,0:0:0:0:
364,193,65410,6,0,P|415:107|370:19,1,207.000003948212,2|8,3:2|0:0,0:0:0:0:
175,145,65860,1,2,0:0:0:0:
500,162,66010,2,0,P|416:105|314:103,1,207.000003948212,2|8,3:2|0:0,0:0:0:0:
279,245,66460,1,0,0:0:0:0:
210,5,66610,5,6,3:2:0:0:
37,185,66760,1,2,0:0:0:0:
175,145,66910,1,10,0:0:0:0:
71,45,67060,1,2,0:0:0:0:
125,233,67210,2,0,P|227:233|311:175,1,207.000003948212,2|8,3:2|0:0,0:0:0:0:
414,1,67660,6,0,L|416:105,1,103.500001974106,2|0,0:0|3:2,0:0:0:0:
382,280,67960,1,2,0:0:0:0:
242,71,68110,1,10,0:0:0:0:
208,246,68260,1,2,0:0:0:0:
435,199,68410,2,0,P|480:175|507:131,1,103.500001974106,2|0,3:2|0:0,0:0:0:0:
188,151,68710,2,0,P|142:175|116:219,1,103.500001974106,10|0,0:0|0:0,0:0:0:0:
384,384,69010,6,0,L|382:280,1,103.500001974106,2|0,3:2|0:0,0:0:0:0:
186,48,69310,2,0,L|188:152,1,103.500001974106,10|0,0:0|0:0,0:0:0:0:
509,236,69610,2,0,L|507:132,1,103.500001974106,2|0,3:2|0:0,0:0:0:0:
116,219,69910,2,0,L|118:323,1,103.500001974106,10|0,0:0|0:0,0:0:0:0:
272,84,70210,6,0,P|186:33|97:78,1,207.000003948212,2|8,3:2|0:0,0:0:0:0:
26,272,70660,1,0,0:0:0:0:
282,168,70810,2,0,P|334:161|385:167,1,103.500001974106,2|0,3:2|0:0,0:0:0:0:
220,322,71110,2,0,P|169:329|118:323,1,103.500001974106,10|0,0:0|0:0,0:0:0:0:
282,65,71410,6,0,P|289:116|283:168,1,103.500001974106,6|0,3:2|0:0,0:0:0:0:
220,322,71710,1,10,0:0:0:0:
15,192,71860,2,0,P|66:185|118:192,1,103.500001974106,2|0,0:0|3:2,0:0:0:0:
329,276,72160,1,2,0:0:0:0:
194,15,72310,1,10,0:0:0:0:
35,263,72460,6,0,L|39:368,1,103.500001974106,2|0,0:0|3:2,0:0:0:0:
256,168,72760,1,2,0:0:0:0:
473,366,72910,2,0,L|477:263,1,103.500001974106,10|2,0:0|0:0,0:0:0:0:
358,38,73210,2,0,L|354:141,1,103.500001974106,2|0,3:2|0:0,0:0:0:0:
157,141,73510,2,0,L|154:38,1,103.500001974106,10|0,0:0|0:0,0:0:0:0:
476,262,73810,6,0,P|373:277|271:261,1,207.000003948212,2|8,3:2|0:0,0:0:0:0:
154,38,74260,2,0,P|256:22|358:38,1,207.000003948212,2|0,0:0|0:0,0:0:0:0:
157,141,74710,2,0,L|154:38,1,103.500001974106,10|0,0:0|0:0,0:0:0:0:
271,261,75010,6,0,P|278:313|269:363,1,103.500001974106,10|0,0:0|0:0,0:0:0:0:
70,196,75310,2,0,P|63:144|72:94,1,103.500001974106,8|0,0:0|0:0,0:0:0:0:
358,38,75610,1,8,0:0:0:0:
386,75,75685,1,8,0:0:0:0:
401,119,75760,1,10,0:0:0:0:
399,166,75835,1,8,0:0:0:0:
381,209,75910,1,10,0:0:0:0:
362,253,75985,1,8,0:0:0:0:
359,299,76060,1,10,0:0:0:0:
374,345,76135,1,8,0:0:0:0:
402,382,76210,6,0,P|454:382|506:376,1,103.500001974106,6|0,3:2|0:0,0:0:0:0:
243,315,76510,2,0,P|191:313|139:319,1,103.500001974106,8|0,0:0|0:0,0:0:0:0:
381,209,76810,5,8,0:0:0:0:
79,240,76960,1,0,3:2:0:0:
442,289,77110,5,10,0:0:0:0:
179,227,77260,1,2,3:2:0:0:
477,93,77410,6,0,P|483:145|483:197,1,103.500001974106,10|2,0:0|0:0,0:0:0:0:
220,134,77710,2,0,P|214:82|214:30,1,103.500001974106,10|0,0:0|0:0,0:0:0:0:
340,301,78010,5,8,0:0:0:0:
120,147,78160,1,0,3:2:0:0:
483,197,78310,5,10,0:0:0:0:
139,319,78460,1,2,3:2:0:0:
363,5,78610,6,0,P|369:57|368:109,1,103.500001974106,10|0,0:0|0:0,0:0:0:0:
256,382,78910,2,0,L|256:278,1,103.500001974106,8|0,0:0|0:0,0:0:0:0:
148,5,79210,5,8,0:0:0:0:
381,209,79360,1,0,3:2:0:0:
64,62,79510,5,10,0:0:0:0:
368,109,79660,1,0,3:2:0:0:
75,266,79810,6,0,P|69:214|70:163,1,103.500001974106,10|0,0:0|0:0,0:0:0:0:
256,2,80110,2,0,L|256:105,1,103.500001974106,10|2,0:0|0:0,0:0:0:0:
436,266,80410,5,8,0:0:0:0:
166,157,80560,1,0,3:2:0:0:
493,210,80710,5,10,0:0:0:0:
166,261,80860,1,0,3:2:0:0:
432,49,81010,6,0,P|438:101|438:153,1,103.500001974106,14|0,0:0|0:0,0:0:0:0:
74,153,81310,2,0,P|73:101|79:49,1,103.500001974106,8|0,0:0|0:0,0:0:0:0:
360,287,81610,5,8,0:0:0:0:
74,153,81760,1,0,3:2:0:0:
438,153,81910,5,8,0:0:0:0:
152,287,82060,1,0,3:2:0:0:
361,18,82210,6,0,P|366:70|361:123,1,103.500001974106,8|0,0:0|0:0,0:0:0:0:
74,153,82510,2,0,P|115:122|164:100,1,103.500001974106,8|0,0:0|0:0,0:0:0:0:
334,334,82810,5,8,0:0:0:0:
272,70,82960,1,0,3:2:0:0:
229,362,83110,5,8,0:0:0:0:
361,121,83260,1,0,3:2:0:0:
493,363,83410,6,0,P|498:311|492:260,1,103.500001974106,8|0,0:0|0:0,0:0:0:0:
272,71,83710,2,0,P|266:122|272:173,1,103.500001974106,8|0,0:0|0:0,0:0:0:0:
54,371,84010,5,8,0:0:0:0:
403,311,84160,1,0,3:2:0:0:
53,268,84310,5,10,0:0:0:0:
389,384,84460,1,0,3:2:0:0:
51,164,84610,6,0,P|103:157|154:163,1,103.500001974106,10|0,0:0|0:0,0:0:0:0:
492,260,84910,1,8,0:0:0:0:
274,381,85060,1,10,0:0:0:0:
264,319,85135,1,8,0:0:0:0:
281,258,85210,1,8,0:0:0:0:
323,211,85285,1,8,0:0:0:0:
364,165,85360,1,8,0:0:0:0:
381,104,85435,1,8,0:0:0:0:
371,42,85510,6,0,P|306:37|276:43,1,90,10|8,0:0|0:0,0:0:0:0:
155,163,85660,2,0,P|220:168|250:162,1,90,8|8,0:0|0:0,0:0:0:0:
492,260,85810,6,0,P|414:253|360:263,1,103.500001974106,6|0,3:2|3:2,0:0:0:0:
103,360,86110,2,0,P|154:367|205:363,1,103.500001974106,2|0,0:0|3:2,0:0:0:0:
264,319,86335,1,0,3:2:0:0:
264,319,86410,1,10,0:0:0:0:
155,163,86560,2,0,L|155:266,1,103.500001974106,2|0,3:2|0:0,0:0:0:0:
390,183,86860,6,0,P|339:179|288:187,1,103.500001974106,10|0,0:0|3:2,0:0:0:0:
107,357,87160,2,0,P|135:314|155:267,1,103.500001974106,10|0,0:0|3:2,0:0:0:0:
96,24,87460,2,0,P|119:71|151:111,1,103.500001974106,2|8,3:2|0:0,0:0:0:0:
390,183,87760,1,2,3:2:0:0:
75,191,87910,1,2,0:0:0:0:
387,80,88060,1,10,0:0:0:0:
156,9,88210,6,0,P|149:60|152:112,1,103.500001974106,2|0,3:2|3:2,0:0:0:0:
283,289,88510,2,0,P|290:238|288:187,1,103.500001974106,2|0,0:0|3:2,0:0:0:0:
261,118,88735,1,0,3:2:0:0:
261,118,88810,1,10,0:0:0:0:
155,267,88960,2,0,L|155:370,1,103.500001974106,2|0,3:2|0:0,0:0:0:0:
374,243,89260,6,0,L|374:139,1,103.500001974106,10|0,0:0|3:2,0:0:0:0:
65,111,89560,2,0,L|65:215,1,103.500001974106,10|0,0:0|3:2,0:0:0:0:
261,118,89860,2,0,L|261:14,1,103.500001974106,2|8,3:2|0:0,0:0:0:0:
155,267,90160,1,2,3:2:0:0:
374,139,90310,1,2,0:0:0:0:
65,215,90460,1,10,0:0:0:0:
257,332,90610,6,0,P|308:335|359:328,1,103.500001974106,2|0,3:2|3:2,0:0:0:0:
220,159,90910,2,0,P|168:155|117:162,1,103.500001974106,2|0,0:0|3:2,0:0:0:0:
65,215,91135,1,0,3:2:0:0:
65,215,91210,1,10,0:0:0:0:
257,332,91360,2,0,P|260:280|253:229,1,103.500001974106,2|0,3:2|0:0,0:0:0:0:
26,115,91660,6,0,P|69:143|117:163,1,103.500001974106,10|0,0:0|3:2,0:0:0:0:
329,23,91960,1,10,0:0:0:0:
26,115,92110,1,2,3:2:0:0:
381,198,92260,1,2,0:0:0:0:
73,24,92410,5,10,0:0:0:0:
205,373,92560,1,10,0:0:0:0:
443,84,92710,1,10,0:0:0:0:
31,197,92860,1,10,0:0:0:0:
