osu file format v14

[General]
AudioFilename: audio.mp3
AudioLeadIn: 0
PreviewTime: 56710
Countdown: 0
SampleSet: Soft
StackLeniency: 0.7
Mode: 0
LetterboxInBreaks: 0
WidescreenStoryboard: 0

[Editor]
DistanceSpacing: 1.5
BeatDivisor: 16
GridSize: 16
TimelineZoom: 5.799996

[Metadata]
Title:Kimi no Bouken (Short Ver.)
TitleUnicode:キミの冒険 (Short Ver.)
Artist:Will Stetson
ArtistUnicode:Will Stetson
Creator:GreenHue
Version:Keitaro's Extra
Source:ポケットモンスター サン&ムーン
Tags:pokemon pokémon pocket monsters sun and moon opening op your adventure nintendo the game Dictate fiery rage fieryrage lit120 Error- Haruto xlolicore- lolicore reform kujin canderos quanhitter38 thievley im hide imhide coppertine mun only biscuit onlybiscuit
BeatmapID:1927719
BeatmapSetID:923122

[Difficulty]
HPDrainRate:6
CircleSize:3.8
OverallDifficulty:9
ApproachRate:9.5
SliderMultiplier:1.7
SliderTickRate:1

[Events]
//Background and Video events
0,0,"pkmnbg.jpg",0,0
//Break Periods
//Storyboard Layer 0 (Background)
//Storyboard Layer 1 (Fail)
//Storyboard Layer 2 (Pass)
//Storyboard Layer 3 (Foreground)
//Storyboard Sound Samples

[TimingPoints]
610,300,4,2,3,45,1,0
610,-133.333333333333,4,2,3,45,0,0
4810,-200,4,2,3,45,0,0
5410,-133.333333333333,4,2,3,55,0,0
7810,-133.333333333333,4,2,3,60,0,0
9010,-333.333333333333,4,2,3,65,0,0
11410,-111.111111111111,4,2,3,65,0,0
18610,-133.333333333333,4,2,3,55,0,0
37810,-181.818181818181,4,2,3,45,0,0
52210,-181.818181818181,4,2,3,50,0,0
55810,-250,4,2,3,50,0,0
57010,-100,4,2,3,69,0,1
75910,-100,4,2,3,69,0,0
76210,-100,4,2,3,69,0,1
85810,-111.111111111111,4,2,3,69,0,0

[Colours]
Combo1 : 255,231,155
Combo2 : 170,222,135
Combo3 : 151,198,255
Combo4 : 255,168,255

[HitObjects]
184,120,610,6,0,L|104:128,1,63.7500024318696,2|2,0:0|0:0,0:0:0:0:
56,208,910,2,0,L|144:216,1,63.7500024318696,2|2,0:0|0:0,0:0:0:0:
176,280,1210,2,0,B|216:248|216:248|304:272,1,127.500004863739,2|0,0:0|0:0,0:0:0:0:
368,296,1660,2,0,L|352:368,1,63.7500024318696,2|0,0:0|0:0,0:0:0:0:
448,264,1960,2,0,L|440:184,2,63.7500024318696,2|2|2,0:0|0:0|0:0,0:0:0:0:
504,136,2410,2,0,P|424:112|368:144,1,127.500004863739,2|2,0:0|0:0,0:0:0:0:
184,32,3010,6,0,L|168:176,1,127.500004863739,2|2,0:0|0:0,0:0:0:0:
155,285,3610,2,0,L|171:141,1,127.500004863739,2|2,0:0|0:0,0:0:0:0:
56,272,4210,1,2,0:0:0:0:
56,272,4810,2,0,P|64:344|136:384,1,148.75,2|0,0:0|0:0,0:0:0:0:
144,384,5410,6,0,L|272:360,1,127.500004863739,2|10,3:2|0:2,0:0:0:0:
344,344,5860,2,0,L|328:272,1,63.7500024318696,2|0,0:0|3:2,0:0:0:0:
272,232,6160,2,0,L|288:152,1,63.7500024318696,2|8,0:0|0:2,0:0:0:0:
304,88,6460,2,0,P|240:120|184:96,1,127.500004863739,2|2,0:0|0:0,0:0:0:0:
112,48,6910,2,0,L|104:128,1,63.7500024318696,10|2,0:2|0:0,0:0:0:0:
32,160,7210,2,0,L|40:312,1,127.500004863739,2|10,3:2|0:2,0:0:0:0:
102,349,7660,1,0,0:0:0:0:
102,349,7810,6,0,L|182:333,1,63.7500024318696,2|0,3:2|0:0,0:0:0:0:
240,256,8110,2,0,L|328:272,1,63.7500024318696,10|0,0:2|0:0,0:0:0:0:
88,192,8410,2,0,L|168:176,1,63.7500024318696,2|0,3:2|0:0,0:0:0:0:
272,112,8710,2,0,L|344:120,1,63.7500024318696,10|0,0:2|0:0,0:0:0:0:
400,384,9010,6,0,B|368:232|448:296|408:128,1,254.999992218018,6|0,3:2|0:0,0:0:0:0:
216,40,11410,6,0,P|155:108|96:97,1,152.999995330811,6|2,3:2|0:0,0:0:0:0:
36,30,11860,1,0,3:2:0:0:
9,222,12010,2,0,P|46:206|87:205,1,76.4999976654053,10|2,0:0|3:2,0:0:0:0:
159,267,12310,1,0,0:0:0:0:
253,155,12460,6,0,B|232:229|279:216|255:316,1,152.999995330811,10|10,0:0|0:0,0:0:0:0:
340,158,12910,1,0,3:2:0:0:
340,158,13060,2,0,P|309:89|208:81,1,152.999995330811,2|2,3:2|3:2,0:0:0:0:
173,267,13510,1,2,0:0:0:0:
253,155,13660,1,10,0:0:0:0:
310,355,13810,6,0,B|228:327|242:396|145:359,1,152.999995330811,2|2,3:2|0:0,0:0:0:0:
76,225,14260,1,0,3:2:0:0:
76,225,14335,1,0,3:2:0:0:
76,225,14410,2,0,P|67:279|79:329,1,76.4999976654053,10|2,0:0|3:2,0:0:0:0:
173,267,14710,1,0,0:0:0:0:
159,121,14860,6,0,L|-3:140,1,152.999995330811,10|10,0:0|0:0,0:0:0:0:
156,26,15310,1,0,3:2:0:0:
156,26,15460,2,0,P|229:54|257:142,1,152.999995330811,2|2,3:2|3:2,0:0:0:0:
76,225,15910,1,2,0:0:0:0:
159,121,16060,1,10,0:0:0:0:
245,300,16210,6,0,P|300:312|371:235,1,152.999995330811,2|2,3:2|0:0,0:0:0:0:
421,110,16660,1,0,3:2:0:0:
421,110,16735,1,0,3:2:0:0:
421,110,16810,2,0,P|366:101|326:104,1,76.4999976654053,10|2,0:0|3:2,0:0:0:0:
252,161,17110,1,0,0:0:0:0:
154,33,17260,6,0,B|131:119|190:88|160:200,1,152.999995330811,10|10,0:0|0:0,0:0:0:0:
108,272,17710,1,2,3:2:0:0:
53,170,17860,1,2,3:2:0:0:
29,344,18010,1,10,0:0:0:0:
164,181,18160,1,2,0:0:0:0:
196,355,18310,1,10,0:0:0:0:
219,366,18385,1,8,0:0:0:0:
246,368,18460,1,10,0:0:0:0:
271,361,18535,1,8,0:0:0:0:
292,346,18610,6,0,L|284:212,1,127.500004863739,6|10,3:2|0:0,0:0:0:0:
336,112,19060,1,2,0:0:0:0:
419,186,19210,2,0,L|486:191,1,63.7500024318696,2|0,3:2|0:0,0:0:0:0:
355,11,19510,1,10,0:0:0:0:
251,143,19660,2,0,P|185:173|115:152,1,127.500004863739,2|2,0:0|0:0,0:0:0:0:
19,27,20110,2,0,L|11:115,1,63.7500024318696,10|2,0:0|0:0,0:0:0:0:
4,222,20410,1,2,3:2:0:0:
87,166,20560,1,2,0:0:0:0:
145,250,20710,2,0,L|217:259,1,63.7500024318696,10|2,0:0|0:0,0:0:0:0:
314,178,21010,5,2,3:2:0:0:
314,178,21160,1,2,0:0:0:0:
417,253,21310,2,0,P|425:294|413:343,1,63.7500024318696,10|2,0:0|0:0,0:0:0:0:
314,178,21610,1,2,3:2:0:0:
227,299,21760,2,0,B|149:297|177:358|86:338,1,127.500004863739,2|0,0:0|0:0,0:0:0:0:
34,373,22210,2,0,P|41:315|34:236,1,127.500004863739,0|8,3:2|0:0,0:0:0:0:
2,59,22810,1,2,3:2:0:0:
48,126,22960,1,2,0:0:0:0:
98,44,23110,1,10,0:0:0:0:
149,114,23260,1,2,0:0:0:0:
258,11,23410,6,0,B|291:41|291:41|268:145,1,127.500004863739,6|10,3:2|0:0,0:0:0:0:
180,237,23860,1,2,0:0:0:0:
85,122,24010,2,0,L|163:111,1,63.7500024318696,2|2,3:2|0:0,0:0:0:0:
256,283,24310,2,0,L|172:275,1,63.7500024318696,10|2,0:0|0:0,0:0:0:0:
324,339,24610,2,0,P|341:278|316:216,1,127.500004863739,2|10,3:2|0:0,0:0:0:0:
394,103,25060,2,0,L|245:118,1,127.500004863739,2|2,0:0|0:0,0:0:0:0:
137,2,25660,1,2,0:0:0:0:
137,2,25810,6,0,B|99:37|99:37|116:139,1,127.500004863739,2|10,3:2|0:0,0:0:0:0:
211,191,26260,1,0,0:0:0:0:
211,191,26410,2,0,L|198:279,1,63.7500024318696,2|2,3:2|0:0,0:0:0:0:
66,258,26710,2,0,L|75:333,1,63.7500024318696,10|0,0:0|0:0,0:0:0:0:
179,375,27010,2,0,P|206:337|304:328,1,127.500004863739,2|8,3:2|0:0,0:0:0:0:
409,384,27460,1,0,0:0:0:0:
409,384,27610,2,0,L|422:246,1,127.500004863739,2|8,3:2|0:0,0:0:0:0:
304,96,28210,6,0,P|244:76|175:102,1,127.500004863739,6|10,3:2|0:0,0:0:0:0:
96,112,28660,1,2,0:0:0:0:
30,47,28810,1,2,3:2:0:0:
6,137,28960,1,2,0:0:0:0:
118,25,29110,1,10,0:0:0:0:
176,176,29260,2,0,B|248:168|222:222|300:208,1,127.500004863739,2|2,0:0|0:0,0:0:0:0:
384,112,29710,2,0,L|393:193,1,63.7500024318696,10|2,0:0|0:0,0:0:0:0:
400,336,30010,1,2,3:2:0:0:
320,288,30160,1,2,0:0:0:0:
256,352,30310,2,0,L|186:356,1,63.7500024318696,10|2,0:0|0:0,0:0:0:0:
32,368,30610,5,2,3:2:0:0:
86,273,30760,2,0,P|96:202|66:141,1,127.500004863739,2|0,0:0|0:0,0:0:0:0:
11,72,31210,2,0,L|92:59,1,63.7500024318696,0|0,3:2|0:0,0:0:0:0:
149,7,31510,2,0,L|236:17,1,63.7500024318696,8|0,0:0|0:0,0:0:0:0:
352,128,31810,1,2,3:2:0:0:
419,69,31960,2,0,P|441:118|404:206,1,127.500004863739,2|0,0:0|0:0,0:0:0:0:
336,224,32410,2,0,L|348:306,1,63.7500024318696,0|0,3:2|0:0,0:0:0:0:
256,336,32710,1,10,0:0:0:0:
176,272,32860,1,0,0:0:0:0:
0,349,33010,6,0,P|55:377|112:353,1,127.500004863739,2|10,3:2|0:0,0:0:0:0:
174,185,33610,2,0,L|261:176,1,63.7500024318696,2|2,3:2|0:0,0:0:0:0:
320,256,33910,1,10,0:0:0:0:
320,256,34060,1,2,0:0:0:0:
434,212,34210,2,0,P|442:157|405:69,1,127.500004863739,2|10,3:2|0:0,0:0:0:0:
320,0,34660,1,0,0:0:0:0:
272,128,34810,2,0,L|141:133,1,127.500004863739,2|10,3:2|0:0,0:0:0:0:
64,16,35260,1,2,0:0:0:0:
24,136,35410,6,0,B|5:213|56:198|36:286,1,127.500004863739,2|8,3:2|0:0,0:0:0:0:
0,384,35860,1,2,0:0:0:0:
131,279,36010,2,0,P|194:261|264:285,1,127.500004863739,2|8,3:2|0:0,0:0:0:0:
336,368,36460,1,0,0:0:0:0:
421,261,36610,2,0,L|415:179,1,63.7500024318696,0|0,3:2|0:0,0:0:0:0:
300,111,36910,2,0,L|297:174,1,63.7500024318696,8|0,0:0|0:0,0:0:0:0:
434,349,37210,1,8,0:0:0:0:
340,330,37360,1,8,0:3:0:0:
265,373,37510,1,4,0:3:0:0:
265,373,37660,1,4,0:3:0:0:
202,303,37810,6,0,B|162:295|162:295|98:319,1,93.5000028533936,6|2,3:2|0:0,0:0:0:0:
35,344,38260,1,2,0:0:0:0:
35,344,38410,2,0,L|43:280,1,46.7500014266968,10|2,0:0|0:0,0:0:0:0:
97,230,38710,2,0,L|89:174,1,46.7500014266968,2|10,0:0|0:0,0:0:0:0:
40,120,39010,1,2,3:2:0:0:
40,120,39160,1,8,0:0:0:0:
103,58,39310,2,0,L|215:66,2,93.5000028533936,2|8|0,3:2|0:0|0:0,0:0:0:0:
284,8,40210,6,0,L|292:72,1,46.7500014266968,2|2,3:2|0:0,0:0:0:0:
357,109,40510,2,0,L|349:173,1,46.7500014266968,2|2,0:0|0:0,0:0:0:0:
272,189,40810,1,10,0:0:0:0:
272,189,40960,1,2,0:0:0:0:
323,259,41110,2,0,L|331:323,1,46.7500014266968,2|10,0:0|0:0,0:0:0:0:
363,384,41410,1,2,3:2:0:0:
363,384,41560,1,8,0:0:0:0:
419,327,41710,2,0,L|523:335,2,93.5000028533936,2|8|2,3:2|0:0|3:2,0:0:0:0:
232,360,42610,6,0,L|120:368,1,93.5000028533936,6|2,3:2|0:0,0:0:0:0:
27,260,43210,2,0,L|139:252,1,93.5000028533936,10|2,0:0|0:0,0:0:0:0:
195,252,43660,1,8,0:0:0:0:
195,252,43810,2,0,L|187:188,2,46.7500014266968,2|8|2,3:2|0:0|3:2,0:0:0:0:
284,362,44410,2,0,P|316:338|380:338,1,93.5000028533936,10|2,0:0|0:0,0:0:0:0:
450,369,44860,1,8,0:0:0:0:
450,369,45010,6,0,L|442:257,1,93.5000028533936,2|0,3:2|0:0,0:0:0:0:
383,212,45460,1,2,0:0:0:0:
383,212,45610,2,0,L|391:108,1,93.5000028533936,0|2,0:0|0:0,0:0:0:0:
339,44,46060,1,10,0:0:0:0:
339,44,46210,2,0,L|283:52,2,46.7500014266968,2|8|0,3:2|0:0|3:2,0:0:0:0:
252,186,46810,1,8,0:0:0:0:
184,56,47110,2,0,L|120:56,1,46.7500014266968,0|8,3:2|0:0,0:0:0:0:
55,53,47410,6,0,L|63:109,1,46.7500014266968,6|2,3:2|0:0,0:0:0:0:
133,142,47710,2,0,L|117:198,1,46.7500014266968,2|2,0:0|0:0,0:0:0:0:
49,238,48010,1,10,0:0:0:0:
49,238,48160,2,0,L|65:342,1,93.5000028533936,2|8,0:0|0:0,0:0:0:0:
131,384,48610,2,0,P|155:360|219:360,1,93.5000028533936,2|2,3:2|3:2,0:0:0:0:
298,384,49060,1,2,0:0:0:0:
298,384,49210,2,0,L|402:368,1,93.5000028533936,10|2,0:0|0:0,0:0:0:0:
501,280,49810,6,0,L|485:176,1,93.5000028533936,2|0,3:2|0:0,0:0:0:0:
350,231,50410,2,0,L|366:119,1,93.5000028533936,10|2,0:0|0:0,0:0:0:0:
304,70,50860,1,8,0:0:0:0:
304,70,51010,2,0,L|256:78,2,46.7500014266968,2|0|0,3:2|0:0|3:2,0:0:0:0:
464,56,51610,1,10,0:0:0:0:
304,70,51910,1,2,3:2:0:0:
430,260,52210,5,6,3:2:0:0:
380,40,52510,1,8,0:0:0:0:
319,297,52810,5,10,0:0:0:0:
380,40,53110,1,8,0:0:0:0:
440,348,53410,5,10,0:0:0:0:
403,140,53560,1,8,0:0:0:0:
284,339,53710,5,10,0:0:0:0:
328,129,53860,1,8,0:0:0:0:
411,333,54010,5,10,0:0:0:0:
323,97,54160,1,8,0:0:0:0:
392,304,54310,5,10,0:0:0:0:
436,42,54460,1,8,0:0:0:0:
272,212,54610,6,0,L|234:217,3,23.3750007133484,10|8|8|8,0:0|0:0|0:0|0:0,0:0:0:0:
190,172,54910,2,0,L|156:170,3,23.3750007133484,8|8|10|8,0:0|0:0|0:0|0:0,0:0:0:0:
117,232,55210,2,0,L|80:236,3,23.3750007133484,8|8|8|8,0:0|0:0|0:0|0:0,0:0:0:0:
42,309,55510,2,0,L|46:344,3,23.3750007133484,10|8|8|8,0:0|0:0|0:0|0:0,0:0:0:0:
9,226,55810,6,0,L|20:83,1,136,6|0,3:2|0:0,0:0:0:0:
141,6,56710,6,0,L|161:6,5,11.3333333333333,2|0|0|2|0|0,0:0|0:0|0:0|0:0|0:0|0:0,0:0:0:0:
180,28,57010,5,6,3:2:0:0:
213,185,57160,1,2,0:0:0:0:
322,25,57310,1,10,0:0:0:0:
306,233,57460,1,2,0:0:0:0:
159,115,57610,2,0,P|200:100|249:109,1,85,2|0,3:2|0:0,0:0:0:0:
306,233,57910,1,8,0:0:0:0:
159,282,58060,6,0,L|63:268,1,85,2|0,0:0|3:2,0:0:0:0:
213,185,58360,1,2,0:0:0:0:
258,358,58510,1,10,0:0:0:0:
332,132,58660,1,2,0:0:0:0:
159,282,58810,2,0,L|63:268,1,85,2|0,3:2|0:0,0:0:0:0:
28,82,59110,2,0,L|112:94,1,85,10|0,0:0|0:0,0:0:0:0:
306,233,59410,6,0,P|318:287|299:339,1,85,2|0,3:2|0:0,0:0:0:0:
198,152,59710,2,0,P|186:98|205:46,1,85,10|0,0:0|0:0,0:0:0:0:
324,233,60010,6,0,P|341:287|315:339,1,85,2|0,3:2|0:0,0:0:0:0:
179,152,60310,2,0,P|162:97|188:46,1,85,10|0,0:0|0:0,0:0:0:0:
223,277,60610,6,0,B|131:254|136:341|30:286,1,170,2|8,3:2|0:0,0:0:0:0:
0,173,61060,1,0,0:0:0:0:
85,64,61210,2,0,L|178:72,1,85,2|0,3:2|0:0,0:0:0:0:
306,205,61510,2,0,L|195:190,1,85,10|0,0:0|0:0,0:0:0:0:
390,112,61810,6,0,P|428:182|404:276,1,170,6|10,3:2|0:0,0:0:0:0:
289,353,62260,2,0,P|211:322|116:332,1,170,2|2,0:0|0:0,0:0:0:0:
16,382,62710,1,8,0:0:0:0:
119,227,62860,6,0,P|122:173|105:122,1,85,2|0,0:0|3:2,0:0:0:0:
37,62,63160,1,2,0:0:0:0:
207,142,63310,2,0,L|300:131,1,85,10|2,0:0|0:0,0:0:0:0:
436,20,63610,2,0,B|409:107|470:93|445:199,1,170,2|10,3:2|0:0,0:0:0:0:
404,332,64060,1,0,0:0:0:0:
281,191,64210,6,0,P|326:156|386:152,1,85,6|0,3:2|0:0,0:0:0:0:
278,318,64510,2,0,P|226:305|182:264,1,85,10|0,0:0|0:0,0:0:0:0:
158,87,64810,2,0,P|172:138|159:197,1,85,2|0,3:2|0:0,0:0:0:0:
24,299,65110,2,0,P|61:260|118:242,1,85,10|0,0:0|0:0,0:0:0:0:
295,342,65410,6,0,L|279:133,1,170,2|8,3:2|0:0,0:0:0:0:
225,31,65860,1,2,0:0:0:0:
169,169,66010,2,0,P|116:179|70:164,1,85,2|0,3:2|0:0,0:0:0:0:
260,14,66310,2,0,P|313:4|359:19,1,85,8|0,0:0|0:0,0:0:0:0:
397,255,66610,5,6,3:2:0:0:
301,88,66760,1,2,0:0:0:0:
254,281,66910,1,10,0:0:0:0:
375,129,67060,1,2,0:0:0:0:
452,324,67210,2,0,P|398:341|356:325,1,85,2|0,3:2|0:0,0:0:0:0:
299,170,67510,1,8,0:0:0:0:
160,255,67660,6,0,L|170:359,1,85,2|0,0:0|3:2,0:0:0:0:
254,281,67960,1,2,0:0:0:0:
75,230,68110,1,10,0:0:0:0:
256,375,68260,1,2,0:0:0:0:
106,154,68410,2,0,P|52:152|8:184,1,85,2|0,3:2|0:0,0:0:0:0:
254,281,68710,2,0,P|308:283|352:251,1,85,10|0,0:0|0:0,0:0:0:0:
290,110,69010,6,0,L|282:202,1,85,2|0,3:2|0:0,0:0:0:0:
133,44,69310,2,0,L|141:136,1,85,10|0,0:0|0:0,0:0:0:0:
374,98,69610,2,0,L|366:190,1,85,2|0,3:2|0:0,0:0:0:0:
52,87,69910,2,0,L|60:179,1,85,10|0,0:0|0:0,0:0:0:0:
11,365,70210,6,0,P|48:323|188:317,1,170,2|8,3:2|0:0,0:0:0:0:
264,364,70660,1,0,0:0:0:0:
414,263,70810,2,0,L|407:153,1,85,2|0,3:2|0:0,0:0:0:0:
261,37,71110,2,0,L|270:157,1,85,10|0,0:0|0:0,0:0:0:0:
284,287,71410,6,0,B|188:255|212:343|84:295,1,170,6|10,3:2|0:0,0:0:0:0:
138,135,71860,2,0,P|155:193|143:235,1,85,2|0,0:0|3:2,0:0:0:0:
60,186,72160,1,2,0:0:0:0:
267,121,72310,1,10,0:0:0:0:
47,0,72460,6,0,L|61:89,1,85,2|0,0:0|3:2,0:0:0:0:
121,306,72760,1,2,0:0:0:0:
222,141,72910,2,0,L|133:134,1,85,10|2,0:0|0:0,0:0:0:0:
261,259,73210,2,0,L|345:265,1,85,2|0,3:2|0:0,0:0:0:0:
181,215,73510,2,0,P|171:269|188:313,1,85,10|0,0:0|0:0,0:0:0:0:
273,383,73810,6,0,B|223:346|223:346|80:362,1,170,2|8,3:2|0:0,0:0:0:0:
28,195,74260,2,0,B|8:274|60:279|22:368,1,170,2|0,0:0|0:0,0:0:0:0:
99,129,74710,2,0,P|50:101|3:104,1,85,10|0,0:0|0:0,0:0:0:0:
114,222,75010,5,10,0:0:0:0:
245,95,75160,1,0,0:0:0:0:
258,332,75310,1,8,0:0:0:0:
186,177,75460,1,0,0:0:0:0:
200,369,75610,6,0,L|264:361,3,42.5,8|8|10|8,0:0|0:0|0:0|0:0,0:0:0:0:
320,316,75910,2,0,L|380:322,3,42.5,10|8|10|8,0:0|0:0|0:0|0:0,0:0:0:0:
232,278,76210,5,6,3:2:0:0:
381,224,76360,1,0,0:0:0:0:
245,174,76510,5,8,0:0:0:0:
451,280,76660,1,0,0:0:0:0:
336,109,76810,5,8,0:0:0:0:
416,356,76960,1,0,3:2:0:0:
432,84,77110,5,10,0:0:0:0:
320,353,77260,1,2,3:2:0:0:
248,92,77410,5,10,0:0:0:0:
510,196,77560,1,2,0:0:0:0:
214,207,77710,5,10,0:0:0:0:
473,94,77860,1,0,0:0:0:0:
190,76,78010,5,8,0:0:0:0:
413,183,78160,1,0,3:2:0:0:
217,285,78310,1,10,0:0:0:0:
315,41,78460,1,2,3:2:0:0:
328,314,78610,6,0,P|266:322|222:304,1,85,10|0,0:0|0:0,0:0:0:0:
102,132,78910,5,8,0:0:0:0:
166,370,79060,1,0,0:0:0:0:
189,102,79210,5,8,0:0:0:0:
57,376,79360,1,0,3:2:0:0:
34,66,79510,5,10,0:0:0:0:
119,303,79660,1,0,3:2:0:0:
274,79,79810,5,10,0:0:0:0:
22,179,79960,1,0,0:0:0:0:
322,209,80110,5,10,0:0:0:0:
102,132,80260,1,2,0:0:0:0:
349,30,80410,1,8,0:0:0:0:
228,302,80560,1,0,3:2:0:0:
134,39,80710,6,0,P|166:27|222:35,1,85,10|0,0:0|3:2,0:0:0:0:
159,339,81010,6,0,L|42:329,1,85,14|0,0:0|0:0,0:0:0:0:
184,106,81310,2,0,L|277:114,1,85,8|0,0:0|0:0,0:0:0:0:
489,284,81610,5,8,0:0:0:0:
302,114,81760,1,0,3:2:0:0:
351,371,81910,1,8,0:0:0:0:
429,95,82060,1,0,3:2:0:0:
187,268,82210,6,0,P|186:321|204:362,1,85,8|0,0:0|0:0,0:0:0:0:
472,290,82510,2,0,P|473:237|455:196,1,85,8|0,0:0|0:0,0:0:0:0:
218,49,82810,5,8,0:0:0:0:
310,298,82960,1,0,3:2:0:0:
368,21,83110,1,8,0:0:0:0:
250,216,83260,1,0,3:2:0:0:
452,124,83410,5,8,0:0:0:0:
164,213,83560,1,0,0:0:0:0:
428,213,83710,5,8,0:0:0:0:
133,126,83860,1,0,0:0:0:0:
462,22,84010,5,8,0:0:0:0:
216,138,84160,1,0,3:2:0:0:
481,148,84310,5,10,0:0:0:0:
186,59,84460,1,0,3:2:0:0:
449,315,84610,6,0,P|454:266|438:214,1,85,10|0,0:0|0:0,0:0:0:0:
146,214,84910,2,0,P|141:263|157:315,1,85,8|10,0:0|0:0,0:0:0:0:
292,378,85210,1,8,0:0:0:0:
354,166,85360,6,0,L|350:109,3,42.5,8|8|10|8,0:0|0:0|0:0|0:0,0:0:0:0:
278,60,85660,2,0,L|280:136,1,42.5,8|8,0:0|0:0,0:0:0:0:
286,336,85810,6,0,B|241:305|241:305|126:329,1,152.999995330811,6|2,3:2|0:0,0:0:0:0:
24,286,86260,1,0,3:2:0:0:
127,146,86410,2,0,L|135:252,1,76.4999976654053,10|2,0:0|3:2,0:0:0:0:
144,325,86710,1,0,0:0:0:0:
53,104,86860,6,0,P|89:70|128:63,1,76.4999976654053,10|0,0:0|3:2,0:0:0:0:
255,125,87160,2,0,P|207:110|181:80,1,76.4999976654053,10|0,0:0|3:2,0:0:0:0:
326,42,87460,2,0,B|352:92|352:92|339:204,1,152.999995330811,2|2,3:2|3:2,0:0:0:0:
325,297,87910,1,2,0:0:0:0:
458,151,88060,1,10,0:0:0:0:
373,367,88210,6,0,P|330:339|212:346,1,152.999995330811,2|2,3:2|0:0,0:0:0:0:
102,373,88660,1,0,3:2:0:0:
102,373,88735,1,0,3:2:0:0:
102,373,88810,2,0,L|115:274,1,76.4999976654053,10|2,0:0|3:2,0:0:0:0:
230,337,89110,1,0,0:0:0:0:
32,277,89260,6,0,B|21:226|21:226|38:170|38:170|25:101,1,152.999995330811,10|10,0:0|0:0,0:0:0:0:
1,27,89710,1,0,3:2:0:0:
192,135,89860,2,0,P|141:141|103:130,1,76.4999976654053,2|8,3:2|0:0,0:0:0:0:
142,25,90160,1,2,3:2:0:0:
247,214,90310,1,2,0:0:0:0:
328,21,90460,1,10,0:0:0:0:
155,228,90610,6,0,L|164:316,1,76.4999976654053,2|0,3:2|3:2,0:0:0:0:
263,370,90910,1,2,0:0:0:0:
356,274,91060,1,0,3:2:0:0:
356,274,91135,1,0,3:2:0:0:
356,274,91210,2,0,L|448:282,1,76.4999976654053,10|2,0:0|3:2,0:0:0:0:
506,212,91510,1,0,0:0:0:0:
281,124,91660,6,0,B|247:164|247:164|267:299,1,152.999995330811,10|10,0:0|0:0,0:0:0:0:
338,370,92110,1,2,3:2:0:0:
376,178,92260,1,2,0:0:0:0:
183,322,92410,1,10,0:0:0:0:
462,264,92560,1,10,0:0:0:0:
257,40,92710,1,10,0:0:0:0:
341,376,92860,1,10,0:0:0:0:
290,192,93535,6,0,L|328:192,2,38.2499988327027
256,192,93797,1,0,0:0:0:0:
257,191,94810,5,0,0:0:0:0:
256,192,94885,12,0,100210,0:0:0:0:
