osu file format v14

[General]
AudioFilename: audio.mp3
AudioLeadIn: 0
PreviewTime: 56710
Countdown: 0
SampleSet: Soft
StackLeniency: 0.7
Mode: 0
LetterboxInBreaks: 0
WidescreenStoryboard: 0

[Editor]
Bookmarks: 6385
DistanceSpacing: 1.2
BeatDivisor: 8
GridSize: 8
TimelineZoom: 3.299999

[Metadata]
Title:Kimi no Bouken (Short Ver.)
TitleUnicode:キミの冒険 (Short Ver.)
Artist:Will Stetson
ArtistUnicode:Will Stetson
Creator:GreenHue
Version:Expert
Source:ポケットモンスター サン&ムーン
Tags:pokemon pokémon pocket monsters sun and moon opening op your adventure nintendo the game Dictate fiery rage fieryrage lit120 Error- Haruto xlolicore- lolicore reform kujin canderos quanhitter38 thievley im hide imhide coppertine mun only biscuit onlybiscuit
BeatmapID:1927720
BeatmapSetID:923122

[Difficulty]
HPDrainRate:3
CircleSize:4.5
OverallDifficulty:9
ApproachRate:9.6
SliderMultiplier:1.8
SliderTickRate:1

[Events]
//Background and Video events
0,0,"pkmnbg.jpg",0,0
//Break Periods
//Storyboard Layer 0 (Background)
//Storyboard Layer 1 (Fail)
//Storyboard Layer 2 (Pass)
//Storyboard Layer 3 (Foreground)
//Storyboard Sound Samples

[TimingPoints]
610,300,4,2,1,45,1,0
610,-144.927536231884,4,2,1,45,0,0
5410,-117.647058823529,4,2,1,55,0,0
7810,-117.647058823529,4,2,1,60,0,0
9010,-181.818181818181,4,2,1,65,0,0
9460,-181.818181818181,4,2,1,35,0,0
9610,-399.999999999995,4,2,1,35,0,0
11410,-111.111111111111,4,2,1,65,0,0
18610,-125,4,2,1,55,0,0
37810,-125,4,2,1,45,0,0
52210,-125,4,2,1,50,0,0
57010,-90.9090909090909,4,2,1,69,0,1
76210,-90.9090909090909,4,2,1,69,0,0
85810,-111.111111111111,4,2,1,69,0,0

[Colours]
Combo1 : 244,231,164
Combo2 : 156,234,134
Combo3 : 81,210,238
Combo4 : 250,182,196

[HitObjects]
111,237,610,5,2,0:0:0:0:
274,232,760,1,0,0:0:0:0:
139,342,910,1,2,0:0:0:0:
246,339,1060,1,0,0:0:0:0:
91,212,1210,2,0,P|80:154|60:85,1,124.200000189514,2|2,0:0|0:0,0:0:0:0:
195,8,1660,6,0,P|253:2|326:0,1,124.200000189514,2|2,0:0|0:0,0:0:0:0:
446,65,2110,1,2,0:0:0:0:
328,134,2260,1,0,0:0:0:0:
441,234,2410,2,0,P|446:265|452:296,1,62.1000000947571,2|0,0:0|0:0,0:0:0:0:
325,161,2710,2,0,P|323:191|314:222,1,62.1000000947571,2|0,0:0|0:0,0:0:0:0:
85,333,3010,6,0,P|133:328|175:318,1,62.1000000947571,2|0,0:0|0:0,0:0:0:0:
306,246,3310,2,0,P|262:243|216:231,1,62.1000000947571,2|0,0:0|0:0,0:0:0:0:
90,138,3610,2,0,P|113:167|146:187,1,62.1000000947571,2|0,0:0|0:0,0:0:0:0:
333,105,3910,2,0,P|305:119|276:128,1,62.1000000947571,2|2,0:0|0:0,0:0:0:0:
96,3,4210,6,0,P|142:26|221:30,1,124.200000189514,0|2,0:0|0:0,0:0:0:0:
299,1,4660,1,0,0:0:0:0:
500,28,4810,2,0,P|526:112|481:201,1,186.300000284271,2|0,0:0|0:0,0:0:0:0:
346,222,5410,6,0,P|319:200|291:161,1,76.5000014591217,0|0,1:0|0:0,0:0:0:0:
402,106,5710,1,8,0:0:0:0:
511,307,5860,2,0,P|443:293|358:328,1,153.000002918243,0|0,0:0|0:0,0:0:0:0:
313,384,6310,1,8,0:0:0:0:
176,136,6460,6,0,P|188:211|191:287,1,153.000002918243,0|0,0:0|0:0,0:0:0:0:
164,384,6910,1,8,0:0:0:0:
95,244,7060,1,0,0:0:0:0:
295,255,7210,2,0,P|325:231|365:190,1,76.5000014591217,0|0,1:0|0:0,0:0:0:0:
461,114,7510,2,0,P|425:100|369:85,1,76.5000014591217,8|0,0:0|0:0,0:0:0:0:
255,49,7810,6,0,P|260:86|276:142,1,76.5000014591217,0|2,1:0|0:0,0:0:0:0:
450,222,8110,2,0,P|454:178|463:133,1,76.5000014591217,8|2,0:0|0:0,0:0:0:0:
240,78,8410,2,0,P|245:115|261:171,1,76.5000014591217,0|2,1:0|0:0,0:0:0:0:
466,255,8710,2,0,P|469:216|475:179,1,76.5000014591217,8|2,0:0|0:0,0:0:0:0:
158,272,9010,6,0,P|215:271|313:278,1,148.50000453186,4|0,1:0|0:0,0:0:0:0:
113,377,9610,2,0,P|106:249|98:144,1,225,0|0,0:0|0:0,0:0:0:0:
5,231,11410,5,4,1:0:0:0:
5,231,11560,1,0,1:0:0:0:
186,95,11710,2,0,P|180:49|172:9,1,80.9999975280763,2|0,0:0|0:0,0:0:0:0:
287,217,11935,1,0,0:0:0:0:
287,217,12010,2,0,P|283:260|279:315,2,80.9999975280763,8|0|0,0:0|0:0|1:0,0:0:0:0:
460,129,12460,6,0,P|372:120|269:104,1,161.999995056153,8|8,0:0|0:0,0:0:0:0:
396,20,12910,1,0,1:0:0:0:
380,299,13060,2,0,P|433:240|512:227,1,161.999995056153,0|0,0:0|0:0,0:0:0:0:
371,328,13510,1,0,1:0:0:0:
295,138,13660,1,2,0:0:0:0:
489,329,13810,5,4,1:0:0:0:
489,329,13960,1,0,1:0:0:0:
260,384,14110,2,0,P|252:346|246:279,1,80.9999975280763,2|0,0:0|0:0,0:0:0:0:
115,104,14335,1,0,0:0:0:0:
115,104,14410,2,0,P|113:142|104:193,2,80.9999975280763,8|0|0,0:0|0:0|1:0,0:0:0:0:
0,295,14860,6,0,P|82:285|161:279,1,161.999995056153,8|8,0:0|0:0,0:0:0:0:
11,145,15310,1,0,1:0:0:0:
277,33,15460,2,0,P|232:82|229:180,1,161.999995056153,0|0,0:0|0:0,0:0:0:0:
456,267,15910,1,0,1:0:0:0:
333,126,16060,1,2,0:0:0:0:
338,303,16210,5,4,1:0:0:0:
338,303,16360,1,0,1:0:0:0:
454,127,16510,2,0,P|447:87|439:44,1,80.9999975280763,2|0,0:0|0:0,0:0:0:0:
226,173,16735,1,0,0:0:0:0:
226,173,16810,2,0,P|222:214|219:257,2,80.9999975280763,8|0|0,0:0|0:0|1:0,0:0:0:0:
0,46,17260,6,0,P|46:43|134:115,1,161.999995056153,8|8,0:0|0:0,0:0:0:0:
80,287,17710,1,0,1:0:0:0:
29,150,17860,1,0,0:0:0:0:
219,253,18010,1,8,1:0:0:0:
234,65,18160,1,0,0:0:0:0:
75,328,18310,2,0,L|71:369,1,40.4999987640381,0|0,1:0|0:0,0:0:0:0:
33,107,18460,2,0,L|38:67,1,40.4999987640381,0|0,0:0|0:0,0:0:0:0:
198,348,18610,6,0,P|277:333|315:261,1,144,4|8,1:0|0:0,0:0:0:0:
308,174,19060,1,2,0:0:0:0:
419,288,19210,2,0,P|424:250|428:189,1,72,0|2,1:0|0:0,0:0:0:0:
434,109,19510,1,8,0:0:0:0:
219,253,19660,6,0,P|206:182|195:110,1,144,2|2,0:0|0:0,0:0:0:0:
185,26,20110,1,8,0:0:0:0:
106,179,20260,1,2,0:0:0:0:
13,107,20410,2,0,P|10:77|14:28,1,72,0|2,1:0|0:0,0:0:0:0:
110,202,20710,2,0,P|112:231|112:275,1,72,8|2,0:0|0:0,0:0:0:0:
14,384,21010,6,0,P|47:378|90:373,1,72,0|2,1:0|0:0,0:0:0:0:
212,283,21310,2,0,P|177:284|136:279,1,72,8|2,0:0|0:0,0:0:0:0:
320,232,21610,1,0,1:0:0:0:
310,351,21760,1,2,0:0:0:0:
436,217,21910,1,8,0:0:0:0:
462,341,22060,1,2,0:0:0:0:
315,211,22210,5,0,1:0:0:0:
301,339,22360,1,2,0:0:0:0:
444,196,22510,1,8,0:0:0:0:
471,328,22660,1,2,0:0:0:0:
312,182,22810,2,0,P|310:142|324:97,1,72,0|2,1:0|0:0,0:0:0:0:
214,293,23110,2,0,P|167:318|118:317,1,72,8|2,0:0|0:0,0:0:0:0:
69,169,23410,6,0,P|138:154|224:146,1,144,4|8,1:0|0:0,0:0:0:0:
148,242,23860,1,2,0:0:0:0:
47,149,24010,2,0,P|42:111|40:63,1,72,0|2,1:0|0:0,0:0:0:0:
179,0,24310,2,0,P|174:34|173:71,1,72,8|2,0:0|0:0,0:0:0:0:
283,222,24610,6,0,P|345:188|380:126,1,144,0|8,1:0|0:0,0:0:0:0:
509,13,25060,2,0,P|504:65|501:156,1,144,2|2,0:0|0:0,0:0:0:0:
414,256,25510,1,8,0:0:0:0:
382,108,25660,1,2,0:0:0:0:
286,259,25810,6,0,P|288:294|293:331,1,72,0|2,1:0|0:0,0:0:0:0:
149,303,26110,2,0,P|153:267|155:231,1,72,8|2,0:0|0:0,0:0:0:0:
7,157,26410,2,0,P|37:154|80:143,1,72,0|2,1:0|0:0,0:0:0:0:
235,52,26710,2,0,P|198:50|150:44,1,72,8|2,0:0|0:0,0:0:0:0:
282,149,27010,6,0,P|338:96|344:28,1,144,0|8,1:0|0:0,0:0:0:0:
235,52,27460,1,2,0:0:0:0:
399,236,27610,2,0,P|327:240|255:250,1,144,0|8,1:0|0:0,0:0:0:0:
95,174,28210,6,0,P|99:233|99:317,1,144,4|8,1:0|0:0,0:0:0:0:
191,368,28660,1,2,0:0:0:0:
234,254,28810,1,0,1:0:0:0:
316,353,28960,2,0,P|370:344|436:346,1,108,2|0,0:0|0:0,0:0:0:0:
458,348,29260,6,0,P|457:314|462:248,1,72,2|0,0:0|1:0,0:0:0:0:
462,180,29560,1,2,0:0:0:0:
339,248,29710,2,0,L|325:150,1,72,8|2,0:0|0:0,0:0:0:0:
450,24,30010,1,0,1:0:0:0:
392,110,30160,1,2,0:0:0:0:
306,23,30310,1,8,0:0:0:0:
238,116,30460,1,2,0:0:0:0:
85,11,30610,6,0,P|118:55|128:85,1,72,0|2,1:0|0:0,0:0:0:0:
11,165,30910,1,8,0:0:0:0:
31,79,31060,1,2,0:0:0:0:
163,171,31210,1,0,1:0:0:0:
142,89,31360,1,2,0:0:0:0:
0,163,31510,1,8,0:0:0:0:
20,77,31660,1,2,0:0:0:0:
167,180,31810,6,0,P|172:216|164:264,1,72,0|2,1:0|0:0,0:0:0:0:
13,269,32110,2,0,P|41:246|87:229,1,72,8|2,0:0|0:0,0:0:0:0:
157,368,32410,2,0,P|123:354|85:323,1,72,0|2,1:0|0:0,0:0:0:0:
267,174,32710,2,0,P|264:227|256:286,1,108,8|0,0:0|0:0,0:0:0:0:
255,320,33010,6,0,P|298:316|358:311,1,72,0|2,1:0|0:0,0:0:0:0:
494,241,33310,2,0,P|458:237|422:234,1,72,8|2,0:0|0:0,0:0:0:0:
427,52,33610,1,0,1:0:0:0:
452,157,33760,1,2,0:0:0:0:
323,109,33910,1,8,0:0:0:0:
310,210,34060,1,2,0:0:0:0:
201,68,34210,6,0,P|212:97|221:153,1,72,0|2,1:0|0:0,0:0:0:0:
78,206,34510,2,0,P|83:170|98:137,1,72,8|2,0:0|0:0,0:0:0:0:
214,64,34810,2,0,P|225:93|234:149,1,72,0|2,1:0|0:0,0:0:0:0:
67,204,35110,2,0,P|72:168|87:135,1,72,8|2,0:0|0:0,0:0:0:0:
314,213,35410,6,0,P|246:221|160:227,1,144,0|8,1:0|0:0,0:0:0:0:
95,296,35860,1,2,0:0:0:0:
170,360,36010,2,0,P|207:355|271:357,1,72,0|2,1:0|0:0,0:0:0:0:
74,301,36310,2,0,P|37:306|-27:304,1,72,8|2,0:0|0:0,0:0:0:0:
81,134,36610,5,0,1:0:0:0:
38,210,36760,1,2,0:0:0:0:
186,201,36910,2,0,P|184:143|189:82,1,108,8|0,0:0|0:0,0:0:0:0:
199,63,37210,2,0,P|236:63|270:57,1,72,0|2,1:0|0:0,0:0:0:0:
431,115,37510,2,0,P|391:116|358:122,1,72,2|2,0:0|0:0,0:0:0:0:
283,204,37810,5,0,1:0:0:0:
298,290,37960,1,0,0:0:0:0:
446,241,38110,2,0,P|412:237|343:235,1,72,2|0,0:0|0:0,0:0:0:0:
206,319,38410,2,0,P|242:320|278:321,1,72,8|0,0:0|0:0,0:0:0:0:
448,224,38710,2,0,P|414:220|345:218,1,72,0|0,0:0|1:0,0:0:0:0:
179,120,39010,6,0,P|251:117|331:110,1,144,2|0,1:0|1:0,0:0:0:0:
376,20,39460,1,0,0:0:0:0:
259,208,39610,1,8,0:0:0:0:
0,28,40060,1,8,0:0:0:0:
67,98,40210,6,0,P|70:133|69:179,1,72,0|0,1:0|0:0,0:0:0:0:
229,73,40510,2,0,P|197:58|157:34,1,72,2|0,0:0|0:0,0:0:0:0:
167,217,40810,2,0,P|195:196|236:174,2,72,8|0|0,0:0|0:0|0:0,0:0:0:0:
249,280,41260,1,0,1:0:0:0:
11,339,41410,6,0,P|108:324|177:317,1,144,2|0,1:0|1:0,0:0:0:0:
216,384,41860,1,0,0:0:0:0:
61,241,42010,1,8,0:0:0:0:
291,21,42310,2,0,P|296:61|307:118,1,72,0|8,0:0|0:0,0:0:0:0:
164,173,42610,6,0,B|218:139|281:172|261:162|274:182|274:160|261:176|281:172|321:215|402:170,1,216,0|0,1:0|0:0,0:0:0:0:
428,71,43210,2,0,P|425:35|425:-7,1,72,8|0,0:0|0:0,0:0:0:0:
510,171,43510,2,0,P|511:203|512:242,1,72,0|0,0:0|1:0,0:0:0:0:
436,357,43810,6,0,P|415:298|397:274,1,72,2|0,1:0|0:0,0:0:0:0:
341,191,44110,2,0,P|324:222|315:257,1,72,0|0,1:0|0:0,0:0:0:0:
232,343,44410,2,0,P|162:332|90:342,1,144,8|0,0:0|0:0,0:0:0:0:
9,366,44860,1,8,0:0:0:0:
3,166,45010,6,0,P|45:225|113:238,1,144,0|2,1:0|0:0,0:0:0:0:
193,170,45460,1,0,0:0:0:0:
102,0,45610,2,0,P|100:93|104:156,1,144,8|0,0:0|0:0,0:0:0:0:
279,213,46060,6,0,P|277:135|220:81,1,144,0|0,1:0|0:0,0:0:0:0:
193,170,46510,1,0,1:0:0:0:
296,14,46810,1,8,0:0:0:0:
512,181,47110,1,0,0:0:0:0:
491,269,47260,1,8,0:0:0:0:
414,171,47410,6,0,P|405:133|397:88,1,72,0|0,1:0|0:0,0:0:0:0:
302,209,47710,2,0,P|300:244|296:287,2,72,2|0|8,0:0|0:0|0:0,0:0:0:0:
287,89,48160,2,0,P|219:109|154:81,1,144,0|0,0:0|1:0,0:0:0:0:
34,31,48610,6,0,P|47:61|59:126,1,72,2|0,1:0|0:0,0:0:0:0:
73,269,48910,1,0,1:0:0:0:
106,179,49060,1,0,0:0:0:0:
191,347,49210,2,0,P|186:308|183:251,1,72,8|0,0:0|0:0,0:0:0:0:
343,324,49510,2,0,P|311:347|263:378,1,72,0|8,0:0|0:0,0:0:0:0:
227,175,49810,6,0,P|268:193|377:225,1,144,0|2,1:0|0:0,0:0:0:0:
264,279,50260,1,0,0:0:0:0:
512,59,50410,2,0,P|465:97|362:109,1,144,8|0,0:0|0:0,0:0:0:0:
413,15,50860,1,0,1:0:0:0:
463,194,51010,6,0,P|466:228|453:272,2,72,2|0|0,1:0|0:0|1:0,0:0:0:0:
275,62,51610,2,0,P|203:69|132:72,1,144,8|0,0:0|0:0,0:0:0:0:
189,206,52210,5,0,1:0:0:0:
120,57,52510,1,8,0:0:0:0:
103,286,52810,1,0,1:0:0:0:
13,61,53110,1,8,0:0:0:0:
210,224,53410,6,0,P|222:258|226:308,1,72,0|2,1:0|0:0,0:0:0:0:
214,73,53710,2,0,P|229:40|250:11,1,72,8|2,0:0|0:0,0:0:0:0:
54,171,54010,1,0,1:0:0:0:
326,168,54160,1,2,0:0:0:0:
91,304,54310,1,8,0:0:0:0:
177,55,54460,1,2,0:0:0:0:
301,294,54610,6,0,P|324:289|360:285,5,36,8|0|0|0|8|0,1:0|1:0|1:0|1:0|1:0|1:0,0:0:0:0:
422,308,55060,2,0,P|437:290|457:260,5,36,0|0|8|0|0|0,1:0|1:0|1:0|1:0|1:0|1:0,0:0:0:0:
509,178,55510,1,8,1:0:0:0:
474,189,55585,1,0,1:0:0:0:
438,189,55660,1,0,1:0:0:0:
405,174,55735,1,0,1:0:0:0:
381,146,55810,1,12,1:0:0:0:
70,20,56710,5,0,0:0:0:0:
71,34,56760,1,0,0:0:0:0:
72,47,56810,1,0,0:0:0:0:
73,61,56860,1,0,0:0:0:0:
74,75,56910,1,0,0:0:0:0:
76,89,56960,1,0,0:0:0:0:
77,102,57010,5,4,1:0:0:0:
110,279,57160,1,2,0:0:0:0:
207,98,57310,1,8,0:0:0:0:
116,305,57460,1,2,0:0:0:0:
415,145,57610,2,0,P|336:140|216:126,1,198.000006042481,0|8,1:0|0:0,0:0:0:0:
507,264,58060,6,0,P|405:244|338:285,1,148.50000453186,2|0,0:0|0:0,0:0:0:0:
345,282,58360,1,2,0:0:0:0:
324,106,58510,1,8,0:0:0:0:
430,340,58660,1,2,0:0:0:0:
446,125,58810,2,0,P|450:79|460:12,1,99.0000030212403,0|2,1:0|0:0,0:0:0:0:
236,262,59110,2,0,P|244:311|249:361,1,99.0000030212403,8|2,0:0|0:0,0:0:0:0:
114,41,59410,6,0,P|108:90|98:139,1,99.0000030212403,0|2,1:0|0:0,0:0:0:0:
343,200,59710,2,0,P|329:152|321:103,1,99.0000030212403,8|2,0:0|0:0,0:0:0:0:
130,244,60010,2,0,P|80:247|34:231,1,99.0000030212403,0|2,1:0|0:0,0:0:0:0:
277,18,60310,2,0,P|325:9|373:20,1,99.0000030212403,8|2,0:0|0:0,0:0:0:0:
266,263,60610,6,0,P|249:180|333:100,1,198.000006042481,0|8,1:0|0:0,0:0:0:0:
373,207,61060,1,2,0:0:0:0:
12,55,61210,2,0,B|138:36|90:116|209:92,1,198.000006042481,0|8,1:0|0:0,0:0:0:0:
180,0,61660,1,2,0:0:0:0:
44,147,61810,6,0,P|51:220|56:294,1,148.50000453186,4|0,1:0|0:0,0:0:0:0:
61,330,62110,1,8,0:0:0:0:
244,202,62260,2,0,P|295:196|409:295,1,198.000006042481,2|2,0:0|0:0,0:0:0:0:
282,326,62710,1,8,0:0:0:0:
508,94,62860,6,0,P|414:95|339:84,1,148.50000453186,2|0,0:0|0:0,0:0:0:0:
325,79,63160,1,2,0:0:0:0:
422,302,63310,1,8,0:0:0:0:
430,137,63460,1,2,0:0:0:0:
211,318,63610,2,0,P|260:311|307:324,1,99.0000030212403,0|2,1:0|0:0,0:0:0:0:
11,310,63910,2,0,P|72:290|113:258,1,99.0000030212403,8|2,0:0|0:0,0:0:0:0:
183,8,64211,6,0,P|183:57|174:108,1,99.0000030212403,0|0,1:0|0:0,0:0:0:0:
310,372,64510,2,0,P|304:322|314:268,1,99.0000030212403,8|2,0:0|0:0,0:0:0:0:
76,0,64810,2,0,P|81:48|68:97,1,99.0000030212403,0|2,1:0|0:0,0:0:0:0:
216,360,65110,2,0,P|210:310|226:249,1,99.0000030212403,8|2,0:0|0:0,0:0:0:0:
458,104,65410,6,0,P|388:108|269:107,1,148.50000453186,0|0,1:0|0:0,0:0:0:0:
276,106,65710,1,8,0:0:0:0:
389,22,65860,1,2,0:0:0:0:
345,215,66010,1,0,1:0:0:0:
248,0,66160,1,2,0:0:0:0:
271,261,66310,1,8,0:0:0:0:
395,1,66460,1,2,0:0:0:0:
467,250,66610,5,4,1:0:0:0:
189,191,66760,1,2,0:0:0:0:
507,161,66910,1,8,0:0:0:0:
256,279,67060,1,2,0:0:0:0:
456,52,67210,2,0,P|462:141|468:280,1,198.000006042481,0|8,1:0|0:0,0:0:0:0:
189,191,67660,6,0,P|282:172|363:238,1,198.000006042481,2|2,0:0|0:0,0:0:0:0:
256,279,68110,1,8,0:0:0:0:
359,85,68260,1,2,0:0:0:0:
381,356,68410,2,0,P|368:309|370:260,1,99.0000030212403,0|2,1:0|0:0,0:0:0:0:
177,71,68710,2,0,P|186:119|179:168,1,99.0000030212403,8|2,0:0|0:0,0:0:0:0:
89,258,69010,6,0,P|159:287|209:287,1,99.0000030212403,0|2,1:0|0:0,0:0:0:0:
446,179,69310,2,0,P|388:154|326:155,1,99.0000030212403,8|2,0:0|0:0,0:0:0:0:
209,377,69610,2,0,P|270:333|297:290,1,99.0000030212403,0|2,1:0|0:0,0:0:0:0:
330,39,69910,2,0,P|278:74|246:128,1,99.0000030212403,8|2,0:0|0:0,0:0:0:0:
482,274,70210,6,0,P|483:173|478:65,1,198.000006042481,0|8,1:0|0:0,0:0:0:0:
369,233,70660,1,2,0:0:0:0:
114,88,70810,2,0,P|205:103|254:213,1,198.000006042481,0|8,1:0|0:0,0:0:0:0:
174,246,71260,1,2,0:0:0:0:
410,0,71410,6,0,P|353:44|334:115,1,148.50000453186,4|0,1:0|0:0,0:0:0:0:
348,148,71710,1,8,0:0:0:0:
63,0,71860,2,0,P|166:8|261:10,1,198.000006042481,2|2,0:0|0:0,0:0:0:0:
334,115,72310,1,8,0:0:0:0:
64,262,72460,6,0,P|160:264|230:269,1,148.50000453186,2|0,0:0|0:0,0:0:0:0:
249,277,72760,1,2,0:0:0:0:
128,372,72910,1,8,0:0:0:0:
196,138,73060,1,2,0:0:0:0:
304,371,73210,2,0,P|357:364|430:364,1,99.0000030212403,0|2,1:0|0:0,0:0:0:0:
512,236,73510,2,0,P|457:236|386:229,1,99.0000030212403,8|2,0:0|0:0,0:0:0:0:
240,17,73810,6,0,P|312:76|302:201,1,198.000006042481,0|8,1:0|0:0,0:0:0:0:
160,250,74260,2,0,P|86:188|83:91,1,198.000006042481,2|2,0:0|0:0,0:0:0:0:
254,1,74710,2,0,P|325:54|333:90,1,99.0000030212403,8|2,0:0|0:0,0:0:0:0:
160,250,75010,1,0,1:0:0:0:
171,75,75160,1,2,0:0:0:0:
297,280,75310,1,8,0:0:0:0:
330,84,75460,1,2,0:0:0:0:
194,337,75610,5,0,1:0:0:0:
230,369,75685,1,0,1:0:0:0:
277,384,75760,1,0,1:0:0:0:
326,378,75835,1,0,1:0:0:0:
368,353,75910,1,8,1:0:0:0:
396,313,75985,1,0,1:0:0:0:
406,265,76060,1,0,1:0:0:0:
395,217,76135,1,0,1:0:0:0:
372,184,76210,5,8,1:0:0:0:
165,304,76360,1,0,1:0:0:0:
434,140,76510,5,8,1:0:0:0:
174,178,76660,1,0,1:0:0:0:
512,131,76810,5,8,1:0:0:0:
268,75,76960,1,0,1:0:0:0:
481,290,77110,5,8,1:0:0:0:
392,2,77260,1,0,1:0:0:0:
321,349,77410,5,8,1:0:0:0:
308,168,77560,1,0,1:0:0:0:
297,0,77710,5,8,1:0:0:0:
186,222,77860,1,0,1:0:0:0:
197,19,78010,5,8,1:0:0:0:
315,260,78160,1,0,1:0:0:0:
68,0,78310,5,8,1:0:0:0:
105,153,78460,1,0,1:0:0:0:
161,332,78610,6,0,P|104:337|28:330,1,99.0000030212403,8|0,1:0|1:0,0:0:0:0:
386,148,78910,2,0,P|443:143|519:150,1,99.0000030212403,8|0,1:0|1:0,0:0:0:0:
161,234,79210,6,0,P|104:239|28:232,1,99.0000030212403,8|0,1:0|1:0,0:0:0:0:
378,54,79510,2,0,P|435:49|511:56,1,99.0000030212403,8|0,1:0|1:0,0:0:0:0:
295,317,79810,6,0,P|283:221|271:118,1,198.000006042481,8|8,1:0|1:0,0:0:0:0:
256,0,80260,1,0,1:0:0:0:
192,228,80410,5,8,1:0:0:0:
364,31,80560,1,0,1:0:0:0:
379,309,80710,5,8,1:0:0:0:
409,49,80860,1,0,1:0:0:0:
160,112,81010,5,8,1:0:0:0:
456,67,81160,1,0,1:0:0:0:
118,111,81310,5,8,1:0:0:0:
414,156,81460,1,0,1:0:0:0:
75,109,81610,5,8,1:0:0:0:
371,64,81760,1,0,1:0:0:0:
28,104,81910,5,8,1:0:0:0:
325,146,82060,1,0,1:0:0:0:
133,8,82210,5,8,1:0:0:0:
162,269,82360,1,0,1:0:0:0:
295,6,82510,5,8,1:0:0:0:
245,270,82660,1,0,1:0:0:0:
133,8,82810,5,8,1:0:0:0:
163,291,82960,1,0,1:0:0:0:
295,6,83110,5,8,1:0:0:0:
246,292,83260,1,0,1:0:0:0:
152,58,83410,5,8,1:0:0:0:
287,357,83560,1,0,1:0:0:0:
78,101,83710,5,8,1:0:0:0:
346,293,83860,1,0,1:0:0:0:
25,174,84010,5,8,1:0:0:0:
354,205,84160,1,0,1:0:0:0:
25,264,84310,5,8,1:0:0:0:
324,125,84460,1,0,1:0:0:0:
57,355,84610,6,0,L|166:343,1,99.0000030212403,8|0,1:0|1:0,0:0:0:0:
234,103,84910,2,0,L|129:109,1,99.0000030212403,8|0,1:0|1:0,0:0:0:0:
470,306,85210,5,8,1:0:0:0:
472,246,85285,1,0,1:0:0:0:
432,201,85360,1,0,1:0:0:0:
372,199,85435,1,0,1:0:0:0:
325,235,85510,5,8,1:0:0:0:
378,223,85585,1,0,1:0:0:0:
412,180,85660,1,0,1:0:0:0:
415,125,85735,1,0,1:0:0:0:
394,85,85810,5,4,1:0:0:0:
381,307,85960,1,0,1:0:0:0:
192,146,86110,2,0,P|265:142|298:129,1,80.9999975280763,2|0,0:0|0:0,0:0:0:0:
141,269,86335,1,0,0:0:0:0:
141,269,86410,2,0,P|88:270|28:294,2,80.9999975280763,8|0|0,0:0|0:0|1:0,0:0:0:0:
91,0,86860,6,0,L|100:180,1,161.999995056153,8|8,0:0|0:0,0:0:0:0:
1,122,87310,1,0,1:0:0:0:
188,33,87460,2,0,P|273:28|387:24,1,161.999995056153,0|0,0:0|0:0,0:0:0:0:
345,238,87910,1,0,1:0:0:0:
269,134,88060,1,2,0:0:0:0:
407,127,88210,5,0,1:0:0:0:
407,127,88360,1,0,1:0:0:0:
244,319,88510,2,0,P|247:265|256:221,1,80.9999975280763,2|0,0:0|0:0,0:0:0:0:
434,152,88735,1,0,0:0:0:0:
434,152,88810,2,0,P|440:191|441:232,2,80.9999975280763,8|0|0,0:0|0:0|1:0,0:0:0:0:
145,221,89260,6,0,P|192:156|268:133,1,161.999995056153,8|8,0:0|0:0,0:0:0:0:
251,238,89710,1,0,1:0:0:0:
17,106,89860,2,0,P|90:91|210:57,1,161.999995056153,0|0,0:0|0:0,0:0:0:0:
81,0,90310,1,0,1:0:0:0:
65,191,90460,1,2,0:0:0:0:
274,43,90610,5,4,1:0:0:0:
274,43,90760,1,0,1:0:0:0:
400,145,90910,2,0,P|392:189|401:249,1,80.9999975280763,2|0,0:0|0:0,0:0:0:0:
328,313,91135,1,0,0:0:0:0:
328,313,91210,2,0,P|289:300|249:298,2,80.9999975280763,8|0|0,0:0|0:0|1:0,0:0:0:0:
138,374,91660,6,0,P|145:300|150:189,1,161.999995056153,8|0,0:0|0:0,0:0:0:0:
148,113,92110,1,0,1:0:0:0:
46,226,92260,1,0,0:0:0:0:
256,197,92410,1,0,1:0:0:0:
62,56,92560,1,0,0:0:0:0:
164,298,92710,1,0,1:0:0:0:
248,48,92860,1,0,0:0:0:0:
375,230,93535,6,0,L|415:234,2,40.4999987640381,0|0|0,0:0|0:0|0:0,0:0:0:0:
293,217,93797,1,0,0:0:0:0:
256,192,94810,12,0,102610,0:0:0:0:
