osu file format v14

[General]
AudioFilename: audio.mp3
AudioLeadIn: 0
PreviewTime:48941
Countdown: 0
SampleSet: Soft
StackLeniency: 0.7
Mode: 0
LetterboxInBreaks: 0
WidescreenStoryboard: 1

[Editor]
Bookmarks: 1476,20676,39876,49476,68676,87876,97476,116676,135876,176676
DistanceSpacing: 1.8
BeatDivisor: 3
GridSize: 32
TimelineZoom: 2.4

[Metadata]
Title:KOALA
TitleUnicode:KOALA
Artist:Will Stetson
ArtistUnicode:Will Stetson
Creator:Luscent
Version:Hard
Source:
Tags:ioexception niva english cover pop owc2023ro32hd2 owc 2023 ro32 hd1 hd2 featured artist fa osu world cup
BeatmapID:4411554
BeatmapSetID:2078554

[Difficulty]
HPDrainRate:4
CircleSize:4
OverallDifficulty:7
ApproachRate:8
SliderMultiplier:1.5
SliderTickRate:1

[Events]
//Background and Video events
0,0,"map_background.png",0,0
Video,-1099,"Koala_English_Self_Cover.mp4"
//Break Periods
2,155276,163926
//Storyboard Layer 0 (Background)
//Storyboard Layer 1 (Fail)
//Storyboard Layer 2 (Pass)
//Storyboard Layer 3 (Foreground)
//Storyboard Layer 4 (Overlay)
//Storyboard Sound Samples

[TimingPoints]
276,300,4,2,0,70,1,0
1476,300,4,2,0,70,1,0
20676,-100,4,2,0,60,0,0
39876,-100,4,2,0,65,0,0
47076,-100,4,2,0,75,0,0
49476,-100,4,2,0,80,0,0
69876,-100,4,2,0,60,0,0
87876,-100,4,2,0,65,0,0
95076,-100,4,2,0,75,0,0
97476,-100,4,2,0,80,0,0
116676,-100,4,2,0,75,0,0
126276,-100,4,2,0,90,0,0
127476,-100,4,2,0,70,0,0
128676,-100,4,2,0,90,0,0
129876,-100,4,2,0,70,0,0
131076,-100,4,2,0,75,0,0
135876,-100,4,2,0,80,0,0
164676,-111.111111111111,4,2,0,50,0,0
176076,-111.111111111111,4,2,0,70,0,0
176676,300,4,2,0,85,1,1
186276,-100,4,2,0,90,0,1
188676,-100,4,2,0,100,0,1
191076,-100,4,2,0,90,0,1
195876,-100,4,2,0,60,0,0
201276,-100,4,2,0,5,0,0

[Colours]
Combo1 : 17,254,176
Combo2 : 173,255,95
Combo3 : 255,88,100
Combo4 : 255,94,55

[HitObjects]
173,219,1026,5,4,0:3:0:0:
256,192,1176,1,0,1:0:0:0:
339,165,1326,1,4,0:3:0:0:
230,78,1476,6,0,B|215:118|230:161,2,75,4|0|2,3:2|0:0|1:2,0:0:0:0:
103,317,2076,2,0,B|197:303|248:365,1,150,2|2,3:2|1:2,0:0:0:0:
316,296,2526,1,2,0:0:0:0:
316,296,2676,2,0,B|301:251|315:204,1,75,0|0,3:0|0:0,0:0:0:0:
375,158,2976,1,0,1:0:0:0:
319,84,3126,2,0,B|255:78|214:130|236:185,1,150,0|0,1:0|0:0,0:0:0:0:
150,209,3576,2,0,B|62:175|76:88,1,150,0|0,1:0|3:0,0:0:0:0:
202,17,4176,5,0,1:0:0:0:
319,84,4476,2,0,B|327:117|316:185,1,75,2|0,3:2|0:0,0:0:0:0:
279,229,4776,1,2,1:2:0:0:
204,263,4926,2,0,B|281:250|270:284|363:269,1,150,2|0,0:0|0:0,0:0:0:0:
438,312,5376,1,0,1:0:0:0:
438,312,5526,2,0,B|492:251|466:172,1,150,0|0,1:0|0:0,0:0:0:0:
394,123,5976,1,0,1:0:0:0:
187,236,6276,6,0,B|150:251|103:242,2,75,0|2|0,3:0|0:0|1:0,0:0:0:0:
310,318,6876,1,2,3:2:0:0:
422,233,7176,1,0,1:0:0:0:
422,233,7326,2,0,B|397:153|416:75,1,150,2|2,0:0|0:0,0:0:0:0:
263,115,7926,1,0,1:0:0:0:
112,131,8226,2,0,B|76:91|84:43,1,75,2|0,0:0|1:0,0:0:0:0:
25,141,8526,5,2,0:0:0:0:
25,141,8601,1,2,0:0:0:0:
25,141,8676,2,0,B|-15:215|43:287,1,150,0|0,3:0|1:0,0:0:0:0:
195,235,9276,2,0,B|284:240|313:319,1,150,2|0,3:2|1:0,0:0:0:0:
385,246,9726,2,0,B|417:203|408:147,1,75,2|0,0:0|3:0,0:0:0:0:
346,135,10026,1,0,0:0:0:0:
342,60,10176,1,0,1:0:0:0:
402,15,10326,1,0,1:0:0:0:
249,108,10626,1,8,0:3:0:0:
249,108,10776,2,0,B|187:127|119:109,1,112.5,4|0,0:3|0:0,0:0:0:0:
105,87,11076,6,0,B|44:158|107:233,1,150,4|0,3:2|1:0,0:0:0:0:
32,290,11526,1,0,0:0:0:0:
32,290,11676,2,0,B|124:287|157:380,1,150,2|0,3:2|1:0,0:0:0:0:
217,298,12126,1,2,0:0:0:0:
217,298,12276,2,0,B|267:313|315:299,1,75,0|0,3:0|0:0,0:0:0:0:
375,326,12576,1,0,1:0:0:0:
426,248,12726,1,0,1:0:0:0:
234,152,13176,1,0,1:0:0:0:
397,43,13476,6,0,B|409:84|397:136,1,75,0|2,3:0|0:0,0:0:0:0:
343,184,13776,2,0,B|295:171|238:187,1,75,0|0,1:0|0:0,0:0:0:0:
188,153,14076,2,0,B|107:204|151:289,1,150,2|0,3:2|1:0,0:0:0:0:
233,294,14526,1,2,0:0:0:0:
308,332,14676,2,0,B|352:342|407:322,2,75,0|0|0,3:0|0:0|1:0,0:0:0:0:
309,249,15126,2,0,B|359:176|324:101,1,150,0|0,1:0|0:0,0:0:0:0:
257,54,15576,1,0,1:0:0:0:
81,126,15876,5,0,3:0:0:0:
130,194,16026,1,2,0:0:0:0:
210,163,16176,1,0,1:0:0:0:
319,263,16476,1,2,3:2:0:0:
456,197,16776,1,0,1:0:0:0:
456,197,16926,2,0,B|476:121|458:44,2,150,2|2|0,0:0|0:0|1:0,0:0:0:0:
373,325,17826,1,2,0:0:0:0:
373,325,17976,2,0,B|300:286|210:309,1,150,0|4,1:0|0:0,3:0:0:0:
159,248,18426,1,0,1:0:0:0:
198,173,18576,1,0,1:0:0:0:
166,101,18726,1,4,0:0:0:0:
347,185,19026,1,0,1:0:0:0:
416,136,19176,1,4,1:2:0:0:
237,70,20076,5,0,3:0:0:0:
196,95,20226,1,8,0:3:0:0:
148,96,20376,1,0,1:3:0:0:
103,76,20526,1,4,0:3:0:0:
31,98,20676,6,0,B|-6:172|44:251,1,150,4|0,3:2|1:0,0:0:0:0:
23,327,21126,1,0,0:0:0:0:
23,327,21276,2,0,B|69:311|130:315,1,75,0|0,3:0|0:0,0:0:0:0:
162,262,21576,2,0,B|220:318|304:293,1,150,0|0,1:0|3:0,0:0:0:0:
371,320,22026,1,0,0:0:0:0:
389,247,22176,1,0,1:0:0:0:
407,174,22326,1,0,1:0:0:0:
198,129,22626,5,0,0:0:0:0:
198,129,22776,2,0,B|154:137|104:132,2,75,0|0|0,1:0|0:0|3:0,0:0:0:0:
392,191,23376,1,0,1:0:0:0:
392,191,23526,1,0,0:0:0:0:
392,191,23676,2,0,B|427:113|395:38,1,150,0|0,3:0|1:0,0:0:0:0:
289,153,24276,1,0,3:0:0:0:
241,217,24426,2,0,B|228:260|244:318,1,75,0|0,0:0|1:0,0:0:0:0:
147,250,24726,2,0,B|88:190|2:205,1,150,0|0,1:0|3:0,0:0:0:0:
129,136,25176,2,0,L|168:68,1,75,0|0,1:0|3:0,0:0:0:0:
107,14,25476,5,0,3:0:0:0:
228,131,25776,1,0,1:0:0:0:
378,76,26076,1,0,3:0:0:0:
419,223,26376,1,0,1:0:0:0:
281,302,26676,6,0,B|273:247|284:200,2,75,0|0|0,3:0|0:0|1:0,0:0:0:0:
184,350,27126,2,0,B|201:279|179:179,1,150,0|0,1:0|0:0,0:0:0:0:
123,135,27576,1,0,1:0:0:0:
200,81,27726,1,0,0:0:0:0:
123,135,27876,6,0,B|102:84|118:32,1,75,0|0,3:0|0:0,0:0:0:0:
47,186,28176,2,0,B|76:212|75:278,1,75,0|0,1:0|0:0,0:0:0:0:
34,322,28476,1,0,3:0:0:0:
183,284,28776,1,0,1:0:0:0:
322,349,29076,1,0,3:0:0:0:
322,349,29226,2,0,B|397:295|370:214,1,150,0|0,0:0|1:0,0:0:0:0:
304,163,29676,2,0,B|263:181|216:168,2,75,0|8|8,3:0|3:0|3:0,0:0:0:0:
459,80,30276,5,4,3:2:0:0:
377,219,30576,1,0,1:0:0:0:
241,155,30876,1,0,3:0:0:0:
125,250,31176,1,0,1:0:0:0:
19,143,31476,2,0,B|0:100|5:51,2,75,0|0|0,3:0|0:0|1:0,0:0:0:0:
92,95,31926,2,0,B|184:92|193:189,1,150,0|0,1:0|0:0,0:0:0:0:
280,151,32376,1,0,1:0:0:0:
467,276,32676,6,0,B|456:229|468:190,1,75,0|0,3:0|0:0,0:0:0:0:
496,115,32976,1,0,1:0:0:0:
496,115,33126,1,0,0:0:0:0:
496,115,33276,2,0,B|389:104|379:191,1,150,0|0,3:0|1:0,0:0:0:0:
243,239,33876,1,0,3:0:0:0:
243,239,34026,2,0,B|164:191|192:111,1,150,0|0,0:0|1:0,0:0:0:0:
107,272,34626,1,2,0:0:0:0:
107,272,34776,2,0,B|68:293|15:300,1,75,0|2,1:2|0:0,0:0:0:0:
8,214,35076,5,0,3:0:0:0:
91,89,35376,1,0,1:0:0:0:
223,158,35676,1,0,3:0:0:0:
341,66,35976,1,0,1:0:0:0:
478,126,36276,2,0,B|492:85|483:40,2,75,0|0|0,3:0|0:0|1:0,0:0:0:0:
394,138,36726,2,0,B|306:163|326:257,1,150,0|0,1:0|0:0,0:0:0:0:
272,327,37176,2,0,B|322:342|376:327,1,75,0|0,1:0|0:0,0:0:0:0:
426,367,37476,6,0,B|466:283|417:209,1,150,0|0,3:0|1:0,0:0:0:0:
256,178,38076,2,0,B|188:225|97:201,1,150,0|0,3:0|1:0,0:0:0:0:
34,147,38526,1,0,0:0:0:0:
34,147,38676,2,0,B|6:101|16:56,1,75,0|0,3:0|0:0,0:0:0:0:
80,19,38976,1,0,1:0:0:0:
155,64,39126,1,0,1:0:0:0:
233,25,39276,2,0,B|273:37|329:26,1,75,0|2,3:0|0:0,0:0:0:0:
391,8,39576,1,2,1:2:0:0:
391,8,39876,6,0,B|437:74|393:156,1,150,6|0,3:2|1:0,0:0:0:0:
313,136,40326,1,2,0:0:0:0:
313,136,40401,1,2,0:0:0:0:
313,136,40476,2,0,B|244:194|282:277,1,150,0|0,3:0|1:0,0:0:0:0:
199,298,40926,1,2,0:0:0:0:
199,298,41001,1,2,0:0:0:0:
199,298,41076,2,0,B|113:284|104:181,1,150,0|0,3:0|1:0,0:0:0:0:
39,116,41526,2,0,B|76:127|133:111,1,75,0|0,1:0|3:0,0:0:0:0:
209,37,41826,2,0,B|172:26|115:42,1,75,0|0,0:0|1:0,0:0:0:0:
278,99,42126,1,0,0:0:0:0:
359,63,42276,5,2,3:2:0:0:
381,211,42576,1,0,1:0:0:0:
233,186,42876,1,0,3:0:0:0:
139,303,43176,1,0,1:0:0:0:
13,220,43476,2,0,B|-18:147|10:66,1,150,0|0,3:0|1:0,0:0:0:0:
85,90,43926,1,2,1:2:0:0:
85,90,44076,2,0,B|130:99|190:77,1,75,0|0,3:0|0:0,0:0:0:0:
222,127,44376,1,0,1:0:0:0:
364,81,44676,6,0,B|333:155|377:232,1,150,0|0,3:0|1:0,0:0:0:0:
313,271,45126,1,0,0:0:0:0:
264,328,45276,2,0,B|198:276|102:301,1,150,2|0,3:2|1:0,0:0:0:0:
130,222,45726,1,0,0:0:0:0:
82,164,45876,2,0,B|65:125|75:74,2,75,2|0|0,3:2|0:0|1:0,0:0:0:0:
157,134,46326,1,0,1:0:0:0:
231,161,46476,2,0,B|297:96|269:18,2,150,2|0|0,3:2|1:0|1:0,0:0:0:0:
249,302,47376,5,0,1:0:0:0:
231,161,47676,1,0,1:0:0:0:
249,302,47976,1,0,1:0:0:0:
231,161,48276,1,0,1:0:0:0:
249,302,49026,5,4,0:3:0:0:
249,302,49176,2,0,B|294:291|355:298,1,75,0|4,1:3|0:3,0:0:0:0:
404,327,49476,6,0,B|461:260|439:181,1,150,4|0,3:2|1:0,0:0:0:0:
385,127,49926,1,0,0:0:0:0:
385,127,50076,1,0,3:0:0:0:
249,173,50376,1,0,1:0:0:0:
122,134,50676,2,0,B|107:91|120:46,1,75,0|0,3:0|0:0,0:0:0:0:
29,150,50976,1,0,1:0:0:0:
29,150,51126,2,0,B|90:202|63:303,1,150,0|0,1:0|0:0,0:0:0:0:
139,332,51576,1,0,1:0:0:0:
326,238,51876,6,0,B|369:243|408:232,2,75,0|0|0,3:0|0:0|1:0,0:0:0:0:
250,273,52326,1,0,1:0:0:0:
250,273,52476,2,0,B|197:202|228:125,1,150,0|0,3:0|1:0,0:0:0:0:
375,92,53076,2,0,B|428:163|397:240,1,150,0|0,3:0|1:0,0:0:0:0:
464,291,53526,1,0,1:0:0:0:
333,355,53826,1,0,0:0:0:0:
333,355,53976,1,0,1:0:0:0:
205,296,54276,6,0,B|160:314|102:301,1,75,0|0,3:0|0:0,0:0:0:0:
65,259,54576,1,0,1:0:0:0:
117,196,54726,1,0,1:0:0:0:
67,128,54876,2,0,B|45:91|51:57,1,75,0|0,3:0|0:0,0:0:0:0:
134,66,55176,2,0,B|227:85|218:179,1,150,0|0,1:0|3:0,0:0:0:0:
355,222,55776,2,0,B|432:182|422:96,1,150,0|0,1:0|3:0,0:0:0:0:
294,21,56376,1,0,1:0:0:0:
247,165,56676,6,0,B|225:240|255:321,1,150,0|0,3:0|1:0,0:0:0:0:
157,297,57126,1,0,1:0:0:0:
157,297,57276,2,0,B|118:312|71:308,1,75,0|0,3:0|0:0,0:0:0:0:
15,252,57576,2,0,B|-4:171|79:124,1,150,0|0,1:0|3:0,0:0:0:0:
217,172,58176,1,0,1:0:0:0:
286,200,58326,1,0,1:0:0:0:
357,178,58476,2,0,B|390:141|381:92,1,75,0|8,3:0|0:3,0:0:0:0:
452,81,58776,1,0,1:0:0:0:
485,148,58926,1,4,3:3:0:0:
476,222,59076,6,0,B|375:214|350:299,1,150,4|0,3:2|1:0,0:0:0:0:
286,318,59526,1,0,0:0:0:0:
213,299,59676,2,0,B|150:241|183:155,2,150,0|0|0,3:0|1:0|3:0,0:0:0:0:
322,196,60576,1,0,1:0:0:0:
322,196,60726,2,0,B|360:126|336:41,1,150,0|0,1:0|0:0,0:0:0:0:
273,12,61176,1,0,1:0:0:0:
141,83,61476,5,0,3:0:0:0:
173,211,61776,2,0,B|190:252|176:302,1,75,0|0,1:0|1:0,0:0:0:0:
120,330,62076,2,0,B|45:285|68:188,1,150,0|0,3:0|1:0,0:0:0:0:
239,173,62676,2,0,B|287:186|334:171,1,75,0|0,3:0|0:0,0:0:0:0:
399,211,62976,1,0,1:0:0:0:
399,211,63126,2,0,B|451:142|427:61,1,150,0|0,1:0|0:0,0:0:0:0:
512,91,63576,1,0,1:0:0:0:
399,211,63876,5,0,3:0:0:0:
267,120,64176,2,0,B|232:135|168:127,1,75,0|0,1:0|0:0,0:0:0:0:
122,81,64476,1,0,3:0:0:0:
176,205,64776,1,0,1:0:0:0:
108,330,65076,2,0,B|188:291|267:319,1,150,0|0,3:0|1:0,0:0:0:0:
309,255,65526,1,0,1:0:0:0:
362,187,65676,2,0,B|347:144|359:87,2,75,0|0|0,3:0|0:0|1:0,0:0:0:0:
448,336,66276,6,0,B|510:277|482:195,1,150,4|0,3:2|1:0,0:0:0:0:
430,119,66726,2,0,B|368:178|396:260,1,150,4|0,3:2|1:0,0:0:0:0:
306,245,67176,1,4,1:2:0:0:
306,245,68076,6,0,B|267:262|222:255,2,75,0|8|0,3:0|0:3|1:0,0:0:0:0:
391,279,68526,1,4,0:3:0:0:
434,198,68676,1,4,0:2:0:0:
434,198,69876,6,0,B|375:136|405:54,1,150,4|0,3:2|1:0,0:0:0:0:
316,116,70326,2,0,B|276:135|221:122,1,75,0|0,1:0|3:0,0:0:0:0:
175,79,70626,1,0,0:0:0:0:
175,79,70776,2,0,B|145:113|156:164,1,75,0|0,1:0|0:0,0:0:0:0:
78,191,71076,6,0,B|-2:147|21:50,1,150,0|0,3:0|1:0,0:0:0:0:
78,191,71676,2,0,B|158:235|135:332,1,150,0|0,3:0|1:0,0:0:0:0:
284,283,72276,1,0,3:0:0:0:
284,283,72426,2,0,B|330:299|380:286,1,75,0|0,0:0|1:0,0:0:0:0:
407,220,72726,2,0,B|360:146|395:72,1,150,0|0,1:0|0:0,0:0:0:0:
475,93,73176,1,0,1:0:0:0:
302,176,73476,6,0,B|262:185|211:168,1,75,0|0,3:0|0:0,0:0:0:0:
147,106,73776,2,0,B|156:153|139:207,1,75,0|0,1:0|0:0,0:0:0:0:
70,247,74076,2,0,B|157:247|189:326,1,150,0|0,3:0|1:0,0:0:0:0:
343,345,74676,1,0,3:0:0:0:
414,293,74826,2,0,B|401:250|415:199,1,75,0|0,0:0|1:0,0:0:0:0:
365,151,75126,2,0,B|264:162|278:257,1,150,0|0,1:0|0:0,0:0:0:0:
199,218,75576,1,0,1:0:0:0:
66,119,75876,6,0,B|46:75|63:19,2,75,0|0|0,3:0|0:0|1:0,0:0:0:0:
0,242,76476,2,0,B|74:293|51:400,1,150,0|0,3:0|1:0,0:0:0:0:
194,303,77076,1,0,3:0:0:0:
194,303,77226,2,0,B|259:248|234:165,1,150,0|0,0:0|1:0,0:0:0:0:
324,194,77676,2,0,B|371:205|419:194,2,75,0|0|0,3:0|0:0|1:0,0:0:0:0:
215,92,78276,5,0,3:0:0:0:
324,194,78576,1,0,1:0:0:0:
193,268,78876,1,0,3:0:0:0:
326,336,79176,1,0,1:0:0:0:
454,258,79476,2,0,B|448:211|457:160,2,75,0|0|0,3:0|0:0|1:0,0:0:0:0:
373,233,79926,2,0,B|308:166|350:90,1,150,0|0,1:0|0:0,0:0:0:0:
270,61,80376,1,0,1:0:0:0:
188,204,80676,5,0,3:0:0:0:
52,154,80976,2,0,B|27:111|35:62,1,75,0|0,1:0|0:0,0:0:0:0:
104,24,81276,1,0,3:0:0:0:
226,110,81576,1,0,1:0:0:0:
372,77,81876,5,0,3:0:0:0:
372,77,82026,2,0,B|404:145|372:235,1,150,0|0,0:0|1:0,0:0:0:0:
311,262,82476,2,0,B|271:278|227:266,1,75,0|0,3:0|0:0,0:0:0:0:
164,287,82776,2,0,B|138:248|150:194,2,75,0|0|0,1:0|0:0|3:0,0:0:0:0:
294,360,83376,1,0,1:0:0:0:
294,360,83526,2,0,B|358:302|440:326,1,150
488,272,83976,1,0,1:0:0:0:
348,157,84276,6,0,B|306:170|249:159,2,75,0|0|0,3:0|0:0|1:0,0:0:0:0:
426,187,84726,2,0,B|486:115|447:30,1,150,0|0,1:0|0:0,0:0:0:0:
376,13,85176,1,0,1:0:0:0:
266,115,85476,5,0,3:0:0:0:
120,76,85776,2,0,B|77:148|116:231,1,150,0|0,1:0|3:0,0:0:0:0:
26,344,86376,2,0,B|102:384|189:343,1,150,0|0,1:0|3:0,0:0:0:0:
230,291,86826,2,0,B|277:284|326:307,2,75,0|0|0,0:0|1:0|1:0,0:0:0:0:
168,235,87276,2,0,B|135:145|214:97,1,150,0|0,3:0|1:0,0:0:0:0:
358,45,87876,6,0,B|441:88|414:178,1,150,6|0,3:2|1:0,0:0:0:0:
352,216,88326,1,2,0:0:0:0:
352,216,88401,1,2,0:0:0:0:
352,216,88476,2,0,B|280:249|185:221,1,150,0|0,3:2|1:0,0:0:0:0:
134,181,88926,1,2,0:0:0:0:
134,181,89001,1,2,0:0:0:0:
134,181,89076,2,0,B|50:226|72:317,2,150,0|0|0,3:0|1:0|3:0,0:0:0:0:
261,224,89976,1,0,1:0:0:0:
396,186,90276,6,0,B|408:145|397:91,1,75,2|0,3:2|0:0,0:0:0:0:
485,193,90576,2,0,B|446:260|484:352,1,150,0|0,1:0|3:0,0:0:0:0:
324,305,91176,1,0,1:0:0:0:
179,366,91476,1,2,3:2:0:0:
41,276,91776,5,0,1:0:0:0:
98,219,91926,1,2,1:2:0:0:
178,230,92076,2,0,B|195:186|187:147,1,75,0|0,3:0|0:0,0:0:0:0:
139,88,92376,1,0,1:0:0:0:
139,88,92526,1,2,0:0:0:0:
200,21,92676,6,0,B|248:84|351:66,1,150,0|0,3:2|1:0,0:0:0:0:
407,33,93126,1,0,1:0:0:0:
477,79,93276,2,0,B|505:153|480:231,1,150,2|0,3:2|1:0,0:0:0:0:
416,269,93726,1,0,0:0:0:0:
351,312,93876,2,0,B|287:273|191:291,1,150,2|0,3:2|1:0,0:0:0:0:
140,239,94326,1,0,1:0:0:0:
140,239,94476,2,0,B|122:186|137:134,1,75,2|0,3:2|3:0,0:0:0:0:
30,137,94776,2,0,B|66:204|38:295,1,150,0|0,1:0|1:0,0:0:0:0:
180,339,95376,5,0,1:0:0:0:
41,282,95676,1,0,1:0:0:0:
180,339,95976,1,0,1:0:0:0:
41,282,96276,1,0,1:0:0:0:
268,194,97026,5,4,0:3:0:0:
268,194,97176,2,0,B|303:202|349:196,1,75,0|4,1:0|0:3,0:0:0:0:
419,224,97476,6,0,B|478:160|450:81,1,150,4|0,0:2|1:0,0:0:0:0:
365,149,97926,1,0,0:0:0:0:
419,224,98076,2,0,B|360:288|388:367,2,150,0|0|0,3:0|1:0|3:0,0:0:0:0:
279,287,98976,1,0,1:0:0:0:
279,287,99126,2,0,B|200:246|231:153,1,150,0|0,1:0|0:0,0:0:0:0:
170,99,99576,1,0,1:0:0:0:
73,230,99876,6,0,B|36:243|-4:234,2,75,0|0|0,3:0|0:0|1:0,0:0:0:0:
164,282,100326,1,0,1:0:0:0:
164,282,100476,2,0,B|131:196|187:140,1,150,0|0,3:0|1:0,0:0:0:0:
340,167,101076,1,0,3:0:0:0:
399,104,101226,1,0,0:0:0:0:
320,86,101376,1,0,1:0:0:0:
271,18,101526,1,0,1:0:0:0:
269,212,101826,1,0,0:0:0:0:
269,212,101976,2,0,B|340:185|419:209,1,150,0|0,1:0|3:0,0:0:0:0:
502,318,102576,6,0,L|441:370,1,75,0|0,1:0|1:0,0:0:0:0:
368,332,102876,2,0,B|319:260|354:180,2,150,0|0|0,3:0|1:0|3:0,0:0:0:0:
217,263,103776,1,0,1:0:0:0:
85,199,104076,1,0,3:0:0:0:
194,96,104376,1,0,1:0:0:0:
248,44,104526,1,0,0:0:0:0:
320,23,104676,6,0,B|360:35|433:26,2,75,0|0|0,3:0|0:0|1:0,0:0:0:0:
304,101,105126,1,0,0:0:0:0:
304,101,105276,2,0,B|349:166|320:253,1,150,0|0,3:0|1:0,0:0:0:0:
466,310,105876,2,0,B|421:245|450:158,1,150,0|0,3:0|1:0,0:0:0:0:
368,146,106326,1,0,1:0:0:0:
304,193,106476,2,0,B|264:206|206:200,1,75,0|8,3:0|0:3,0:0:0:0:
163,151,106776,1,0,1:0:0:0:
163,151,106926,1,4,3:3:0:0:
49,113,107076,6,0,B|112:178|81:262,1,150,4|0,3:2|1:0,0:0:0:0:
70,330,107526,1,0,0:0:0:0:
171,359,107676,2,0,B|148:307|167:266,1,75,0|0,3:0|0:0,0:0:0:0:
229,226,107976,2,0,B|318:253|309:342,2,150,0|0|0,1:0|3:0|1:0,0:0:0:0:
165,167,108726,2,0,B|111:94|150:20,1,150,0|0,1:0|0:0,0:0:0:0:
228,24,109176,1,0,1:0:0:0:
372,65,109476,5,0,3:0:0:0:
330,209,109776,2,0,B|296:177|299:118,1,75,0|0,1:0|0:0,0:0:0:0:
405,175,110076,2,0,B|445:250|400:326,1,150,0|0,3:0|1:0,0:0:0:0:
245,293,110676,1,0,3:0:0:0:
106,348,110976,1,0,1:0:0:0:
106,348,111126,2,0,B|74:274|77:188,1,150,0|0,1:0|0:0,0:0:0:0:
15,149,111576,1,0,1:0:0:0:
107,26,111876,5,0,3:0:0:0:
217,104,112176,2,0,B|253:110|318:96,1,75,0|0,1:0|0:0,0:0:0:0:
368,55,112476,2,0,B|413:121|379:224,1,150,0|0,3:0|1:0,0:0:0:0:
288,306,113076,2,0,B|226:256|132:274,1,150,0|0,3:0|1:0,0:0:0:0:
118,200,113526,1,0,1:0:0:0:
73,136,113676,2,0,B|34:152|-17:150,2,75,0|0|0,3:0|0:0|1:0,0:0:0:0:
157,21,114276,6,0,B|240:60|213:150,1,150,4|0,3:2|1:0,0:0:0:0:
274,202,114726,2,0,B|339:150|427:185,1,150,4|0,3:2|1:0,0:0:0:0:
475,128,115176,1,4,1:2:0:0:
464,277,115476,1,0,1:0:0:0:
475,128,115776,1,0,1:0:0:0:
346,224,116076,2,0,B|307:236|261:230,1,75,8|0,1:3|3:0,0:0:0:0:
204,282,116376,1,4,0:3:0:0:
39,190,116676,6,0,B|5:102|103:66,2,150,6|0|0,3:2|1:0|3:0,0:0:0:0:
10,276,117426,2,0,B|56:289|113:264,1,75,0|0,0:0|1:0,0:0:0:0:
181,310,117726,1,2,0:0:0:0:
181,310,117801,1,2,0:0:0:0:
181,310,117876,2,0,B|152:238|174:153,1,150,0|0,3:0|1:0,0:0:0:0:
256,174,118326,1,0,1:0:0:0:
320,118,118476,2,0,B|306:75|318:28,1,75,0|0,3:0|0:0,0:0:0:0:
395,77,118776,1,0,1:2:0:0:
429,152,118926,1,2,0:0:0:0:
510,176,119076,6,0,B|458:240|465:324,2,150,2|2|2,3:2|1:2|3:2,0:0:0:0:
352,227,119976,1,2,1:2:0:0:
204,184,120276,2,0,B|131:127|168:46,1,150,2|0,3:2|1:0,0:0:0:0:
244,12,120726,1,2,1:2:0:0:
303,79,120876,1,0,3:0:0:0:
204,184,121176,1,0,1:0:0:0:
46,145,121476,6,0,B|9:220|50:317,1,150,2|0,3:2|1:0,0:0:0:0:
103,345,121926,1,2,0:0:0:0:
172,305,122076,2,0,B|211:314|272:310,2,75,0|2|2,3:0|0:2|1:2,0:0:0:0:
132,235,122526,1,0,0:0:0:0:
132,235,122676,2,0,B|211:206|291:230,1,150,2|2,3:2|1:2,0:0:0:0:
391,96,123276,2,0,B|312:125|232:101,1,150,2|2,3:2|1:2,0:0:0:0:
391,96,123876,6,0,B|479:138|450:238,1,150,2|0,3:2|1:0,0:0:0:0:
406,290,124326,1,2,0:2:0:0:
330,261,124476,2,0,B|288:273|239:266,2,75,2|0|0,3:2|0:0|1:2,0:0:0:0:
186,305,124926,2,0,B|117:254|141:174,1,150,2|0,0:0|0:0,0:0:0:0:
96,103,125376,1,0,1:0:0:0:
96,103,125526,1,0,1:0:0:0:
254,116,125826,1,8,0:3:0:0:
254,116,125976,1,0,1:0:0:0:
402,128,126276,5,6,1:2:0:0:
432,282,126576,1,6,1:2:0:0:
402,128,126876,5,6,1:2:0:0:
417,206,127026,1,2,0:0:0:0:
432,282,127176,1,2,1:0:0:0:
307,341,127476,5,6,1:2:0:0:
307,341,127626,2,0,B|243:302|149:322,1,150,2|2,0:0|1:2,0:0:0:0:
87,280,128076,2,0,B|71:233|77:185,2,75,0|0|2,0:0|0:0|1:2,0:0:0:0:
158,97,128676,5,6,1:2:0:0:
317,86,128976,1,6,1:2:0:0:
158,97,129276,5,6,1:2:0:0:
237,93,129426,1,2,0:0:0:0:
317,86,129576,1,2,1:0:0:0:
204,211,129876,5,6,1:2:0:0:
204,211,130026,2,0,B|252:268|228:371,1,150,2|2,0:0|1:2,0:0:0:0:
318,326,130476,2,0,B|366:339|407:330,2,75,0|0|2,0:0|0:0|1:2,0:0:0:0:
380,189,131076,5,4,1:2:0:0:
380,189,131226,2,0,B|350:102|434:63,2,150,2|0|2,0:0|1:0|3:2,0:0:0:0:
292,155,131976,1,0,1:0:0:0:
214,138,132126,1,0,0:0:0:0:
128,129,132276,1,0,1:0:0:0:
128,129,132426,2,0,B|158:216|74:255,2,150,2|0|2,3:2|1:0|0:0,0:0:0:0:
97,41,133176,2,0,B|16:76|46:166,1,150,0|4,1:2|3:2,0:0:0:0:
256,192,133626,12,0,135276,1:0:0:0:
242,171,135876,6,0,B|207:190|138:179,1,75,4|0,1:2|0:0,0:2:0:0:
100,134,136176,2,0,B|23:181|60:268,1,150,0|0,1:2|3:0,0:0:0:0:
191,334,136776,1,0,1:0:0:0:
333,251,137076,1,0,3:0:0:0:
333,251,137226,2,0,B|302:176|317:88,1,150,0|0,0:0|1:0,0:0:0:0:
381,49,137676,2,0,B|422:62|476:55,2,75,0|0|0,3:0|0:0|1:0,0:0:0:0:
469,175,138276,5,0,3:0:0:0:
333,251,138576,1,0,1:0:0:0:
333,251,138726,2,0,B|260:195|287:114,1,150
210,237,139176,1,0,1:0:0:0:
69,157,139476,1,0,3:0:0:0:
171,44,139776,1,0,1:0:0:0:
171,44,139926,2,0,B|224:53|298:45,1,75,0|0,1:0|3:0,0:0:0:0:
275,175,140376,1,0,1:0:0:0:
365,287,140676,5,0,3:0:0:0:
474,183,140976,2,0,B|459:127|470:79,2,75,0|0|0,1:0|0:0|3:0,0:0:0:0:
388,162,141426,1,0,0:0:0:0:
233,109,141726,2,0,B|167:179|228:255,1,150,2|2,0:0|0:0,0:0:0:0:
194,315,142176,1,0,1:0:0:0:
123,339,142326,1,0,1:0:0:0:
55,306,142476,1,0,3:0:0:0:
101,170,142776,1,0,1:0:0:0:
41,23,143076,6,0,B|111:52|212:31,1,150,0|0,3:0|1:0,0:0:0:0:
305,131,143676,1,0,3:0:0:0:
305,131,143826,2,0,B|377:180|341:281,1,150
284,325,144276,2,0,B|218:269|142:296,1,150,0|0,3:0|1:0,0:0:0:0:
91,239,144726,1,0,1:0:0:0:
33,185,144876,2,0,B|16:140|28:96,2,75,0|8|4,3:0|0:3|1:3,0:0:0:0:
142,43,145476,5,4,3:2:0:0:
235,149,145776,1,0,1:0:0:0:
131,263,146076,1,0,3:0:0:0:
263,334,146376,1,0,1:0:0:0:
402,246,146676,1,0,3:0:0:0:
402,246,146826,2,0,B|375:170|399:93,1,150,0|0,0:0|1:0,0:0:0:0:
494,191,147426,1,0,0:0:0:0:
382,314,147726,6,0,B|313:274|225:296,1,150
195,221,148176,2,0,B|160:234|120:228,2,75,0|0|0,1:0|0:0|3:0,0:0:0:0:
270,186,148626,2,0,B|327:125|293:42,2,150
199,139,149376,1,0,1:0:0:0:
199,139,149526,1,0,1:0:0:0:
127,94,149676,1,0,3:0:0:0:
77,259,149976,1,0,1:0:0:0:
143,293,150126,1,0,0:0:0:0:
209,327,150276,5,4,1:2:0:0:
343,250,150576,5,0,1:0:0:0:
339,98,150876,5,0,1:0:0:0:
198,31,151176,5,0,1:0:0:0:
71,186,151476,5,4,1:2:0:0:
171,284,151776,5,0,1:0:0:0:
325,321,152076,5,0,1:0:0:0:
453,245,152376,5,0,1:0:0:0:
320,69,152676,5,4,1:2:0:0:
320,69,152826,2,0,B|255:122|274:203,1,150,0|0,1:0|1:0,0:0:0:0:
208,263,153276,2,0,B|171:282|111:273,2,75,8|4|4,3:3|3:3|1:3,0:0:0:0:
262,334,153726,1,4,1:2:0:0:
90,250,164676,6,0,B|45:187|74:120,1,134.999995880127,0|2,0:0|0:0,0:0:0:0:
190,172,165276,2,0,B|258:204|322:179,1,134.999995880127,0|2,0:0|0:0,0:0:0:0:
434,160,165776,1,0,0:0:0:0:
414,129,165876,2,0,B|387:87|402:34,1,89.999997253418
495,105,166176,2,0,B|537:165|502:239,1,134.999995880127,2|0,0:0|0:0,0:0:0:0:
404,293,166676,1,0,0:0:0:0:
366,271,166776,2,0,B|318:295|250:282,1,89.999997253418,2|0,0:0|0:0,0:0:0:0:
248,313,167076,6,0,B|199:249|221:174,1,134.999995880127,0|2,0:0|0:0,0:0:0:0:
116,235,167576,1,0,0:0:0:0:
90,213,167676,2,0,B|26:156|55:85,1,134.999995880127,0|2,0:0|0:0,0:0:0:0:
143,44,168176,1,0,0:0:0:0:
167,62,168276,2,0,B|212:78|276:57,1,89.999997253418
288,42,168576,2,0,B|340:95|313:183,1,134.999995880127,2|0,0:0|0:0,0:0:0:0:
242,258,169176,1,2,0:0:0:0:
351,319,169476,6,0,B|308:254|348:187,1,134.999995880127,0|2,0:0|0:0,0:0:0:0:
393,96,169976,1,0,0:0:0:0:
417,121,170076,2,0,B|460:186|420:253,1,134.999995880127,0|2,0:0|0:0,0:0:0:0:
351,319,170576,1,0,0:0:0:0:
327,294,170676,2,0,B|284:229|324:162,1,134.999995880127,0|2,0:0|0:0,0:0:0:0:
221,209,171176,2,0,B|144:229|95:179,1,134.999995880127
59,264,171576,2,0,B|138:281|153:375,1,134.999995880127,2|4,0:0|0:2,0:0:0:0:
256,192,171976,12,2,173076,0:0:0:0:
256,192,173176,12,2,174276,0:0:0:0:
256,192,174376,12,0,175476,0:0:0:0:
301,267,176676,6,0,B|380:216|352:135,1,150,4|0,3:2|1:0,0:0:0:0:
268,168,177126,1,0,0:0:0:0:
268,168,177276,2,0,B|239:119|255:62,1,75,0|0,3:0|0:0,0:0:0:0:
181,46,177576,1,0,1:0:0:0:
101,196,177876,1,0,3:0:0:0:
244,285,178176,1,0,1:0:0:0:
244,285,178326,1,0,1:0:0:0:
313,227,178476,2,0,B|350:240|406:235,2,75,0|0|0,3:0|0:0|1:0,0:0:0:0:
470,292,179076,5,0,3:0:0:0:
482,138,179376,2,0,B|442:155|387:146,1,75,0|0,1:0|0:0,0:0:0:0:
330,188,179676,2,0,B|262:141|293:52,1,150,0|0,3:0|1:0,0:0:0:0:
208,222,180276,2,0,L|158:311,1,75,0|0,3:0|0:0,0:0:0:0:
104,340,180576,1,0,1:0:0:0:
104,340,180726,1,0,1:0:0:0:
15,285,180876,2,0,B|51:255|92:263,1,75,0|0,3:0|0:0,0:0:0:0:
95,183,181176,2,0,B|71:145|77:92,1,75,0|0,1:0|0:0,0:0:0:0:
135,51,181476,5,4,3:2:0:0:
248,137,181776,1,0,1:0:0:0:
320,99,181926,1,0,0:0:0:0:
390,136,182076,1,0,3:0:0:0:
501,29,182376,1,0,1:0:0:0:
487,171,182676,6,0,B|524:239|492:331,1,150,0|4,3:0|1:2,0:0:0:0:
430,359,183126,1,0,1:0:0:0:
356,326,183276,2,0,B|319:302|270:312,1,75,0|0,3:0|0:0,0:0:0:0:
210,339,183576,2,0,B|139:283|174:204,1,150,4|0,1:2|3:2,0:0:0:0:
40,140,184176,1,4,1:2:0:0:
88,82,184326,1,0,1:0:0:0:
136,25,184476,1,0,3:0:0:0:
285,85,184776,1,0,1:0:0:0:
457,50,185076,2,0,B|423:126|453:207,1,150,0|0,3:0|1:0,0:0:0:0:
393,246,185526,1,4,1:2:0:0:
334,298,185676,2,0,B|292:290|256:304,2,75,0|8|4,3:0|0:3|1:3,0:0:0:0:
138,264,186276,6,0,B|107:220|113:169,1,75,4|0,1:2|0:0,0:0:0:0:
198,194,186576,2,0,B|181:146|205:95,1,75,0|0,1:0|0:0,0:0:0:0:
275,148,186876,2,0,B|274:107|300:77,2,75,0|0|0,1:0|0:0|1:0,0:0:0:0:
337,209,187326,1,0,0:0:0:0:
337,209,187476,2,0,B|417:150|379:77,1,150,0|0,1:0|1:0,0:0:0:0:
481,137,187926,1,0,1:0:0:0:
481,137,188076,1,0,1:0:0:0:
435,283,188376,1,0,1:0:0:0:
270,244,188676,6,0,B|193:215|119:251,1,150,4|0,1:2|1:0,0:0:0:0:
80,182,189126,1,0,1:0:0:0:
32,115,189276,2,0,B|9:68|28:20,2,75,4|0|0,1:2|0:0|1:0,0:0:0:0:
170,28,189876,2,0,B|258:64|229:157,1,150,4|0,1:2|1:0,0:0:0:0:
290,204,190326,1,4,1:2:0:0:
355,253,190476,2,0,B|368:202|411:170,1,75,0|0,0:0|3:0,0:0:0:0:
441,110,190776,2,0,B|505:167|463:253,1,150,0|4,1:0|1:2,0:0:0:0:
374,352,191376,5,0,1:0:0:0:
300,337,191526,1,0,0:0:0:0:
226,322,191676,1,0,1:0:0:0:
88,369,191976,1,0,1:0:0:0:
21,245,192276,2,0,B|-22:168|17:89,1,150,0|0,1:0|1:0,0:0:0:0:
97,117,192726,1,0,1:0:0:0:
97,117,192876,2,0,B|128:68|121:22,1,75,0|0,1:0|0:0,0:0:0:0:
202,30,193176,2,0,B|266:93|221:174,1,150,0|4,1:0|1:2,0:0:0:0:
273,286,193776,5,0,1:0:0:0:
273,286,193926,1,4,1:2:0:0:
374,142,194226,1,4,1:2:0:0:
509,230,194526,1,4,1:2:0:0:
408,346,194826,1,4,3:0:0:0:
408,346,194976,2,0,B|385:301|394:254,1,75,0|4,1:0|3:0,0:0:0:0:
323,205,195276,2,0,B|313:249|282:272,1,75,0|8,1:0|3:0,0:0:0:0:
209,299,195576,2,0,B|141:250|161:168,1,150,0|4,1:0|1:2,0:0:0:0:
428,56,196776,5,0,1:2:0:0:
428,56,196926,2,0,B|445:101|428:150,1,75,4|0,3:0|1:3,0:0:0:0:
148,287,197826,1,8,0:3:0:0:
148,287,197976,2,0,B|131:242|148:193,1,75,0|4,1:0|0:3,0:0:0:0:
212,153,198276,5,4,1:2:0:0:
421,282,198726,1,4,1:2:0:0:
407,58,199176,1,4,1:2:0:0:
256,192,199326,12,0,201276,0:0:0:0:
