osu file format v14

[General]
AudioFilename: audio.mp3
AudioLeadIn: 0
PreviewTime: -1
Countdown: 1
SampleSet: None
StackLeniency: 0.7
Mode: 0
LetterboxInBreaks: 0
WidescreenStoryboard: 1

[Editor]
Bookmarks: 5455,19301
DistanceSpacing: 2.2
BeatDivisor: 4
GridSize: 8
TimelineZoom: 5.599997

[Metadata]
Title:Inferno
TitleUnicode:Inferno
Artist:Will Stetson
ArtistUnicode:Will Stetson
Creator:_GiaNt
Version:I will carry this blade to my grave
Source:
Tags:
BeatmapID:1459216
BeatmapSetID:651880

[Difficulty]
HPDrainRate:6.9
CircleSize:4.6
OverallDifficulty:7
ApproachRate:10
SliderMultiplier:1.4
SliderTickRate:1

[Events]
//Background and Video events
0,0,"1461116437171.jpg",0,0
//Break Periods
//Storyboard Layer 0 (Background)
//Storyboard Layer 1 (Fail)
//Storyboard Layer 2 (Pass)
//Storyboard Layer 3 (Foreground)
//Storyboard Sound Samples

[TimingPoints]
225,307.692307692308,3,3,1,90,1,0
1455,-66.6666666666667,3,3,1,90,0,0
1609,-200,3,3,1,90,0,0
2686,-66.6666666666667,3,3,1,90,0,0
2840,-200,3,3,1,90,0,0
3455,-66.6666666666667,3,3,1,90,0,0
7917,-200,3,3,1,90,0,0
8074,-200,3,3,0,50,0,0
11305,-200,3,3,1,75,0,0
11766,-100,3,3,1,90,0,0
12378,-66.6666666666667,3,3,1,90,0,0
16071,-100,3,3,1,90,0,0
22843,-133.333333333333,3,3,1,70,0,0
25766,-133.333333333333,3,3,0,50,0,0
26536,-133.333333333333,3,3,1,70,0,0
29459,-133.333333333333,3,3,0,50,0,0
30228,-133.333333333333,3,3,1,70,0,0
30378,-66.6666666666667,3,3,1,70,0,0
31917,-133.333333333333,3,3,1,70,0,0
32382,-133.333333333333,3,3,0,70,0,0
32997,-133.333333333333,3,3,1,70,0,0
33917,-181.818181818181,3,3,1,70,0,0
34071,-133.333333333333,3,3,1,70,0,0
37613,-133.333333333333,3,3,1,35,0,0
40690,-200,3,3,0,35,0,0
41305,-200,3,3,1,50,0,0
44997,-100,3,3,1,90,0,0
53148,-66.6666666666667,3,3,1,90,0,0
53225,-133.333333333333,3,3,1,90,0,0
56074,-166.666666666667,3,3,1,45,0,0
59766,-100,3,3,1,90,0,0
60532,-66.6666666666667,3,3,1,90,0,0
60686,-100,3,3,1,90,0,0
61148,-66.6666666666667,3,3,1,90,0,0
61301,-100,3,3,1,90,0,0
61917,-66.6666666666667,3,3,1,90,0,0
62071,-100,3,3,1,90,0,0
62532,-66.6666666666667,3,3,1,90,0,0
62686,-100,3,3,1,90,0,0
75459,-200,3,3,1,90,0,0
75613,-200,3,3,1,50,0,0
75766,-200,3,3,1,90,0,0
77305,-100,3,3,1,90,0,0
77920,-100,3,3,1,50,0,0
78228,-100,3,3,1,90,0,0
80997,-95.2380952380952,3,3,1,90,0,0
81920,-100,3,3,1,90,0,0
85305,-100,3,3,0,70,0,0
85382,-100,3,3,1,90,0,0
86536,-100,3,3,0,70,0,0
87459,-100,3,3,1,100,0,0

[HitObjects]
256,48,1148,5,0,0:0:0:0:
408,184,1301,1,0,0:0:0:0:
264,272,1455,2,0,B|240:320|208:296|184:256,1,105.000004005432
80,192,1763,1,0,0:0:0:0:
256,72,1917,1,0,0:0:0:0:
400,192,2071,5,0,0:0:0:0:
368,224,2148,1,0,0:0:0:0:
320,248,2225,1,0,0:0:0:0:
256,80,2378,5,0,0:0:0:0:
456,64,2532,5,0,0:0:0:0:
416,136,2686,6,0,P|408:216|392:232,1,105.000004005432
360,264,2917,1,0,0:0:0:0:
312,296,2994,1,0,0:0:0:0:
256,296,3071,1,0,0:0:0:0:
208,280,3148,1,0,0:0:0:0:
88,184,3301,1,0,0:0:0:0:
192,88,3455,2,0,B|216:56|248:56|272:72|296:112,1,105.000004005432
376,208,3763,1,0,0:0:0:0:
144,208,3917,1,0,0:0:0:0:
256,56,4071,1,0,0:0:0:0:
384,120,4225,5,0,0:0:0:0:
392,120,4301,1,0,0:0:0:0:
400,120,4378,1,0,0:0:0:0:
408,120,4455,1,0,0:0:0:0:
416,120,4532,1,0,0:0:0:0:
424,272,4686,1,0,0:0:0:0:
296,344,4840,6,0,B|336:320|328:288|360:272|304:216,1,105.000004005432
312,208,5148,1,0,0:0:0:0:
280,176,5225,1,0,0:0:0:0:
232,176,5301,1,0,0:0:0:0:
192,192,5378,1,0,0:0:0:0:
152,216,5455,1,0,0:0:0:0:
168,88,5609,1,0,0:0:0:0:
260,161,5763,2,0,P|248:190|204:214,1,70
192,224,6071,5,0,0:0:0:0:
176,224,6148,1,0,0:0:0:0:
160,224,6225,1,0,0:0:0:0:
128,72,6378,1,0,0:0:0:0:
256,56,6532,5,0,0:0:0:0:
144,344,6686,1,0,0:0:0:0:
416,192,6840,1,0,0:0:0:0:
101,193,6994,1,0,0:0:0:0:
366,346,7148,1,0,0:0:0:0:
232,69,7301,2,0,B|287:30|304:100|340:63,1,105.000004005432
336,305,7609,1,0,0:0:0:0:
230,64,7763,1,0,0:0:0:0:
111,189,7917,1,0,0:0:0:0:
111,189,8071,6,0,L|192:194,1,70
385,298,8686,1,0,0:0:0:0:
314,302,8840,2,0,L|245:297,1,70
181,208,9301,2,0,L|190:152,1,52.5
311,119,9686,2,0,L|311:210,1,87.5
226,312,10225,2,0,L|139:304,1,87.5
155,215,10686,2,0,L|172:72,1,140
256,288,11917,5,0,0:0:0:0:
113,91,12071,1,0,0:0:0:0:
411,92,12225,1,0,0:0:0:0:
250,193,12378,2,0,B|268:217|260:242|248:259|221:257|292:264|251:309,1,105.000004005432
255,47,12686,1,0,0:0:0:0:
459,192,12840,1,0,0:0:0:0:
250,193,12994,2,0,B|255:209|248:220|220:206|204:217|166:177|147:236|134:199,1,105.000004005432
53,45,13301,5,0,0:0:0:0:
237,174,13455,1,0,0:0:0:0:
58,340,13609,1,0,0:0:0:0:
237,174,13763,1,0,0:0:0:0:
463,37,13917,1,0,0:0:0:0:
454,272,14071,2,0,B|414:279|391:309|340:259,1,105.000004005432
171,106,14378,2,0,B|139:84|106:95|44:117,1,105.000004005432
180,307,14686,1,0,0:0:0:0:
417,122,14840,1,0,0:0:0:0:
411,311,14994,1,0,0:0:0:0:
261,188,15148,2,0,B|306:165|291:114|246:108|231:93|255:66,1,105.000004005432
120,56,15455,1,0,0:0:0:0:
106,199,15609,5,0,0:0:0:0:
159,188,15686,1,0,0:0:0:0:
203,182,15763,1,0,0:0:0:0:
244,185,15840,1,0,0:0:0:0:
285,199,15917,1,0,0:0:0:0:
335,198,15994,1,0,0:0:0:0:
368,179,16071,2,0,L|368:131,2,35
338,83,16378,5,0,0:0:0:0:
289,71,16455,1,0,0:0:0:0:
241,83,16532,1,0,0:0:0:0:
198,111,16609,1,0,0:0:0:0:
170,157,16686,1,0,0:0:0:0:
157,298,16840,1,0,0:0:0:0:
185,333,16917,1,0,0:0:0:0:
242,330,16994,1,0,0:0:0:0:
277,307,17071,1,0,0:0:0:0:
300,267,17148,1,0,0:0:0:0:
88,176,17301,5,0,0:0:0:0:
152,88,17455,1,0,0:0:0:0:
184,64,17532,1,0,0:0:0:0:
232,72,17609,1,0,0:0:0:0:
272,56,17686,1,0,0:0:0:0:
312,80,17763,1,0,0:0:0:0:
336,104,17840,2,0,P|352:112|352:136,5,35
343,175,18301,1,0,0:0:0:0:
327,215,18378,1,0,0:0:0:0:
342,265,18455,1,0,0:0:0:0:
376,297,18532,1,0,0:0:0:0:
416,216,18686,6,0,P|424:192|413:176,1,35
344,96,18917,5,0,0:0:0:0:
296,80,18994,1,0,0:0:0:0:
256,96,19071,1,0,0:0:0:0:
224,120,19148,1,0,0:0:0:0:
176,232,19301,1,0,0:0:0:0:
320,208,19455,1,0,0:0:0:0:
344,240,19532,1,0,0:0:0:0:
384,264,19609,1,0,0:0:0:0:
424,256,19686,1,0,0:0:0:0:
241,294,19840,5,0,0:0:0:0:
333,256,19994,1,0,0:0:0:0:
333,218,20071,1,0,0:0:0:0:
333,180,20148,1,0,0:0:0:0:
309,143,20225,1,0,0:0:0:0:
265,130,20301,1,0,0:0:0:0:
226,121,20378,1,0,0:0:0:0:
185,118,20455,1,0,0:0:0:0:
142,121,20532,1,0,0:0:0:0:
104,142,20609,1,0,0:0:0:0:
109,266,20840,6,0,L|150:272,1,35
233,286,21071,1,0,0:0:0:0:
274,280,21148,1,0,0:0:0:0:
316,263,21225,1,0,0:0:0:0:
347,233,21301,1,0,0:0:0:0:
352,191,21378,1,0,0:0:0:0:
341,149,21455,1,0,0:0:0:0:
318,119,21532,1,0,0:0:0:0:
273,92,21609,1,0,0:0:0:0:
236,211,21763,5,0,0:0:0:0:
93,101,21917,1,0,0:0:0:0:
93,101,21994,1,0,0:0:0:0:
93,101,22071,1,0,0:0:0:0:
64,248,22225,1,0,0:0:0:0:
166,312,22378,5,0,0:0:0:0:
347,243,22532,1,0,0:0:0:0:
382,184,22609,1,0,0:0:0:0:
382,117,22686,1,0,0:0:0:0:
346,62,22763,1,0,0:0:0:0:
224,64,22917,5,0,0:0:0:0:
120,144,23225,1,0,0:0:0:0:
120,144,23301,1,0,0:0:0:0:
120,144,23378,1,0,0:0:0:0:
120,144,23455,1,0,0:0:0:0:
192,72,23609,2,0,L|248:80,1,52.5000020027161
136,136,23994,5,0,0:0:0:0:
144,144,24071,1,0,0:0:0:0:
144,144,24148,1,0,0:0:0:0:
144,144,24225,1,0,0:0:0:0:
136,248,24378,2,0,L|240:216,1,105.000004005432
328,128,24917,5,0,0:0:0:0:
144,312,25071,1,0,0:0:0:0:
128,216,25225,5,0,0:0:0:0:
128,192,25301,1,0,0:0:0:0:
128,168,25378,1,0,0:0:0:0:
128,144,25455,1,0,0:0:0:0:
128,120,25532,1,0,0:0:0:0:
128,96,25609,1,0,0:0:0:0:
208,64,25840,1,0,0:0:0:0:
464,192,25994,1,0,0:0:0:0:
144,304,26148,1,0,0:0:0:0:
240,144,26301,2,0,L|320:136,1,78.7500030040742
112,272,26686,5,0,0:0:0:0:
232,96,26840,1,0,0:0:0:0:
104,144,27071,2,0,L|104:112,1,26.2500010013581
160,192,27225,2,0,L|192:192,1,26.2500010013581
240,112,27455,1,0,0:0:0:0:
304,304,27609,1,0,0:0:0:0:
32,128,27763,5,0,0:0:0:0:
128,200,27917,2,0,L|128:168,1,26.2500010013581
168,256,28071,2,0,L|200:256,1,26.2500010013581
296,120,28301,1,0,0:0:0:0:
192,344,28455,1,0,0:0:0:0:
32,112,28609,5,0,0:0:0:0:
152,216,28840,2,0,L|152:184,1,26.2500010013581
192,272,28994,2,0,L|224:272,1,26.2500010013581
120,176,29301,1,0,0:0:0:0:
120,176,29378,1,0,0:0:0:0:
120,176,29455,1,0,0:0:0:0:
208,136,29763,2,0,L|256:176,1,52.5000020027161
304,304,30071,1,0,0:0:0:0:
414,112,30225,1,0,0:0:0:0:
167,156,30378,2,0,P|134:92|179:71,1,105.000004005432
340,82,30686,6,0,P|369:127|318:159,1,105.000004005432
255,302,30994,1,0,0:0:0:0:
148,79,31148,1,0,0:0:0:0:
340,78,31301,1,0,0:0:0:0:
255,302,31455,1,0,0:0:0:0:
298,73,31609,2,0,B|238:48|185:79|162:77,1,105.000004005432
80,120,31917,2,0,L|80:88,1,26.2500010013581
240,352,32225,1,0,0:0:0:0:
440,128,32378,1,0,0:0:0:0:
64,208,32532,5,0,0:0:0:0:
264,32,32686,1,0,0:0:0:0:
352,232,32840,1,0,0:0:0:0:
344,232,33148,5,0,0:0:0:0:
256,40,33301,1,0,0:0:0:0:
96,208,33455,1,0,0:0:0:0:
128,96,33609,2,0,L|184:64,1,52.5000020027161
265,79,33917,2,0,L|305:91,1,38.5000011749268
104,208,34301,5,0,0:0:0:0:
112,192,34378,1,0,0:0:0:0:
120,176,34455,1,0,0:0:0:0:
128,160,34532,1,0,0:0:0:0:
136,144,34609,1,0,0:0:0:0:
144,136,34801,2,0,L|192:128,1,39.3750015020371
192,224,35071,2,0,L|200:256,1,26.2500010013581
80,256,35301,2,0,L|64:232,1,26.2500010013581
24,144,35455,5,0,0:0:0:0:
64,144,35532,1,0,0:0:0:0:
104,144,35609,1,0,0:0:0:0:
136,144,35686,1,0,0:0:0:0:
176,144,35763,1,0,0:0:0:0:
192,40,35917,5,0,0:0:0:0:
400,80,36071,5,0,0:0:0:0:
288,112,36225,5,0,0:0:0:0:
288,144,36301,1,0,0:0:0:0:
288,176,36378,1,0,0:0:0:0:
288,208,36455,1,0,0:0:0:0:
288,240,36532,1,0,0:0:0:0:
72,80,36686,5,0,0:0:0:0:
112,312,36840,1,0,0:0:0:0:
296,56,36994,1,0,0:0:0:0:
328,288,37148,1,0,0:0:0:0:
176,176,37301,2,0,L|208:176,1,26.2500010013581
128,96,37609,6,0,P|200:72|288:88,1,157.500006008148
288,152,38225,2,0,P|288:240|352:264,1,157.500006008148
416,216,38840,2,0,B|448:160|336:120|416:104,1,131.25000500679
264,88,39378,1,0,0:0:0:0:
160,120,39532,2,0,L|64:168,1,105.000004005432
112,296,39994,1,0,0:0:0:0:
152,192,40148,2,0,P|224:200|280:136,1,157.500006008148
112,136,40763,2,0,L|208:96,1,105
288,128,41378,6,0,P|352:128|360:128,1,70
416,240,41840,2,0,L|160:240,1,253.75
32,176,43071,1,0,0:0:0:0:
128,96,43225,2,0,L|288:112,1,157.5
392,136,44071,2,0,L|368:264,1,122.5
128,168,44840,2,0,L|200:176,1,70
208,261,45455,5,0,0:0:0:0:
244,292,45532,1,0,0:0:0:0:
293,297,45609,1,0,0:0:0:0:
336,284,45686,1,0,0:0:0:0:
378,260,45763,1,0,0:0:0:0:
399,225,45840,1,0,0:0:0:0:
399,179,45917,1,0,0:0:0:0:
378,135,45994,1,0,0:0:0:0:
359,118,46071,2,0,L|328:101,6,35
333,178,46686,5,0,0:0:0:0:
301,132,46763,1,0,0:0:0:0:
248,128,46840,1,0,0:0:0:0:
207,161,46917,1,0,0:0:0:0:
199,206,46994,1,0,0:0:0:0:
186,252,47071,1,0,0:0:0:0:
158,294,47148,5,0,0:0:0:0:
114,275,47225,1,0,0:0:0:0:
88,229,47301,1,0,0:0:0:0:
75,177,47378,1,0,0:0:0:0:
336,168,47532,5,0,0:0:0:0:
256,248,47686,1,0,0:0:0:0:
232,272,47763,1,0,0:0:0:0:
208,288,47840,1,0,0:0:0:0:
176,288,47917,2,0,L|120:256,2,35
96,168,48148,2,0,L|128:144,1,35
224,112,48378,5,0,0:0:0:0:
360,128,48532,1,0,0:0:0:0:
352,176,48609,1,0,0:0:0:0:
344,224,48686,1,0,0:0:0:0:
312,264,48763,1,0,0:0:0:0:
264,272,48840,1,0,0:0:0:0:
216,272,48917,1,0,0:0:0:0:
96,240,49071,6,0,L|96:192,1,35
112,160,49225,1,0,0:0:0:0:
136,128,49301,1,0,0:0:0:0:
176,112,49378,1,0,0:0:0:0:
224,120,49455,1,0,0:0:0:0:
264,144,49532,1,0,0:0:0:0:
408,208,49763,2,0,P|408:232|400:240,1,35
392,256,49917,1,0,0:0:0:0:
376,280,49994,1,0,0:0:0:0:
336,288,50071,1,0,0:0:0:0:
296,280,50148,1,0,0:0:0:0:
264,264,50225,1,0,0:0:0:0:
248,240,50301,2,0,L|256:176,4,35
384,216,50763,5,0,0:0:0:0:
295,251,50917,1,0,0:0:0:0:
284,257,50994,1,0,0:0:0:0:
277,263,51071,1,0,0:0:0:0:
267,269,51148,1,0,0:0:0:0:
258,275,51225,1,0,0:0:0:0:
249,284,51301,1,0,0:0:0:0:
241,293,51378,1,0,0:0:0:0:
86,239,51609,5,0,0:0:0:0:
192,112,51763,1,0,0:0:0:0:
182,291,51917,5,0,0:0:0:0:
229,314,51994,1,0,0:0:0:0:
275,298,52071,1,0,0:0:0:0:
303,259,52148,1,0,0:0:0:0:
319,206,52225,1,0,0:0:0:0:
300,152,52301,1,0,0:0:0:0:
248,135,52378,1,0,0:0:0:0:
210,136,52455,1,0,0:0:0:0:
179,148,52532,1,0,0:0:0:0:
151,163,52609,1,0,0:0:0:0:
168,192,52840,5,0,0:0:0:0:
411,69,52994,1,0,0:0:0:0:
375,193,53148,2,0,B|379:246|331:289|272:241,1,105.000004005432
168,192,53455,1,0,0:0:0:0:
411,69,53609,1,0,0:0:0:0:
407,196,53763,1,0,0:0:0:0:
169,333,53917,1,0,0:0:0:0:
168,192,54071,1,0,0:0:0:0:
407,196,54225,1,0,0:0:0:0:
406,103,54378,1,0,0:0:0:0:
296,232,54532,6,0,P|320:184|296:152,1,70
216,232,54840,2,0,P|200:192|216:152,1,70
104,192,55301,2,0,L|104:248,1,35
296,136,55609,2,0,L|296:184,1,35
376,160,55917,1,0,0:0:0:0:
104,144,56148,2,0,L|152:192,1,62.9999980773926
256,192,56532,2,0,B|424:232|336:112|336:120,1,167.999994873047
264,80,57301,2,0,P|192:64|144:96,1,125.999996154785
56,264,57917,1,0,0:0:0:0:
408,272,58071,1,0,0:0:0:0:
384,184,58225,6,0,P|352:72|256:96,1,230.99999295044
128,192,59225,1,0,0:0:0:0:
240,272,59378,2,0,L|328:248,1,83.9999974365235
168,240,60225,5,0,0:0:0:0:
425,88,60378,1,0,0:0:0:0:
430,216,60532,2,0,B|426:270|405:300|361:293,1,105.000004005432
171,297,60840,1,0,0:0:0:0:
425,88,60994,1,0,0:0:0:0:
226,93,61148,2,0,B|159:95|125:100|173:183,1,105.000004005432
171,297,61455,5,0,0:0:0:0:
425,88,61609,1,0,0:0:0:0:
226,93,61763,1,0,0:0:0:0:
403,176,61917,2,0,B|416:190|473:209|380:295,1,105.000004005432
179,297,62225,1,0,0:0:0:0:
180,99,62378,1,0,0:0:0:0:
316,122,62532,2,0,P|355:162|296:208,1,105.000004005432
148,195,62840,5,0,0:0:0:0:
384,192,62994,1,0,0:0:0:0:
258,334,63148,1,0,0:0:0:0:
256,192,63301,1,0,0:0:0:0:
257,7,63455,1,0,0:0:0:0:
48,176,63917,6,0,L|120:184,1,70
424,176,64225,2,0,L|344:200,1,70
144,48,64532,2,0,L|160:128,1,70
304,40,64840,2,0,L|272:120,1,70
192,216,65148,1,0,0:0:0:0:
152,80,65455,2,0,L|152:160,1,70
328,80,65763,2,0,L|328:160,1,70
256,336,66071,2,0,L|256:256,1,70
160,168,66378,1,0,0:0:0:0:
160,168,66455,1,0,0:0:0:0:
328,176,66686,5,0,0:0:0:0:
328,176,66763,1,0,0:0:0:0:
152,80,66994,2,0,L|152:160,1,70
328,80,67302,2,0,L|328:160,1,70
256,336,67610,2,0,L|256:256,1,70
160,168,67917,1,0,0:0:0:0:
160,168,67994,1,0,0:0:0:0:
328,176,68225,1,0,0:0:0:0:
328,176,68302,1,0,0:0:0:0:
160,344,68532,6,0,L|160:264,1,70
320,352,68840,2,0,L|320:272,1,70
248,64,69148,2,0,L|248:136,1,70
200,184,69455,1,0,0:0:0:0:
200,184,69532,1,0,0:0:0:0:
304,192,69763,1,0,0:0:0:0:
304,192,69840,1,0,0:0:0:0:
112,152,70071,5,0,0:0:0:0:
176,152,70148,1,0,0:0:0:0:
240,152,70225,1,0,0:0:0:0:
304,160,70301,1,0,0:0:0:0:
128,176,70532,5,0,0:0:0:0:
192,184,70609,1,0,0:0:0:0:
256,192,70686,1,0,0:0:0:0:
320,200,70763,1,0,0:0:0:0:
384,208,70840,1,0,0:0:0:0:
480,144,70994,1,0,0:0:0:0:
256,104,71148,1,0,0:0:0:0:
200,344,71301,5,0,0:0:0:0:
40,176,71455,1,0,0:0:0:0:
184,176,71609,5,0,0:0:0:0:
224,176,71686,1,0,0:0:0:0:
264,176,71763,1,0,0:0:0:0:
304,176,71840,1,0,0:0:0:0:
400,176,72225,6,0,P|456:104|432:72,1,140
112,304,73148,1,0,0:0:0:0:
232,184,73301,1,0,0:0:0:0:
40,192,73455,1,0,0:0:0:0:
376,304,73609,1,0,0:0:0:0:
464,184,73763,1,0,0:0:0:0:
328,312,73917,1,0,0:0:0:0:
256,144,74071,1,0,0:0:0:0:
88,304,74225,5,0,0:0:0:0:
80,120,74378,1,0,0:0:0:0:
160,296,74532,1,0,0:0:0:0:
304,160,74686,1,0,0:0:0:0:
440,304,74840,1,0,0:0:0:0:
408,144,74994,6,0,P|496:240|496:248,1,140
128,216,75609,6,0,L|168:240,1,35
264,136,75917,2,0,L|288:208,1,70
384,200,76378,2,0,L|360:256,1,52.5
280,288,76763,2,0,L|192:264,1,87.5
184,128,77301,1,0,0:0:0:0:
336,128,77455,2,0,L|328:288,1,140
72,104,78455,5,0,0:0:0:0:
168,152,78686,5,0,0:0:0:0:
208,176,78763,1,0,0:0:0:0:
248,200,78840,1,0,0:0:0:0:
280,224,78917,1,0,0:0:0:0:
320,248,78994,1,0,0:0:0:0:
408,192,79148,1,0,0:0:0:0:
352,144,79301,1,0,0:0:0:0:
288,128,79378,1,0,0:0:0:0:
224,120,79455,1,0,0:0:0:0:
160,128,79532,1,0,0:0:0:0:
104,160,79609,5,0,0:0:0:0:
88,224,79686,1,0,0:0:0:0:
144,264,79763,1,0,0:0:0:0:
216,280,79840,1,0,0:0:0:0:
288,272,79917,1,0,0:0:0:0:
344,232,79994,1,0,0:0:0:0:
360,160,80071,1,0,0:0:0:0:
296,112,80148,1,0,0:0:0:0:
256,312,80301,5,0,0:0:0:0:
320,216,80455,5,0,0:0:0:0:
328,184,80532,1,0,0:0:0:0:
336,160,80609,1,0,0:0:0:0:
344,136,80686,1,0,0:0:0:0:
352,112,80763,1,0,0:0:0:0:
360,88,80840,1,0,0:0:0:0:
104,208,80994,1,0,0:0:0:0:
160,144,81148,5,0,0:0:0:0:
160,144,81225,1,0,0:0:0:0:
160,144,81301,1,0,0:0:0:0:
368,352,81455,1,0,0:0:0:0:
352,208,81609,1,0,0:0:0:0:
304,168,81686,1,0,0:0:0:0:
248,128,81763,1,0,0:0:0:0:
184,120,81840,1,0,0:0:0:0:
72,288,81917,5,0,0:0:0:0:
195,235,82071,1,0,0:0:0:0:
208,248,82148,1,0,0:0:0:0:
208,248,82225,1,0,0:0:0:0:
208,248,82301,1,0,0:0:0:0:
208,248,82378,1,0,0:0:0:0:
432,56,82532,5,0,0:0:0:0:
432,304,82686,1,0,0:0:0:0:
56,88,82840,1,0,0:0:0:0:
240,192,82994,5,0,0:0:0:0:
288,192,83071,1,0,0:0:0:0:
328,192,83148,1,0,0:0:0:0:
368,192,83225,1,0,0:0:0:0:
112,240,83378,5,0,0:0:0:0:
224,88,83532,1,0,0:0:0:0:
280,112,83609,1,0,0:0:0:0:
328,144,83686,1,0,0:0:0:0:
368,192,83763,1,0,0:0:0:0:
336,240,83840,1,0,0:0:0:0:
272,256,83917,1,0,0:0:0:0:
112,176,84071,1,0,0:0:0:0:
240,64,84225,1,0,0:0:0:0:
400,144,84378,5,0,0:0:0:0:
400,192,84455,1,0,0:0:0:0:
400,240,84532,1,0,0:0:0:0:
64,216,84686,1,0,0:0:0:0:
208,80,84840,2,0,L|256:120,1,35
248,280,85071,1,0,0:0:0:0:
248,96,85225,1,0,0:0:0:0:
64,176,85455,5,0,0:0:0:0:
240,168,85609,1,0,0:0:0:0:
216,40,85763,2,0,L|144:48,1,70
48,80,86071,1,0,0:0:0:0:
104,240,86225,1,0,0:0:0:0:
288,264,86378,1,0,0:0:0:0:
240,112,86532,1,0,0:0:0:0:
384,144,86686,1,0,0:0:0:0:
112,216,86840,5,0,0:0:0:0:
384,272,86994,1,0,0:0:0:0:
112,216,87148,1,0,0:0:0:0:
400,88,87301,1,0,0:0:0:0:
400,336,87455,1,0,0:0:0:0:
40,192,87609,1,0,0:0:0:0:
240,192,87763,1,0,0:0:0:0:
96,80,87917,6,0,L|184:80,1,70
352,88,88225,1,0,0:0:0:0:
80,256,88378,1,0,0:0:0:0:
352,272,88532,1,0,0:0:0:0:
56,72,88686,1,0,0:0:0:0:
408,72,88840,1,0,0:0:0:0:
144,232,88994,6,0,L|232:240,1,70
