osu file format v14

[General]
AudioFilename: audio.mp3
AudioLeadIn: 0
PreviewTime: 111752
Countdown: 1
SampleSet: Soft
StackLeniency: 0.7
Mode: 0
LetterboxInBreaks: 0
WidescreenStoryboard: 0

[Editor]
Bookmarks: 27794,84705,112966,158848,172966,195907,224142,252377,280612,294730
DistanceSpacing: 0.4
BeatDivisor: 6
GridSize: 4
TimelineZoom: 1.5

[Metadata]
Title:Hidamari no Uta
TitleUnicode:陽だまりの詩
Artist:Will Stetson
ArtistUnicode:Will Stetson
Creator:Seto Kousuke
Version:Insane
Source:
Tags:Yuyoyuppe Draw the Emotional meola 初音ミク hatsune miku vocaloid solitude freak English Novelty Cover
BeatmapID:2086304
BeatmapSetID:997391

[Difficulty]
HPDrainRate:4
CircleSize:4
OverallDifficulty:7
ApproachRate:8.5
SliderMultiplier:1.8
SliderTickRate:1

[Events]
//Background and Video events
0,0,"I'm glad you were alive Stephanie S2.jpg",0,0
//Break Periods
//Storyboard Layer 0 (Background)
//Storyboard Layer 1 (Fail)
//Storyboard Layer 2 (Pass)
//Storyboard Layer 3 (Foreground)
//Storyboard Sound Samples

[TimingPoints]
30,441.176470588235,4,2,1,50,1,0
30,-222.222222222221,4,2,2,50,0,0
27603,-133.333333333333,4,2,1,50,0,0
27677,-133.333333333333,4,2,1,60,0,0
27750,-133.333333333333,4,2,1,65,0,0
27824,-133.333333333333,4,2,1,75,0,0
28265,-133.333333333333,4,2,1,60,0,0
42382,-111.111111111111,4,2,1,70,0,0
53853,-111.111111111111,4,2,1,10,0,0
54074,-111.111111111111,4,2,1,20,0,0
54294,-111.111111111111,4,2,1,30,0,0
54515,-111.111111111111,4,2,1,40,0,0
54735,-111.111111111111,4,2,1,50,0,0
55177,-111.111111111111,4,2,1,55,0,0
55618,-111.111111111111,4,2,1,60,0,0
56500,-100,4,2,1,85,0,0
84735,-133.333333333333,4,2,1,60,0,0
84756,-133.333333333333,4,2,1,60,0,0
88265,-222.222222222221,4,2,1,60,0,0
88485,-222.222222222221,4,2,2,50,0,0
88506,-222.222222222221,4,2,2,50,0,0
91353,-222.222222222221,4,2,1,60,0,0
91374,-222.222222222221,4,2,1,60,0,0
91794,-133.333333333333,4,2,1,60,0,0
95324,-222.222222222221,4,2,1,60,0,0
95765,-222.222222222221,4,2,2,50,0,0
95786,-222.222222222221,4,2,2,50,0,0
97750,-222.222222222221,4,2,1,50,0,0
97971,-222.222222222221,4,2,1,60,0,0
98853,-133.333333333333,4,2,1,60,0,0
109441,-133.333333333333,4,2,1,40,0,0
111868,-133.333333333333,4,2,1,60,0,0
112750,-133.333333333333,4,2,1,5,0,0
112971,-100,4,2,1,85,0,1
141206,-100,4,2,1,45,0,0
143743,-100,4,2,1,60,0,0
144515,-100,4,2,1,5,0,0
144536,-100,4,2,1,5,0,0
144735,-117.647058823529,4,2,1,60,0,0
144756,-117.647058823529,4,2,1,60,0,0
158743,-117.647058823529,4,2,1,80,0,0
158764,-117.647058823529,4,2,1,80,0,0
158908,-117.647058823529,4,2,1,5,0,0
158929,-117.647058823529,4,2,1,5,0,0
159074,-117.647058823529,4,2,1,80,0,0
159095,-117.647058823529,4,2,1,80,0,0
159129,-117.647058823529,4,2,1,5,0,0
159150,-117.647058823529,4,2,1,5,0,0
159294,-117.647058823529,4,2,1,60,0,0
159315,-117.647058823529,4,2,1,60,0,0
159956,-117.647058823529,4,2,1,5,0,0
159977,-117.647058823529,4,2,1,5,0,0
160103,-117.647058823529,4,2,1,80,0,0
160124,-117.647058823529,4,2,1,80,0,0
160232,-117.647058823529,4,2,1,5,0,0
160253,-117.647058823529,4,2,1,5,0,0
160397,-117.647058823529,4,2,1,80,0,0
160418,-117.647058823529,4,2,1,80,0,0
160452,-117.647058823529,4,2,1,5,0,0
160473,-117.647058823529,4,2,1,5,0,0
160618,-117.647058823529,4,2,1,60,0,0
160639,-117.647058823529,4,2,1,60,0,0
162162,-117.647058823529,4,2,1,5,0,0
162183,-117.647058823529,4,2,1,5,0,0
162309,-117.647058823529,4,2,1,80,0,0
162330,-117.647058823529,4,2,1,80,0,0
162438,-117.647058823529,4,2,1,5,0,0
162459,-117.647058823529,4,2,1,5,0,0
162603,-117.647058823529,4,2,1,80,0,0
162624,-117.647058823529,4,2,1,80,0,0
162658,-117.647058823529,4,2,1,5,0,0
162679,-117.647058823529,4,2,1,5,0,0
162824,-117.647058823529,4,2,1,60,0,0
162845,-117.647058823529,4,2,1,60,0,0
163485,-117.647058823529,4,2,1,5,0,0
163506,-117.647058823529,4,2,1,5,0,0
163632,-117.647058823529,4,2,1,80,0,0
163653,-117.647058823529,4,2,1,80,0,0
163761,-117.647058823529,4,2,1,5,0,0
163782,-117.647058823529,4,2,1,5,0,0
163927,-117.647058823529,4,2,1,80,0,0
163948,-117.647058823529,4,2,1,80,0,0
163982,-117.647058823529,4,2,1,5,0,0
164003,-117.647058823529,4,2,1,5,0,0
164147,-117.647058823529,4,2,1,60,0,0
164168,-117.647058823529,4,2,1,60,0,0
165912,-117.647058823529,4,2,1,80,0,0
165933,-117.647058823529,4,2,1,80,0,0
165967,-117.647058823529,4,2,1,5,0,0
165988,-117.647058823529,4,2,1,5,0,0
166132,-117.647058823529,4,2,1,80,0,0
166153,-117.647058823529,4,2,1,80,0,0
166188,-117.647058823529,4,2,1,5,0,0
166209,-117.647058823529,4,2,1,5,0,0
166353,-117.647058823529,4,2,1,60,0,0
166374,-117.647058823529,4,2,1,60,0,0
167015,-117.647058823529,4,2,1,5,0,0
167036,-117.647058823529,4,2,1,5,0,0
167162,-117.647058823529,4,2,1,80,0,0
167183,-117.647058823529,4,2,1,80,0,0
167291,-117.647058823529,4,2,1,5,0,0
167312,-117.647058823529,4,2,1,5,0,0
167456,-117.647058823529,4,2,1,80,0,0
167477,-117.647058823529,4,2,1,80,0,0
167511,-117.647058823529,4,2,1,5,0,0
167532,-117.647058823529,4,2,1,5,0,0
167677,-117.647058823529,4,2,1,60,0,0
172971,441.176470588235,3,2,1,45,1,0
172971,-117.647058823529,3,2,1,45,0,0
172992,-117.647058823529,3,2,1,45,0,0
194147,-117.647058823529,3,2,1,60,0,0
194168,-117.647058823529,3,2,1,60,0,0
195691,-117.647058823529,3,2,1,5,0,0
195712,-117.647058823529,3,2,1,5,0,0
195912,441.176470588235,4,2,1,60,1,0
195933,-100,4,2,1,60,0,0
224147,-222.222222222221,4,2,2,35,0,0
248412,-222.222222222221,4,2,2,25,0,0
250838,-399.999999999997,4,2,2,25,0,0
251941,-1000,4,2,2,85,0,0
252162,-1000,4,2,2,5,0,0
252382,-100,4,2,1,85,0,1
252403,-100,4,2,1,85,0,1
280617,-100,4,2,1,85,0,0
291206,-181.818181818181,4,2,1,85,0,0
293853,-100,4,2,1,85,0,0
294735,-100,4,2,1,85,0,1
295544,-100,4,2,1,85,0,0
295617,-100,4,2,1,85,0,1
296426,-100,4,2,1,85,0,0
296500,-100,4,2,1,85,0,1
297309,-100,4,2,1,85,0,0
297382,-100,4,2,1,85,0,1
298191,-100,4,2,1,85,0,0
298264,-100,4,2,1,85,0,1
299073,-100,4,2,1,85,0,0
299147,-100,4,2,1,85,0,1
299956,-100,4,2,1,85,0,0
300029,-100,4,2,1,85,0,1
300838,-100,4,2,1,85,0,0
300911,-100,4,2,1,85,0,1
301720,-100,4,2,1,85,0,0
301794,-100,4,2,1,85,0,1
302603,-100,4,2,1,85,0,0
302676,-100,4,2,1,85,0,1
303485,-100,4,2,1,85,0,0
303559,-100,4,2,1,85,0,1
304367,-100,4,2,1,85,0,0
304441,-100,4,2,1,85,0,1
305250,-100,4,2,1,85,0,0
305323,-100,4,2,1,85,0,1
306132,-100,4,2,1,85,0,0
306206,-100,4,2,1,85,0,1
307014,-100,4,2,1,85,0,0
307088,-100,4,2,1,85,0,1
307897,-100,4,2,1,85,0,0
307970,-52.6315789473684,4,2,1,85,0,1
308411,-43.4782608695652,4,2,1,85,0,1
308853,-133.333333333333,4,2,2,30,0,0
310617,-222.222222222221,4,2,2,30,0,0
312382,-133.333333333333,4,2,2,30,0,0
314147,-222.222222222221,4,2,2,30,0,0
315911,-133.333333333333,4,2,2,30,0,0
317676,-222.222222222221,4,2,2,30,0,0
319441,-133.333333333333,4,2,2,30,0,0
321206,-222.222222222221,4,2,2,20,0,0
322529,-222.222222222221,4,2,2,15,0,0
323412,-222.222222222221,4,2,2,10,0,0

[Colours]
Combo1 : 210,106,115
Combo2 : 38,166,195
Combo3 : 180,75,89
Combo4 : 75,111,143

[HitObjects]
84,152,30,5,2,0:0:0:0:
84,152,471,1,0,0:0:0:0:
84,152,912,1,2,0:0:0:0:
84,152,1353,1,0,0:0:0:0:
168,96,1794,6,0,L|260:96,1,80.9999975280763,2|2,0:0|0:0,0:0:0:0:
168,196,2677,2,0,L|249:196,1,80.9999975280763,2|2,0:0|0:0,0:0:0:0:
396,56,3559,5,2,0:0:0:0:
396,56,4000,1,0,0:0:0:0:
396,56,4441,1,2,0:0:0:0:
396,56,4882,1,0,0:0:0:0:
452,140,5323,6,0,L|452:232,1,80.9999975280763,2|2,0:0|0:0,0:0:0:0:
352,140,6206,2,0,L|352:221,1,80.9999975280763,2|2,0:0|0:0,0:0:0:0:
200,328,7088,5,2,0:0:0:0:
200,328,7529,1,0,0:0:0:0:
200,328,7970,1,2,0:0:0:0:
200,328,8411,1,0,0:0:0:0:
116,272,8852,6,0,L|24:272,1,80.9999975280763,2|2,0:0|0:0,0:0:0:0:
116,372,9735,2,0,L|35:372,1,80.9999975280763,2|2,0:0|0:0,0:0:0:0:
84,152,10618,5,2,0:0:0:0:
84,152,11059,1,0,0:0:0:0:
84,152,11500,1,2,0:0:0:0:
84,152,11941,1,0,0:0:0:0:
168,96,12382,6,0,L|260:96,1,80.9999975280763,2|2,0:0|0:0,0:0:0:0:
168,196,13265,1,2,0:0:0:0:
249,196,13706,1,2,0:0:0:0:
332,344,14147,5,2,0:0:0:0:
392,268,14588,1,0,0:0:0:0:
428,360,15029,1,2,0:0:0:0:
332,344,15471,1,0,0:0:0:0:
392,268,15912,6,0,L|484:268,1,80.9999975280763,2|2,0:0|0:0,0:0:0:0:
352,180,16794,2,0,L|444:180,1,80.9999975280763,2|2,0:0|0:0,0:0:0:0:
264,64,17677,5,2,0:0:0:0:
204,140,18118,1,0,0:0:0:0:
168,48,18559,1,2,0:0:0:0:
264,64,19001,1,0,0:0:0:0:
204,140,19442,6,0,L|112:140,1,80.9999975280763,2|2,0:0|0:0,0:0:0:0:
244,228,20324,2,0,L|152:228,1,80.9999975280763,2|2,0:0|0:0,0:0:0:0:
348,348,21206,5,2,0:0:0:0:
424,288,21647,1,0,0:0:0:0:
332,252,22088,1,2,0:0:0:0:
348,348,22530,1,0,0:0:0:0:
424,288,22971,6,0,L|424:196,1,80.9999975280763,2|2,0:0|0:0,0:0:0:0:
512,328,23853,2,0,L|512:236,1,80.9999975280763,2|2,0:0|0:0,0:0:0:0:
468,52,24735,5,2,0:0:0:0:
376,52,25176,1,0,0:0:0:0:
284,52,25618,1,2,0:0:0:0:
192,52,26059,1,0,0:0:0:0:
100,56,26500,6,0,L|100:148,1,80.9999975280763,2|2,0:0|0:0,0:0:0:0:
101,232,27382,1,2,0:0:0:0:
101,232,27603,6,0,L|63:229,3,22.5000008583069,0|0|0|2,1:0|1:0|1:0|1:0,0:0:0:0:
101,232,28265,6,0,P|143:281|134:361,1,135.000005149842,4|0,3:0|1:0,0:0:0:0:
391,229,29147,2,0,P|349:280|352:346,1,135.000005149842,8|0,0:2|1:0,0:0:0:0:
455,316,29809,1,0,3:0:0:0:
366,213,30029,2,0,L|213:213,1,135.000005149842,0|0,3:0|1:0,0:0:0:0:
234,58,30912,2,0,L|375:58,1,135.000005149842,8|0,0:2|1:0,0:0:0:0:
369,58,31794,6,0,P|349:126|368:189,1,135.000005149842,0|0,3:0|1:0,0:0:0:0:
142,57,32677,2,0,P|162:121|145:185,1,135.000005149842,8|0,0:2|1:0,0:0:0:0:
61,125,33338,1,0,3:0:0:0:
168,37,33559,2,0,L|251:37,1,67.5000025749208,0|0,3:0|0:0,0:0:0:0:
232,205,34000,2,0,L|148:205,1,67.5000025749208,0|0,1:0|1:0,0:0:0:0:
152,199,34331,1,0,1:0:0:0:
139,193,34441,2,0,L|136:289,1,67.5000025749208,8|0,0:2|0:0,0:0:0:0:
313,127,34882,2,0,L|310:223,1,67.5000025749208,8|0,0:2|0:0,0:0:0:0:
463,294,35324,6,0,P|422:328|328:312,1,135.000005149842,4|0,3:0|1:0,0:0:0:0:
63,293,36206,2,0,P|104:327|198:311,1,135.000005149842,8|0,0:2|1:0,0:0:0:0:
266,255,36868,1,0,3:0:0:0:
179,146,37088,2,0,L|31:146,1,135.000005149842,0|0,3:0|1:0,0:0:0:0:
328,49,37971,2,0,L|476:49,1,135.000005149842,8|0,0:2|1:0,0:0:0:0:
463,49,38853,6,0,P|416:88|434:167,1,135.000005149842,0|0,3:0|1:0,0:0:0:0:
489,336,39735,2,0,P|422:312|349:339,1,135.000005149842,8|0,0:2|1:0,0:0:0:0:
254,207,40397,1,0,3:0:0:0:
158,292,40618,2,0,P|156:332|166:378,1,67.5000025749208,0|0,3:0|0:0,0:0:0:0:
20,355,41059,2,0,P|24:321|22:287,1,67.5000025749208,0|0,1:0|1:0,0:0:0:0:
16,275,41390,1,0,1:0:0:0:
8,263,41500,5,8,0:2:0:0:
122,190,41721,1,0,3:0:0:0:
23,114,41941,1,8,0:2:0:0:
8,263,42162,1,8,0:3:0:0:
142,187,42382,6,0,P|209:179|311:197,1,161.999995056153,4|0,3:0|1:0,0:0:0:0:
420,308,43044,1,0,0:0:0:0:
466,148,43265,2,0,L|448:14,2,121.499996292114,8|8|0,0:2|0:2|3:0,0:0:0:0:
398,304,44147,2,0,P|331:329|213:303,1,161.999995056153,0|0,3:0|1:0,0:0:0:0:
78,378,44809,1,0,1:0:0:0:
78,378,44919,1,0,1:0:0:0:
78,378,45029,2,0,L|78:270,1,80.9999975280763,8|0,0:2|0:0,0:0:0:0:
127,187,45471,1,8,0:2:0:0:
127,187,45912,6,0,P|152:152|108:28,1,161.999995056153,0|0,3:0|1:0,0:0:0:0:
19,178,46574,1,0,0:0:0:0:
131,308,46794,2,0,L|274:302,2,121.499996292114,8|8|0,0:2|0:2|3:0,0:0:0:0:
12,160,47677,2,0,P|8:80|86:22,1,161.999995056153,0|0,3:0|1:0,0:0:0:0:
232,43,48338,1,0,1:0:0:0:
232,43,48449,1,0,1:0:0:0:
232,43,48559,1,8,0:2:0:0:
119,125,48779,1,0,1:0:0:0:
342,124,49000,1,8,0:2:0:0:
342,124,49441,6,0,P|358:174|324:294,1,161.999995056153,2|0,3:0|1:0,0:0:0:0:
225,361,50103,1,0,0:0:0:0:
108,235,50324,2,0,P|97:155|137:95,2,121.499996292114,8|8|0,0:2|0:2|3:0,0:0:0:0:
353,177,51206,2,0,P|305:163|186:185,1,161.999995056153,0|0,3:0|1:0,0:0:0:0:
41,47,51868,1,0,1:0:0:0:
41,47,51978,1,0,1:0:0:0:
41,47,52088,2,0,P|95:70|205:27,1,161.999995056153,8|8,0:2|0:2,0:0:0:0:
362,24,52750,5,8,0:3:0:0:
332,187,52971,1,0,3:0:0:0:
256,192,53853,12,8,56059,0:2:0:0:
23,277,56500,6,0,P|81:293|171:222,1,180,4|2,3:0|3:2,0:0:0:0:
209,70,57162,1,0,3:2:0:0:
287,255,57382,2,0,L|287:375,1,90,10|0,0:2|0:0,0:0:0:0:
356,168,57824,1,2,3:2:0:0:
242,148,58044,6,0,L|122:147,1,90,0|2,3:2|0:0,0:0:0:0:
321,71,58485,1,0,3:2:0:0:
393,183,58706,1,2,3:2:0:0:
438,81,58927,1,0,3:2:0:0:
438,81,59037,1,0,3:2:0:0:
438,81,59147,5,10,0:2:0:0:
299,83,59368,1,0,3:2:0:0:
399,212,59588,1,10,0:2:0:0:
466,80,59809,1,0,3:0:0:0:
451,300,60029,6,0,P|372:313|299:231,1,180,4|2,3:0|3:2,0:0:0:0:
299,83,60691,1,0,3:2:0:0:
178,232,60912,2,0,L|178:329,1,90,10|0,0:2|0:0,0:0:0:0:
258,166,61353,1,2,3:2:0:0:
83,226,61574,6,0,L|83:323,1,90,0|2,3:2|0:0,0:0:0:0:
152,139,62015,1,0,3:2:0:0:
18,138,62235,1,2,3:2:0:0:
88,52,62456,1,0,3:2:0:0:
83,226,62677,5,10,0:2:0:0:
193,44,62897,1,0,3:2:0:0:
303,224,63118,1,10,0:2:0:0:
303,224,63559,6,0,P|225:203|123:231,1,180,4|2,3:0|3:2,0:0:0:0:
10,119,64221,1,0,3:2:0:0:
192,51,64441,2,0,L|293:52,1,90,10|0,0:2|0:0,0:0:0:0:
77,27,64882,1,2,3:2:0:0:
24,140,65103,6,0,L|31:247,1,90,0|2,3:2|0:0,0:0:0:0:
54,17,65544,1,0,3:2:0:0:
164,139,65765,1,2,3:2:0:0:
247,21,65985,1,0,3:2:0:0:
247,21,66096,1,0,3:2:0:0:
247,21,66206,5,10,0:2:0:0:
49,30,66427,1,0,3:2:0:0:
154,168,66647,1,10,0:2:0:0:
272,39,66868,1,0,3:0:0:0:
462,177,67088,6,0,P|405:208|288:144,1,180,4|2,3:0|3:2,0:0:0:0:
113,310,67750,1,0,3:2:0:0:
113,310,67860,1,0,3:2:0:0:
113,310,67971,2,0,P|187:302|276:374,1,180,10|2,0:2|3:2,0:0:0:0:
465,202,68632,6,0,P|408:233|291:169,1,180,0|0,3:2|3:2,0:0:0:0:
225,42,69294,1,2,3:2:0:0:
124,177,69515,1,0,3:2:0:0:
124,177,69625,1,0,3:2:0:0:
124,177,69735,1,10,0:2:0:0:
51,37,69956,1,0,3:2:0:0:
3,194,70177,1,10,0:2:0:0:
3,205,70287,1,8,0:2:0:0:
3,216,70397,1,8,0:2:0:0:
3,227,70507,1,8,0:2:0:0:
3,239,70618,6,0,P|86:272|176:242,1,180,4|2,3:0|3:2,0:0:0:0:
284,120,71279,1,0,3:2:0:0:
404,279,71500,2,0,P|365:295|311:272,1,90,10|0,0:2|0:0,0:0:0:0:
258,135,71941,1,2,3:2:0:0:
425,170,72162,6,0,L|518:175,1,90,0|2,3:2|0:0,0:0:0:0:
365,63,72603,1,0,3:2:0:0:
262,167,72824,1,2,3:2:0:0:
231,43,73044,1,0,3:2:0:0:
231,43,73154,1,0,3:2:0:0:
231,43,73265,5,10,0:2:0:0:
393,68,73485,1,0,3:2:0:0:
124,134,73706,1,10,0:2:0:0:
124,134,74147,6,0,P|71:199|139:288,1,180,4|2,3:0|3:2,0:0:0:0:
263,227,74809,1,0,3:2:0:0:
99,98,75029,2,0,L|-15:93,1,90,10|0,0:2|0:0,0:0:0:0:
214,16,75471,1,2,3:2:0:0:
329,114,75691,6,0,L|443:109,1,90,0|2,3:2|0:0,0:0:0:0:
209,40,76132,1,0,3:2:0:0:
219,213,76353,1,2,3:2:0:0:
337,122,76574,1,0,3:2:0:0:
337,122,76684,1,0,3:2:0:0:
337,122,76794,1,10,0:2:0:0:
115,126,77015,1,0,3:2:0:0:
224,334,77235,1,10,0:2:0:0:
229,125,77456,1,0,3:0:0:0:
224,334,77677,6,0,P|285:358|386:275,1,180,4|2,3:0|3:2,0:0:0:0:
380,143,78338,1,0,3:2:0:0:
193,222,78559,2,0,L|83:223,1,90,10|0,0:2|0:0,0:0:0:0:
34,47,79000,1,2,3:2:0:0:
8,176,79221,6,0,L|12:279,1,90,0|2,3:2|0:0,0:0:0:0:
60,60,79662,1,0,3:2:0:0:
158,145,79882,1,2,3:2:0:0:
189,28,80103,1,0,3:2:0:0:
189,28,80213,1,0,3:2:0:0:
189,28,80324,1,10,0:2:0:0:
34,80,80544,1,0,3:2:0:0:
280,99,80765,1,10,0:2:0:0:
280,99,81206,6,0,P|309:155|282:269,1,180,4|2,3:0|3:2,0:0:0:0:
456,370,81868,1,0,3:2:0:0:
456,370,81978,1,0,3:2:0:0:
456,370,82088,2,0,P|428:286|461:204,1,180,10|2,0:2|3:2,0:0:0:0:
300,100,82750,6,0,P|329:156|302:270,1,180,0|0,3:2|3:2,0:0:0:0:
175,350,83412,1,2,3:2:0:0:
118,203,83632,1,0,3:2:0:0:
118,203,83743,1,0,3:2:0:0:
118,203,83853,1,10,0:2:0:0:
18,318,84074,1,0,3:2:0:0:
14,143,84294,1,10,0:2:0:0:
14,131,84404,1,8,0:2:0:0:
14,120,84514,1,8,0:2:0:0:
14,109,84624,1,8,0:2:0:0:
15,98,84735,6,0,B|85:85|82:119|158:99,1,135.000005149842,4|0,3:0|1:0,0:0:0:0:
220,39,85397,1,0,3:2:0:0:
282,112,85618,2,0,L|282:247,1,135.000005149842,8|0,0:1|1:0,0:0:0:0:
204,307,86279,1,0,3:2:0:0:
125,254,86500,2,0,P|71:245|-27:263,2,135.000005149842,0|0|8,3:2|1:0|0:1,0:0:0:0:
434,352,87824,1,8,0:2:0:0:
434,352,88265,6,0,L|433:260,5,80.9999975280763,2|2|2|2|2|2,3:0|0:3|0:3|0:3|0:3|0:3,0:0:0:0:
337,282,90691,1,2,0:3:0:0:
337,282,90802,1,2,0:3:0:0:
337,282,90912,2,0,L|336:335,1,40.4999987640381,2|0,0:3|0:0,0:0:0:0:
389,129,91353,5,8,0:1:0:0:
389,129,91794,6,0,P|320:141|248:127,1,135.000005149842,4|0,3:0|1:0,0:0:0:0:
182,72,92456,1,0,3:2:0:0:
117,141,92677,2,0,P|104:179|123:277,1,135.000005149842,8|0,0:1|1:0,0:0:0:0:
204,312,93338,1,0,3:2:0:0:
293,268,93559,2,0,P|310:203|295:138,1,135.000005149842,0|0,3:2|1:0,0:0:0:0:
208,204,94221,1,0,3:2:0:0:
407,204,94441,5,8,0:1:0:0:
305,21,94882,1,0,3:2:0:0:
305,21,95324,6,0,L|213:21,5,80.9999975280763,2|2|2|2|2|2,3:0|0:3|0:3|0:3|0:3|0:3,0:0:0:0:
149,72,97750,1,0,1:0:0:0:
149,72,97860,1,0,1:0:0:0:
149,72,97971,5,8,0:1:0:0:
15,20,98191,1,0,3:2:0:0:
13,222,98412,1,8,0:1:0:0:
13,222,98853,6,0,P|60:210|149:227,1,135.000005149842,4|0,3:0|1:0,0:0:0:0:
213,287,99515,1,0,3:2:0:0:
279,218,99735,2,0,P|326:206|415:223,1,135.000005149842,8|0,0:1|1:0,0:0:0:0:
482,156,100397,1,0,3:2:0:0:
407,91,100618,2,0,P|341:106|275:93,2,135.000005149842,0|0|8,3:2|1:0|0:1,0:0:0:0:
122,35,101941,1,8,0:2:0:0:
122,35,102382,6,0,L|138:188,1,135.000005149842,2|0,3:0|1:0,0:0:0:0:
68,242,103044,1,0,3:2:0:0:
131,306,103265,2,0,P|190:322|273:276,1,135.000005149842,8|0,0:1|1:0,0:0:0:0:
277,199,103927,1,0,3:2:0:0:
203,131,104147,2,0,L|55:145,2,135.000005149842,0|0|8,3:2|1:0|0:1,0:0:0:0:
460,48,105471,1,8,0:2:0:0:
460,48,105912,6,0,P|427:118|456:183,1,135.000005149842,4|0,3:0|1:0,0:0:0:0:
504,249,106574,1,0,3:2:0:0:
425,305,106794,2,0,L|276:294,1,135.000005149842,8|0,0:1|1:0,0:0:0:0:
213,356,107456,1,0,3:2:0:0:
155,275,107677,2,0,P|150:230|203:152,1,135.000005149842,0|0,3:2|1:0,0:0:0:0:
294,128,108338,1,0,3:2:0:0:
115,36,108559,5,8,0:1:0:0:
406,30,109000,1,8,0:2:0:0:
260,286,109441,5,2,3:0:0:0:
96,177,111868,5,0,3:2:0:0:
96,190,111978,1,0,3:2:0:0:
96,203,112088,5,8,0:1:0:0:
202,76,112309,1,0,3:2:0:0:
322,222,112529,1,8,0:2:0:0:
322,222,112971,6,0,P|247:185|156:243,1,180,4|2,3:0|3:2,0:0:0:0:
334,346,113632,1,0,3:2:0:0:
431,201,113853,2,0,L|416:10,1,180,10|2,0:2|3:2,0:0:0:0:
158,52,114515,6,0,P|233:89|324:31,1,180,0|0,3:2|3:2,0:0:0:0:
42,36,115177,1,2,3:2:0:0:
103,176,115397,1,0,3:2:0:0:
103,176,115507,1,0,3:2:0:0:
103,176,115618,1,10,0:2:0:0:
204,64,115838,1,0,3:2:0:0:
231,285,116059,1,10,0:2:0:0:
231,285,116500,6,0,P|294:271|423:303,1,180,4|2,3:0|3:2,0:0:0:0:
497,156,117162,1,0,3:2:0:0:
307,167,117382,2,0,L|120:164,1,180,10|2,0:2|3:2,0:0:0:0:
125,7,118044,6,0,L|312:4,1,180,0|0,3:2|3:2,0:0:0:0:
450,82,118706,1,2,3:2:0:0:
314,169,118927,1,0,3:2:0:0:
314,169,119037,1,0,3:2:0:0:
314,169,119147,1,10,0:2:0:0:
324,5,119368,1,0,3:2:0:0:
429,207,119588,1,10,0:2:0:0:
429,207,120029,6,0,P|326:185|251:219,1,180,4|2,3:0|3:2,0:0:0:0:
182,66,120691,1,0,3:2:0:0:
53,187,120912,2,0,L|49:372,1,180,10|2,0:2|3:2,0:0:0:0:
287,333,121574,6,0,P|245:277|215:356,1,180,0|0,3:2|3:2,0:0:0:0:
465,350,122235,1,2,3:2:0:0:
387,201,122456,1,0,3:2:0:0:
387,201,122566,1,0,3:2:0:0:
387,201,122677,1,10,0:2:0:0:
287,333,122897,1,0,3:2:0:0:
477,347,123118,1,10,0:2:0:0:
384,173,123338,1,0,3:0:0:0:
258,352,123559,6,0,B|238:359|200:363|200:363|142:326|53:339,1,180,4|2,3:0|3:2,0:0:0:0:
11,187,124221,1,0,3:2:0:0:
11,187,124331,1,0,3:2:0:0:
11,187,124441,2,0,P|52:198|121:175,1,90,10|0,0:2|0:0,0:0:0:0:
197,27,124882,1,2,3:2:0:0:
275,144,125103,6,0,L|282:248,1,90,0|2,3:2|0:0,0:0:0:0:
334,24,125544,1,0,3:2:0:0:
176,39,125765,1,2,3:2:0:0:
269,146,125985,1,0,3:2:0:0:
269,146,126096,1,0,3:2:0:0:
269,146,126206,1,10,0:2:0:0:
349,25,126427,1,0,3:2:0:0:
457,161,126647,1,10,0:2:0:0:
457,172,126757,1,8,0:2:0:0:
457,183,126867,1,8,0:2:0:0:
457,194,126977,1,8,0:2:0:0:
457,206,127088,6,0,P|378:231|283:197,1,180,4|2,3:0|3:2,0:0:0:0:
164,48,127750,1,0,3:2:0:0:
20,205,127971,2,0,P|99:230|194:196,1,180,10|2,0:2|3:2,0:0:0:0:
371,42,128632,6,0,P|316:27|262:132,1,180,0|0,3:2|3:2,0:0:0:0:
378,283,129294,1,2,3:2:0:0:
498,184,129515,1,0,3:2:0:0:
498,184,129625,1,0,3:2:0:0:
498,184,129735,1,10,0:2:0:0:
350,129,129956,1,0,3:2:0:0:
499,308,130177,1,10,0:2:0:0:
499,308,130618,6,0,P|452:293|306:326,1,180,4|2,3:0|3:2,0:0:0:0:
121,223,131279,1,0,3:2:0:0:
210,372,131500,2,0,P|218:328|210:284,1,90,10|0,0:2|0:0,0:0:0:0:
28,201,131941,1,2,3:2:0:0:
210,191,132162,6,0,L|398:200,1,180,0|0,3:2|3:2,0:0:0:0:
489,44,132824,2,0,L|377:37,1,90,2|0,3:2|3:2,0:0:0:0:
197,28,133265,1,10,0:2:0:0:
299,118,133485,1,0,3:2:0:0:
133,238,133706,1,10,0:2:0:0:
133,238,134147,6,0,P|199:212|298:277,1,180,4|2,3:0|3:2,0:0:0:0:
457,375,134809,1,0,3:2:0:0:
507,135,135029,2,0,P|422:153|381:230,1,180,10|2,0:2|3:2,0:0:0:0:
208,109,135691,6,0,B|257:116|290:145|290:145|298:96|337:60,1,180,0|0,3:2|3:2,0:0:0:0:
129,36,136353,1,2,3:2:0:0:
123,215,136574,1,0,3:2:0:0:
123,215,136684,1,0,3:2:0:0:
123,215,136794,1,10,0:2:0:0:
2,108,137015,1,0,3:2:0:0:
20,337,137235,1,10,0:2:0:0:
20,337,137677,6,0,P|78:296|169:358,1,180,4|2,3:0|3:2,0:0:0:0:
369,339,138338,1,0,3:2:0:0:
369,339,138449,1,0,3:2:0:0:
369,339,138559,2,0,P|314:303|352:190,1,180,10|2,0:2|3:2,0:0:0:0:
24,313,139221,6,0,P|82:272|173:334,1,180,0|0,3:2|3:2,0:0:0:0:
375,354,139882,1,2,3:2:0:0:
410,161,140103,1,0,3:2:0:0:
410,161,140213,1,0,3:2:0:0:
410,161,140324,1,10,0:2:0:0:
482,273,140544,1,0,3:2:0:0:
260,244,140765,5,10,0:2:0:0:
248,243,140875,1,8,0:2:0:0:
237,243,140985,1,8,0:2:0:0:
226,243,141095,1,8,0:2:0:0:
215,242,141206,1,2,0:0:0:0:
256,192,141316,12,0,143412,0:0:0:0:
135,107,143853,6,0,L|41:105,2,90,8|0|8,0:1|3:2|0:3,0:0:0:0:
160,110,144735,6,0,L|162:211,1,76.5000014591217,4|0,3:0|3:2,0:0:0:0:
223,268,145177,1,0,1:0:0:0:
267,103,145397,1,0,1:0:0:0:
267,103,145507,1,0,1:0:0:0:
267,103,145618,2,0,L|269:204,1,76.5000014591217,8|0,0:1|1:0,0:0:0:0:
371,252,146059,2,0,L|369:175,1,76.5000014591217,0|0,3:2|3:2,0:0:0:0:
310,27,146500,5,0,1:0:0:0:
407,16,146721,1,0,1:0:0:0:
407,16,146831,1,0,1:0:0:0:
407,16,146941,1,0,1:0:0:0:
457,97,147162,1,0,1:0:0:0:
276,120,147382,1,8,0:1:0:0:
310,27,147603,1,0,1:0:0:0:
368,99,147824,2,0,L|370:176,1,76.5000014591217,0|0,3:2|1:0,0:0:0:0:
315,331,148265,6,0,L|217:336,1,76.5000014591217,2|0,3:3|3:2,0:0:0:0:
170,268,148706,1,0,1:0:0:0:
76,364,148927,1,0,1:0:0:0:
76,364,149037,1,0,1:0:0:0:
76,364,149147,2,0,L|152:360,1,76.5000014591217,8|0,0:1|1:0,0:0:0:0:
121,192,149588,2,0,L|44:195,1,76.5000014591217,0|0,3:2|3:2,0:0:0:0:
197,275,150029,5,0,1:0:0:0:
219,190,150250,1,0,1:0:0:0:
219,190,150360,1,0,1:0:0:0:
219,190,150471,1,0,1:0:0:0:
288,244,150691,1,0,1:0:0:0:
249,100,150912,5,8,0:1:0:0:
125,172,151132,1,0,3:2:0:0:
302,259,151353,2,0,L|391:252,1,76.5000014591217,8|0,0:1|1:0,0:0:0:0:
451,81,151794,6,0,L|446:173,1,76.5000014591217,2|0,3:0|3:2,0:0:0:0:
482,256,152235,1,0,1:0:0:0:
355,164,152456,1,0,1:0:0:0:
355,164,152566,1,0,1:0:0:0:
355,164,152677,2,0,L|278:169,1,76.5000014591217,8|0,0:1|1:0,0:0:0:0:
110,100,153118,2,0,L|186:105,1,76.5000014591217,0|0,3:2|3:2,0:0:0:0:
364,47,153559,5,0,1:0:0:0:
278,85,153779,1,0,1:0:0:0:
278,85,153890,1,0,1:0:0:0:
278,85,154000,1,0,1:0:0:0:
202,18,154221,1,0,1:0:0:0:
140,187,154441,2,0,L|143:268,1,76.5000014591217,8|0,0:1|1:0,0:0:0:0:
26,363,154882,5,0,3:2:0:0:
25,343,154992,1,0,1:0:0:0:
24,324,155102,1,0,1:0:0:0:
23,305,155212,1,0,1:0:0:0:
23,286,155324,6,0,L|25:209,1,76.5000014591217,4|0,3:2|3:2,0:0:0:0:
68,126,155765,1,0,1:0:0:0:
233,169,155985,1,0,1:0:0:0:
233,169,156096,1,0,1:0:0:0:
233,169,156206,2,0,L|322:169,1,76.5000014591217,8|0,0:1|1:0,0:0:0:0:
304,328,156647,2,0,L|227:328,1,76.5000014591217,0|0,3:2|3:2,0:0:0:0:
394,251,157088,6,0,P|452:251|507:265,2,114.750002188683,0|0|0,1:0|1:0|1:0,0:0:0:0:
229,183,157971,1,8,0:1:0:0:
266,346,158191,1,0,3:2:0:0:
407,248,158412,1,8,0:1:0:0:
407,248,158632,1,8,0:1:0:0:
207,185,158853,5,4,3:0:0:0:
213,17,159074,1,0,3:2:0:0:
194,211,159294,2,0,L|197:297,1,76.5000014591217,2|0,1:0|0:0,0:0:0:0:
173,10,159735,5,10,0:1:0:0:
151,41,160177,5,2,3:1:0:0:
322,79,160397,1,0,3:2:0:0:
119,34,160618,2,0,P|86:80|132:179,2,153.000002918243,2|2|10,1:0|1:0|0:1,0:0:0:0:
433,26,161941,1,2,3:1:0:0:
274,250,162382,5,2,3:1:0:0:
442,244,162603,1,0,3:2:0:0:
248,263,162823,2,0,L|162:260,1,76.5000014591217,2|0,1:0|0:0,0:0:0:0:
449,284,163264,5,10,0:1:0:0:
418,306,163706,5,2,3:1:0:0:
416,138,163927,1,0,3:2:0:0:
404,341,164147,2,0,P|349:353|231:327,2,153.000002918243,2|2|10,1:0|1:0|0:1,0:0:0:0:
399,137,165250,1,0,3:2:0:0:
207,221,165471,1,10,0:1:0:0:
207,221,165912,5,2,3:1:0:0:
39,215,166133,1,0,3:2:0:0:
233,234,166353,2,0,L|319:231,1,76.5000014591217,2|0,1:0|0:0,0:0:0:0:
32,255,166794,5,10,0:1:0:0:
63,277,167236,5,2,3:1:0:0:
67,102,167456,1,0,3:2:0:0:
77,307,167677,2,0,P|132:322|242:304,2,153.000002918243,2|2|10,1:0|1:0|0:1,0:0:0:0:
78,111,168779,1,0,3:2:0:0:
220,189,169000,1,10,0:1:0:0:
205,46,169221,1,0,0:0:0:0:
51,135,169441,5,4,3:0:0:0:
210,223,169662,2,0,L|376:230,1,153.000002918243,0|0,3:2|3:2,0:0:0:0:
435,30,170324,2,0,P|388:87|439:151,1,153.000002918243,12|2,0:1|0:0,0:0:0:0:
463,361,170985,6,0,P|379:332|308:365,1,153.000002918243,0|0,3:2|3:2,0:0:0:0:
183,245,171647,1,2,3:2:0:0:
310,234,171868,1,0,0:0:0:0:
192,371,172088,1,12,0:1:0:0:
162,234,172309,1,0,3:2:0:0:
31,327,172529,1,8,0:1:0:0:
31,336,172639,1,8,0:1:0:0:
31,346,172749,1,8,0:1:0:0:
31,355,172859,1,8,0:1:0:0:
31,365,172971,6,0,B|53:341|53:341|54:193,2,153.000002918243,2|10|8,3:0|1:2|1:2,0:0:0:0:
0,147,174294,2,0,B|24:125|24:125|172:124,2,153.000002918243,0|10|8,3:0|1:2|1:2,0:0:0:0:
161,317,175618,2,0,L|402:314,1,229.500004377365,10|0,1:2|1:2,0:0:0:0:
469,252,176500,2,0,P|480:210|457:171,1,76.5000014591217,8|0,1:2|3:0,0:0:0:0:
376,128,176941,2,0,L|202:134,2,153.000002918243,0|10|8,3:0|1:2|1:2,0:0:0:0:
463,94,178044,1,8,1:2:0:0:
371,264,178265,6,0,P|306:288|220:259,2,153.000002918243,2|10|8,3:0|1:2|1:2,0:0:0:0:
300,49,179588,2,0,P|277:120|301:191,2,153.000002918243,0|10|8,3:0|1:2|1:2,0:0:0:0:
72,25,180912,2,0,P|115:86|73:245,1,229.500004377365,10|0,1:2|1:2,0:0:0:0:
2,356,181794,2,0,P|5:318|29:289,1,76.5000014591217,8|0,1:2|3:0,0:0:0:0:
227,350,182235,6,0,P|166:374|75:339,2,153.000002918243,0|10|8,3:0|1:2|1:2,0:0:0:0:
278,270,183338,1,10,1:2:0:0:
153,94,183559,6,0,B|109:103|73:94|73:94|82:133|57:173,2,153.000002918243,2|10|8,3:0|1:2|1:2,0:0:0:0:
342,96,184882,2,0,B|386:105|422:96|422:96|413:135|432:165,2,153.000002918243,0|10|8,3:0|1:2|1:2,0:0:0:0:
144,297,186206,2,0,P|243:353|338:271,1,229.500004377365,10|0,1:2|1:2,0:0:0:0:
242,159,187088,2,0,L|240:258,1,76.5000014591217,8|0,1:2|3:0,0:0:0:0:
429,318,187529,2,0,L|432:143,1,153.000002918243,0|10,3:0|1:2,0:0:0:0:
348,32,188412,1,8,1:2:0:0:
348,32,188632,1,10,1:2:0:0:
157,127,188853,6,0,P|140:190|206:184,2,153.000002918243,2|10|8,3:0|1:2|1:2,0:0:0:0:
430,126,190176,2,0,P|446:189|381:182,2,153.000002918243,0|10|8,3:0|1:2|1:2,0:0:0:0:
183,34,191500,2,0,P|242:72|391:14,1,229.500004377365,10|0,1:2|1:2,0:0:0:0:
484,104,192382,2,0,P|459:144|460:195,1,76.5000014591217,8|0,1:2|3:0,0:0:0:0:
341,297,192823,2,0,P|365:239|327:148,2,153.000002918243,0|10|8,3:0|1:2|1:2,0:0:0:0:
232,354,193926,1,10,1:2:0:0:
130,303,194147,5,2,3:0:0:0:
105,314,194588,5,2,0:2:0:0:
80,325,195029,5,2,3:0:0:0:
5,147,195250,2,0,L|0:185,2,38.2500007295609,0|0|8,3:0|3:0|0:1,0:0:0:0:
4,146,195912,6,0,B|30:145|56:159|56:159|90:155|117:143|117:143|167:168|167:168|211:152|287:161,1,270,4|0,3:0|3:2,0:0:0:0:
491,128,196794,2,0,P|433:191|496:253,1,180,10|2,0:2|3:2,0:0:0:0:
424,54,197456,2,0,P|364:103|339:207,1,180,0|0,3:2|3:2,0:0:0:0:
335,359,198117,1,2,3:2:0:0:
209,325,198338,1,0,3:2:0:0:
209,325,198448,1,0,3:2:0:0:
209,325,198559,5,10,0:2:0:0:
341,175,198779,1,0,3:2:0:0:
461,334,199000,1,10,0:2:0:0:
461,334,199441,6,0,B|414:347|376:327|376:327|335:347|335:347|304:321|265:313|265:313|239:324|168:327,1,270,4|0,3:0|3:2,0:0:0:0:
35,146,200323,2,0,B|67:180|78:222|78:222|98:181|157:148,1,180,10|2,0:2|3:2,0:0:0:0:
21,307,200985,2,0,P|50:362|125:302,1,180,0|0,3:2|3:2,0:0:0:0:
222,181,201647,2,0,P|226:136|205:98,1,90,2|0,3:2|3:2,0:0:0:0:
4,151,202088,5,10,0:2:0:0:
102,43,202309,1,0,3:2:0:0:
204,276,202529,1,10,0:2:0:0:
204,276,202970,6,0,P|284:259|395:293,1,180,4|2,3:0|3:2,0:0:0:0:
488,167,203632,1,0,3:2:0:0:
307,79,203853,2,0,L|201:81,1,90,10|0,0:2|0:0,0:0:0:0:
407,29,204294,1,2,3:2:0:0:
294,180,204514,6,0,L|188:182,1,90,0|2,3:2|0:0,0:0:0:0:
109,44,204956,1,0,3:2:0:0:
56,205,205176,1,2,3:2:0:0:
2,101,205397,1,0,3:2:0:0:
2,101,205507,1,0,3:2:0:0:
2,101,205617,5,10,0:2:0:0:
206,89,205838,1,0,3:2:0:0:
110,303,206059,1,10,0:2:0:0:
110,303,206500,6,0,P|171:323|279:282,1,180,4|2,3:0|3:2,0:0:0:0:
415,355,207162,1,0,3:2:0:0:
415,355,207272,1,0,3:2:0:0:
415,355,207382,2,0,P|377:275|397:189,1,180,10|2,0:2|3:2,0:0:0:0:
116,325,208044,6,0,P|177:345|285:304,1,180,0|0,3:2|3:2,0:0:0:0:
193,131,208706,1,2,3:2:0:0:
59,217,208926,1,0,3:2:0:0:
59,217,209037,1,0,3:2:0:0:
59,217,209147,1,10,0:2:0:0:
53,63,209367,1,0,3:2:0:0:
213,132,209588,1,10,0:2:0:0:
224,132,209698,1,8,0:2:0:0:
235,132,209808,1,8,0:2:0:0:
246,132,209918,1,8,0:2:0:0:
257,133,210029,6,0,B|272:169|272:169|266:202|266:202|277:241|277:241|264:268|264:268|269:303|250:340|250:340|231:319|230:284,1,270,4|0,3:0|3:2,0:0:0:0:
36,167,210912,2,0,P|92:131|157:221,1,180,10|2,0:2|3:2,0:0:0:0:
28,49,211573,2,0,P|106:37|198:76,1,180,0|0,3:2|3:2,0:0:0:0:
387,31,212235,1,2,3:2:0:0:
312,160,212456,1,0,3:2:0:0:
312,160,212566,1,0,3:2:0:0:
312,160,212676,5,10,0:2:0:0:
408,23,212897,1,0,3:2:0:0:
501,189,213117,1,10,0:2:0:0:
501,189,213559,6,0,B|367:145|373:233|214:176,1,270,4|0,3:0|3:2,0:0:0:0:
0,279,214441,2,0,P|31:328|125:254,1,180,10|2,0:2|3:2,0:0:0:0:
126,91,215103,2,0,P|59:42|0:99,1,180,0|0,3:2|3:2,0:0:0:0:
209,185,215764,2,0,L|322:185,1,90,2|0,3:2|3:2,0:0:0:0:
406,59,216206,5,10,0:2:0:0:
403,289,216426,1,0,3:2:0:0:
174,191,216647,1,10,0:2:0:0:
174,191,217088,6,0,P|136:239|196:342,1,180,4|2,3:0|3:2,0:0:0:0:
313,230,217750,1,0,3:2:0:0:
153,159,217970,2,0,L|35:159,1,90,10|0,0:2|0:0,0:0:0:0:
231,63,218412,1,2,3:2:0:0:
346,114,218632,6,0,L|466:117,1,90,0|2,3:2|0:0,0:0:0:0:
202,56,219073,1,0,3:2:0:0:
160,188,219294,1,2,3:2:0:0:
63,98,219514,1,0,3:2:0:0:
63,98,219625,1,0,3:2:0:0:
63,98,219735,5,10,0:2:0:0:
233,50,219956,1,0,3:2:0:0:
265,242,220176,1,10,0:2:0:0:
265,242,220617,6,0,P|196:208|81:257,1,180,4|2,3:0|3:2,0:0:0:0:
8,66,221279,1,0,3:2:0:0:
8,66,221389,1,0,3:2:0:0:
8,66,221500,2,0,P|77:100|192:51,1,180,10|2,0:2|3:2,0:0:0:0:
272,256,222162,6,0,P|203:222|88:271,1,180,0|0,3:2|3:2,0:0:0:0:
171,369,222823,1,2,3:2:0:0:
40,355,223044,1,0,3:2:0:0:
40,355,223154,1,0,3:2:0:0:
40,355,223264,1,10,0:2:0:0:
56,180,223485,1,0,3:2:0:0:
261,297,223706,5,10,0:2:0:0:
272,297,223816,1,8,0:2:0:0:
283,297,223926,1,8,0:2:0:0:
294,298,224036,1,8,0:2:0:0:
305,298,224147,6,0,L|305:207,1,80.9999975280763,2|0,0:0|0:0,0:0:0:0:
372,174,224809,2,0,P|342:143|296:143,1,80.9999975280763,2|0,0:0|0:0,0:0:0:0:
240,178,225470,1,0,0:0:0:0:
240,178,225691,2,0,L|153:178,1,80.9999975280763,2|0,0:0|0:0,0:0:0:0:
157,101,226353,1,0,0:0:0:0:
157,101,226573,1,2,0:0:0:0:
291,43,227235,5,0,0:0:0:0:
291,43,227456,2,0,P|321:34|371:45,1,80.9999975280763,2|0,0:0|0:0,0:0:0:0:
436,92,228117,1,0,0:0:0:0:
436,92,228338,2,0,P|445:122|434:172,1,80.9999975280763,2|0,0:0|0:0,0:0:0:0:
387,237,228999,1,0,0:0:0:0:
387,237,229220,2,0,P|357:246|307:235,1,80.9999975280763,2|0,0:0|0:0,0:0:0:0:
251,188,229882,1,0,0:0:0:0:
251,188,230103,1,2,0:0:0:0:
151,113,230764,5,0,0:0:0:0:
151,113,230985,2,0,P|160:143|149:193,1,80.9999975280763,2|0,0:0|0:0,0:0:0:0:
96,250,231647,1,0,0:0:0:0:
96,250,231868,2,0,P|87:280|98:330,1,80.9999975280763,2|0,0:0|0:0,0:0:0:0:
162,378,232529,1,0,0:0:0:0:
162,378,232750,2,0,L|248:378,1,80.9999975280763,2|0,0:0|0:0,0:0:0:0:
310,334,233411,1,0,0:0:0:0:
310,334,233632,1,2,0:0:0:0:
252,205,234294,5,0,0:0:0:0:
252,205,234514,2,0,L|252:76,1,121.499996292114,2|0,0:0|0:0,0:0:0:0:
332,58,235397,2,0,L|332:179,1,121.499996292114,2|0,0:0|0:0,0:0:0:0:
412,205,236279,2,0,L|412:83,1,121.499996292114,2|0,0:0|0:0,0:0:0:0:
492,58,237161,1,2,0:0:0:0:
491,281,237823,5,0,0:0:0:0:
491,281,238044,2,0,P|449:291|395:280,1,80.9999975280763,2|0,0:0|0:0,0:0:0:0:
348,242,238706,1,0,0:0:0:0:
348,242,238927,2,0,P|306:232|252:243,1,80.9999975280763,2|0,0:0|0:0,0:0:0:0:
211,293,239588,1,0,0:0:0:0:
211,293,239809,2,0,P|169:303|115:292,1,80.9999975280763,2|0,0:0|0:0,0:0:0:0:
81,241,240470,1,0,0:0:0:0:
81,241,240691,1,2,0:0:0:0:
75,53,241353,5,0,0:0:0:0:
75,53,241573,2,0,L|173:54,1,80.9999975280763,2|0,0:0|0:0,0:0:0:0:
226,16,242235,1,0,0:0:0:0:
226,16,242456,2,0,P|238:53|217:101,1,80.9999975280763,2|0,0:0|0:0,0:0:0:0:
159,132,243117,1,0,0:0:0:0:
159,132,243337,2,0,L|61:133,1,80.9999975280763,2|0,0:0|0:0,0:0:0:0:
13,90,244000,1,0,0:0:0:0:
13,90,244220,1,2,0:0:0:0:
23,262,244882,5,0,0:0:0:0:
23,262,245103,2,0,P|48:313|118:316,1,121.499996292114,2|0,0:0|0:0,0:0:0:0:
165,272,245985,2,0,P|198:263|288:292,1,121.499996292114,2|0,0:0|0:0,0:0:0:0:
339,337,246867,2,0,P|356:365|427:327,1,121.499996292114,2|0,0:0|0:0,0:0:0:0:
387,272,247750,1,2,0:0:0:0:
158,85,248411,6,0,L|172:135,1,40.4999987640381,0|2,0:0|0:0,0:0:0:0:
354,85,249294,6,0,L|339:122,1,40.4999987640381,0|2,0:0|0:0,0:0:0:0:
262,178,250176,6,0,L|277:215,1,40.4999987640381,0|2,0:0|0:0,0:0:0:0:
356,234,251059,6,0,L|346:264,1,22.5,0|2,0:0|0:0,0:0:0:0:
281,298,251941,6,0,L|285:314,1,13.5,4|0,0:0|0:0,0:0:0:0:
291,323,252382,6,0,P|240:297|120:325,1,180,4|2,3:0|3:2,0:0:0:0:
16,145,253044,1,0,3:2:0:0:
222,172,253264,2,0,L|322:176,1,90,10|0,0:2|0:0,0:0:0:0:
138,43,253706,1,2,3:2:0:0:
13,167,253926,6,0,L|23:265,1,90,0|2,3:2|0:0,0:0:0:0:
145,25,254367,1,0,3:2:0:0:
220,194,254588,1,2,3:2:0:0:
312,63,254809,1,0,3:2:0:0:
312,63,254919,1,0,3:2:0:0:
312,63,255029,5,10,0:2:0:0:
109,37,255250,1,0,3:2:0:0:
201,223,255470,1,10,0:2:0:0:
334,55,255691,1,0,3:0:0:0:
500,185,255911,6,0,P|459:222|398:224,1,90,4|0,3:0|0:0,0:0:0:0:
257,368,256353,2,0,P|245:313|274:260,1,90,2|0,3:2|0:2,0:0:0:0:
78,151,256794,2,0,P|132:139|185:168,1,90,10|0,0:2|0:0,0:0:0:0:
291,21,257235,1,2,3:2:0:0:
450,172,257456,6,0,P|385:206|283:163,1,180,0|0,3:2|3:2,0:0:0:0:
107,35,258117,2,0,P|143:61|153:135,1,90,2|0,3:2|3:2,0:0:0:0:
42,318,258559,1,10,0:2:0:0:
38,147,258779,1,0,3:2:0:0:
221,298,259000,1,10,0:2:0:0:
221,298,259441,6,0,P|276:270|399:290,1,180,4|2,3:0|3:2,0:0:0:0:
131,357,260103,1,0,3:2:0:0:
93,190,260323,2,0,L|102:77,1,90,10|0,0:2|0:0,0:0:0:0:
309,156,260764,1,2,3:2:0:0:
206,20,260985,6,0,L|190:218,1,180,0|0,3:2|3:2,0:0:0:0:
317,28,261647,1,2,3:2:0:0:
433,174,261867,1,0,3:2:0:0:
433,174,261978,1,0,3:2:0:0:
433,174,262088,1,10,0:2:0:0:
461,32,262309,1,0,3:2:0:0:
312,173,262529,1,10,0:2:0:0:
254,27,262750,1,0,3:0:0:0:
142,139,262970,6,0,L|51:141,1,90,4|0,3:0|0:0,0:0:0:0:
257,258,263411,2,0,L|258:347,1,90,2|0,3:2|0:2,0:0:0:0:
359,137,263853,2,0,L|450:139,1,90,10|0,0:2|0:0,0:0:0:0:
239,50,264294,1,2,3:2:0:0:
120,167,264514,6,0,L|124:357,1,180,0|0,3:2|3:2,0:0:0:0:
24,234,265176,1,2,3:2:0:0:
215,222,265397,1,0,3:2:0:0:
215,222,265507,1,0,3:2:0:0:
215,222,265617,1,10,0:2:0:0:
109,79,265838,1,0,3:2:0:0:
24,262,266059,5,10,0:2:0:0:
24,273,266169,1,8,0:2:0:0:
24,284,266279,1,8,0:2:0:0:
24,295,266389,1,8,0:2:0:0:
25,306,266500,6,0,P|104:334|198:308,1,180,4|2,3:0|3:2,0:0:0:0:
279,158,267161,1,0,3:2:0:0:
381,297,267382,2,0,L|477:301,1,90,10|0,0:2|0:0,0:0:0:0:
276,174,267823,1,2,3:2:0:0:
200,340,268044,6,0,P|114:363|30:335,1,180,0|0,3:2|3:2,0:0:0:0:
6,125,268706,1,2,3:2:0:0:
121,263,268926,1,0,3:2:0:0:
121,263,269036,1,0,3:2:0:0:
121,263,269147,5,10,0:2:0:0:
260,127,269367,1,0,3:2:0:0:
252,301,269588,1,10,0:2:0:0:
144,110,269809,1,0,3:0:0:0:
79,351,270029,6,0,P|122:359|177:343,1,90,4|0,3:0|0:0,0:0:0:0:
402,291,270470,2,0,P|358:282|303:298,1,90,2|0,3:2|0:2,0:0:0:0:
101,205,270911,2,0,P|144:213|199:197,1,90,10|0,0:2|0:0,0:0:0:0:
372,137,271353,1,2,3:2:0:0:
218,35,271573,6,0,P|179:91|240:199,1,180,0|0,3:2|3:2,0:0:0:0:
341,28,272235,1,2,3:2:0:0:
409,165,272456,1,0,3:2:0:0:
409,165,272566,1,0,3:2:0:0:
409,165,272676,5,10,0:2:0:0:
468,52,272897,1,0,3:2:0:0:
298,132,273117,1,10,0:2:0:0:
453,257,273338,1,0,3:0:0:0:
278,357,273559,6,0,B|195:372|204:319|82:352,1,180,4|2,3:0|3:2,0:0:0:0:
25,145,274220,1,0,3:2:0:0:
194,238,274441,2,0,L|299:238,1,90,10|0,0:2|0:0,0:0:0:0:
177,85,274882,1,2,3:2:0:0:
16,174,275103,2,0,L|16:273,1,90,0|2,3:2|0:0,0:0:0:0:
72,56,275544,1,0,3:2:0:0:
161,199,275764,1,2,3:2:0:0:
289,85,275985,1,0,3:2:0:0:
289,85,276095,1,0,3:2:0:0:
289,85,276206,5,10,0:2:0:0:
53,44,276426,1,0,3:2:0:0:
297,211,276647,1,10,0:2:0:0:
297,211,277088,6,0,P|233:181|118:220,1,180,4|2,3:0|3:2,0:0:0:0:
408,297,277750,1,0,3:2:0:0:
408,297,277860,1,0,3:2:0:0:
408,297,277970,2,0,P|436:213|404:131,1,180,10|2,0:2|3:2,0:0:0:0:
131,207,278632,6,0,P|214:179|297:211,1,180,0|0,3:2|3:2,0:0:0:0:
115,361,279294,1,2,3:2:0:0:
16,223,279514,1,0,3:2:0:0:
16,223,279625,1,0,3:2:0:0:
16,223,279735,1,10,0:2:0:0:
122,72,279956,1,0,3:2:0:0:
216,289,280176,5,10,0:2:0:0:
216,300,280286,1,8,0:2:0:0:
216,311,280396,1,8,0:2:0:0:
216,322,280506,1,8,0:2:0:0:
216,334,280617,1,4,3:0:0:0:
256,192,280728,12,4,284147,3:3:0:0:
130,91,284588,5,4,3:0:0:0:
398,92,285029,1,10,0:2:0:0:
104,90,285470,1,0,3:0:0:0:
144,320,285911,6,0,B|228:272|256:184|256:184|284:272|368:320,2,360,4|10|4,3:0|0:2|3:0,0:0:0:0:
130,91,288117,5,4,3:0:0:0:
130,91,288559,1,4,3:0:0:0:
130,91,289000,1,0,3:0:0:0:
398,92,289441,1,10,0:2:0:0:
130,91,289882,1,4,3:0:0:0:
130,91,290323,1,4,3:0:0:0:
130,91,290764,1,0,3:0:0:0:
340,308,291206,6,0,L|456:312,1,99.0000030212403,4|4,3:0|3:0,0:0:0:0:
172,308,292088,2,0,L|56:312,1,99.0000030212403,10|0,0:0|3:0,0:0:0:0:
252,88,292970,5,10,0:2:0:0:
252,188,293411,1,10,0:2:0:0:
252,288,293853,6,0,L|256:320,3,30,8|8|8|0,3:1|3:1|3:1|3:1,0:0:0:0:
152,224,294294,5,8,0:2:0:0:
140,224,294404,1,8,0:2:0:0:
129,224,294514,1,10,0:2:0:0:
118,224,294624,1,8,0:2:0:0:
107,224,294735,6,0,L|60:236,11,30,4|0|0|0|0|0|0|0|0|0|0|0,3:0|3:2|3:2|3:2|3:2|3:2|3:2|3:2|3:2|3:2|3:2|3:2,0:0:0:0:
64,152,295617,2,0,L|17:140,11,30,10|0|0|0|0|0|0|0|0|0|0|0,3:2|3:0|3:0|3:0|3:0|3:0|3:0|3:0|3:0|3:0|3:0|3:0,0:0:0:0:
176,176,296500,6,0,L|134:151,11,30,4|0|0|0|0|0|0|0|0|0|0|0,3:0|3:2|3:2|3:2|3:2|3:2|3:2|3:2|3:2|3:2|3:2|3:2,0:0:0:0:
196,94,297382,2,0,L|171:52,11,30,10|0|0|0|0|0|0|0|0|0|0|0,3:2|3:0|3:0|3:0|3:0|3:0|3:0|3:0|3:0|3:0|3:0|3:0,0:0:0:0:
264,184,298264,6,0,L|252:137,11,30,4|0|0|0|0|0|0|0|0|0|0|0,3:0|3:2|3:2|3:2|3:2|3:2|3:2|3:2|3:2|3:2|3:2|3:2,0:0:0:0:
336,140,299147,2,0,L|348:93,11,30,10|0|0|0|0|0|0|0|0|0|0|0,3:2|3:0|3:0|3:0|3:0|3:0|3:0|3:0|3:0|3:0|3:0|3:0,0:0:0:0:
344,256,300029,6,0,L|332:209,11,30,4|0|0|0|0|0|0|0|0|0|0|0,3:0|3:2|3:2|3:2|3:2|3:2|3:0|3:0|3:0|3:0|3:0|3:0,0:0:0:0:
440,232,300911,2,0,L|432:261,11,30,10|0|0|0|0|0|0|0|0|0|0|0,3:2|3:2|3:2|3:2|3:2|3:2|3:2|3:2|3:2|3:2|3:2|3:2,0:0:0:0:
380,338,301794,6,0,L|380:368,11,30,4|0|0|0|0|0|0|0|0|0|0|0,3:0|3:0|3:0|3:0|3:0|3:0|3:0|3:0|3:0|3:0|3:0|3:0,0:0:0:0:
268,320,302676,2,0,L|268:349,11,30,10|0|0|0|0|0|0|0|0|0|0|0,3:2|3:0|3:0|3:0|3:0|3:0|3:0|3:0|3:0|3:0|3:0|3:0,0:0:0:0:
72,340,303559,6,0,L|72:369,11,30,4|0|0|0|0|0|0|0|0|0|0|0,3:0|3:0|3:0|3:0|3:0|3:0|3:0|3:0|3:0|3:0|3:0|3:0,0:0:0:0:
184,321,304441,2,0,L|183:350,11,30,10|0|0|0|0|0|0|0|0|0|0|0,3:2|3:2|3:2|3:2|3:2|3:2|3:2|3:2|3:2|3:2|3:2|3:2,0:0:0:0:
144,184,305323,6,0,L|144:213,11,30,4|0|0|0|0|0|0|0|0|0|0|0,3:0|3:0|3:0|3:0|3:0|3:0|3:0|3:0|3:0|3:0|3:0|3:0,0:0:0:0:
340,188,306205,2,0,L|339:217,11,30,10|0|0|0|0|0|0|0|0|0|0|0,3:2|3:0|3:0|3:0|3:0|3:0|3:0|3:0|3:0|3:0|3:0|3:0,0:0:0:0:
248,64,307088,6,0,L|248:112,11,30,4|0|0|0|0|0|0|0|0|0|0|0,3:0|3:0|3:0|3:0|3:0|3:0|3:0|3:0|3:0|3:0|3:0|3:0,0:0:0:0:
335,84,307970,6,0,L|392:84,5,56.9999984779358,8|8|8|0|0|0,3:1|3:1|3:1|3:1|3:1|3:1,0:0:0:0:
448,168,308411,6,0,L|448:252,5,69.0000013160706,8|8|8|8|8|8,3:1|3:1|3:1|3:1|3:1|3:1,0:0:0:0:
392,312,308853,6,0,P|324:328|256:308,3,135.000005149842,2|0|2|0,0:0|0:0|0:0|0:0,0:0:0:0:
192,240,310617,6,0,L|192:144,1,80.9999975280763,2|2,0:0|0:0,0:0:0:0:
96,288,311500,2,0,L|96:192,1,80.9999975280763,2|2,0:0|0:0,0:0:0:0:
32,56,312382,6,0,P|96:40|180:72,3,135.000005149842,2|0|2|0,0:0|0:0|0:0|0:0,0:0:0:0:
240,124,314147,6,0,L|240:220,1,80.9999975280763,2|2,0:0|0:0,0:0:0:0:
336,76,315030,2,0,L|336:172,1,80.9999975280763,2|2,0:0|0:0,0:0:0:0:
416,320,315911,6,0,P|376:304|280:328,3,135.000005149842,2|0|2|0,0:0|0:0|0:0|0:0,0:0:0:0:
188,332,317676,6,0,L|92:332,1,80.9999975280763,2|2,0:0|0:0,0:0:0:0:
236,236,318559,2,0,L|140:236,1,80.9999975280763,2|2,0:0|0:0,0:0:0:0:
40,84,319441,6,0,P|16:152|44:224,3,135.000005149842,2|0|2|0,0:0|0:0|0:0|0:0,0:0:0:0:
112,268,321206,6,0,L|200:268,1,80.9999975280763,2|2,0:0|0:0,0:0:0:0:
294,188,322088,2,0,L|341:189,1,40.4999987640381,2|0,0:0|0:0,0:0:0:0:
400,280,322529,2,0,L|440:281,1,40.4999987640381,2|0,0:0|0:0,0:0:0:0:
