osu file format v14

[General]
AudioFilename: audio.mp3
AudioLeadIn: 0
PreviewTime: 14191
Countdown: 0
SampleSet: Soft
StackLeniency: 0.7
Mode: 2
LetterboxInBreaks: 0
WidescreenStoryboard: 1

[Editor]
DistanceSpacing: 1.1
BeatDivisor: 4
GridSize: 32
TimelineZoom: 1

[Metadata]
Title:Harumachi Clover (Swing Arrangement)
TitleUnicode:春待ちクローバー (Swing Arrangement)
Artist:Will Stetson
ArtistUnicode:Will Stetson
Creator:Ascendance
Version:Salad
Source:OneRoom
Tags:花坂結衣 cv:M・A・O hanasaka yui m.a.o kantoku カントク one room ワンルーム mix remix greaper -luminate lumi Anime Japanese tv size ending ed dictate edit
BeatmapID:2236495
BeatmapSetID:1068277

[Difficulty]
HPDrainRate:4
CircleSize:3
OverallDifficulty:7
ApproachRate:7
SliderMultiplier:1.6
SliderTickRate:1

[Events]
//Background and Video events
0,0,"cropped-1920-1080-779388.png",0,0
//Break Periods
//Storyboard Layer 0 (Background)
//Storyboard Layer 1 (Fail)
//Storyboard Layer 2 (Pass)
//Storyboard Layer 3 (Foreground)
//Storyboard Layer 4 (Overlay)
//Storyboard Sound Samples

[TimingPoints]
-1250,352.941176470588,4,2,22,50,1,0
161,-100,4,2,1,25,0,0
2161,-100,4,2,1,50,0,0
14279,-100,4,2,1,70,0,0
25573,-100,4,2,1,75,0,0
28397,-100,4,2,1,60,0,0
29808,-100,4,2,1,50,0,0
30338,-100,4,2,1,20,0,0
31220,-100,4,2,1,10,0,0
32632,-100,4,2,1,5,0,0

[Colours]
Combo1 : 255,102,255
Combo2 : 128,64,0
Combo3 : 0,128,64
Combo4 : 0,0,160
Combo5 : 170,85,0

[HitObjects]
76,125,161,5,0,0:0:0:0:
383,124,867,5,0,0:0:0:0:
125,106,1573,5,0,0:0:0:0:
314,103,1926,5,0,0:0:0:0:
196,103,2161,1,0,0:0:0:0:
137,101,2279,2,0,P|89:157|164:210,1,160
341,262,2985,6,0,L|341:115,1,106.666666666667
282,146,3338,1,8,0:0:0:0:
105,142,3691,2,0,L|105:13,1,106.666666666667
163,25,4044,1,8,0:0:0:0:
475,26,4397,6,0,L|349:26,1,106.666666666667
309,27,4749,1,8,0:0:0:0:
191,27,4985,2,0,L|426:26,1,213.333333333333,0|8,0:0|0:0,0:0:0:0:
287,38,5691,6,0,L|199:38,1,53.3333333333333
116,49,6044,2,0,L|27:49,1,53.3333333333333,0|8,0:0|0:0,0:0:0:0:
234,87,6514,2,0,L|436:87,1,160,0|8,0:0|0:0,0:0:0:0:
84,279,7220,6,0,P|18:223|73:147,1,160,0|8,0:0|0:0,0:0:0:0:
155,146,7808,1,0,0:0:0:0:
330,154,8161,2,0,L|405:152,1,53.3333333333333,0|8,0:0|0:0,0:0:0:0:
211,111,8632,6,0,L|41:111,1,160,0|8,0:0|0:0,0:0:0:0:
222,68,9338,1,0,0:0:0:0:
339,73,9573,2,0,L|411:73,1,53.3333333333333,0|8,0:0|0:0,0:0:0:0:
277,97,9926,6,0,L|79:98,1,160
57,98,10397,1,8,0:0:0:0:
232,93,10749,2,0,L|410:93,1,160,0|8,0:0|0:0,0:0:0:0:
106,158,11455,6,0,L|-6:157,1,106.666666666667
173,126,12044,2,0,L|356:127,1,160
71,252,12749,2,0,P|6:184|86:103,1,213.333333333333,0|8,0:0|0:0,0:0:0:0:
266,95,13573,2,0,L|362:95,1,80
434,94,13926,1,8,0:1:0:0:
172,318,14279,6,0,L|171:225,1,80,8|8,0:1|0:3,0:0:0:0:
256,217,14632,1,8,0:1:0:0:
430,242,14985,2,8,L|430:60,1,160,8|8,0:1|0:1,0:0:0:0:
116,49,15691,6,8,L|306:47,1,160,8|8,0:1|0:1,0:0:0:0:
364,46,16220,1,8,0:3:0:0:
275,48,16397,1,8,0:1:0:0:
99,48,16749,1,8,0:1:0:0:
274,33,17102,6,8,L|367:32,2,80,8|8|8,0:1|0:3|0:1,0:3:0:0:
97,31,17808,2,0,L|97:202,1,160,8|8,0:1|0:1,0:0:0:0:
434,172,18514,2,8,L|433:347,1,160,8|8,0:1|0:1,0:0:0:0:
344,325,19044,1,8,0:3:0:0:
256,326,19220,1,8,0:1:0:0:
432,326,19573,1,8,0:1:0:0:
256,321,19926,6,8,L|166:321,2,80,8|8|8,0:1|0:3|0:1,0:0:0:0:
432,322,20632,1,8,0:1:0:0:
281,321,20985,1,8,0:1:0:0:
11,325,21338,6,0,L|206:324,1,160,8|8,0:1|0:1,0:0:0:0:
345,298,22044,1,8,0:1:0:0:
264,262,22220,1,8,0:3:0:0:
175,263,22397,1,8,0:1:0:0:
480,314,22749,6,8,P|490:218|375:128,1,240,12|4,0:1|0:0,0:0:0:0:
213,112,23632,2,0,L|215:204,1,80,8|8,0:1|0:3,0:0:0:0:
393,64,23985,1,4,0:0:0:0:
234,113,24338,2,0,L|232:205,1,80,8|8,0:0|0:1,0:0:0:0:
64,65,24691,1,4,0:0:0:0:
248,56,25044,2,0,L|364:57,1,80,8|8,0:0|0:1,0:0:0:0:
56,273,25573,6,8,P|10:220|89:160,1,160,8|8,0:1|0:1,0:0:0:0:
222,286,26279,2,0,L|222:122,1,160,8|8,0:1|0:1,0:0:0:0:
309,113,26808,1,8,0:3:0:0:
489,118,26985,5,8,0:1:0:0:
312,116,27338,2,8,L|215:117,2,80,8|8|8,0:1|0:3|0:1,0:0:0:0:
488,120,28044,1,8,0:1:0:0:
172,43,28397,6,8,P|73:112|104:220,1,240,2|8,0:0|0:3,0:0:0:0:
489,228,29455,5,4,0:0:0:0:
256,192,29808,12,2,32632,0:0:0:0:
