osu file format v14

[General]
AudioFilename: audio.mp3
AudioLeadIn: 0
PreviewTime: 14191
Countdown: 0
SampleSet: Soft
StackLeniency: 0.7
Mode: 2
LetterboxInBreaks: 0
WidescreenStoryboard: 1

[Editor]
DistanceSpacing: 1.1
BeatDivisor: 4
GridSize: 32
TimelineZoom: 1

[Metadata]
Title:Harumachi Clover (Swing Arrangement)
TitleUnicode:春待ちクローバー (Swing Arrangement)
Artist:Will Stetson
ArtistUnicode:Will Stetson
Creator:Ascendance
Version:Rain
Source:OneRoom
Tags:花坂結衣 cv:M・A・O hanasaka yui m.a.o kantoku カントク one room ワンルーム mix remix greaper -luminate lumi Anime Japanese tv size ending ed dictate edit
BeatmapID:2236484
BeatmapSetID:1068277

[Difficulty]
HPDrainRate:6
CircleSize:4
OverallDifficulty:9
ApproachRate:9
SliderMultiplier:2.1
SliderTickRate:1

[Events]
//Background and Video events
0,0,"cropped-1920-1080-779388.png",0,0
//Break Periods
//Storyboard Layer 0 (Background)
//Storyboard Layer 1 (Fail)
//Storyboard Layer 2 (Pass)
//Storyboard Layer 3 (Foreground)
//Storyboard Layer 4 (Overlay)
//Storyboard Sound Samples

[TimingPoints]
-1250,352.941176470588,4,2,22,50,1,0
161,-100,4,2,1,25,0,0
2161,-100,4,2,1,50,0,0
14279,-100,4,2,1,70,0,0
25573,-100,4,2,1,75,0,0
28397,-100,4,2,1,60,0,0
29632,-100,4,2,1,50,0,0
30338,-100,4,2,1,20,0,0
31220,-100,4,2,1,10,0,0
32632,-100,4,2,1,5,0,0

[Colours]
Combo1 : 255,102,255
Combo2 : 128,64,0
Combo3 : 0,128,64
Combo4 : 0,0,160
Combo5 : 170,85,0

[HitObjects]
113,77,161,5,0,0:0:0:0:
396,68,867,5,0,0:0:0:0:
126,61,1573,5,0,0:0:0:0:
347,58,1926,5,0,0:0:0:0:
141,55,2161,5,0,0:0:0:0:
63,52,2279,2,0,L|211:52,1,140
280,53,2632,2,0,L|131:53,1,140
18,53,2985,6,0,L|186:52,1,140
340,157,3338,2,0,P|381:90|317:47,1,140,8|0,0:0|0:0,0:0:0:0:
214,49,3691,2,0,L|400:47,1,140
469,55,4044,2,0,L|287:55,1,140,8|0,0:0|0:0,0:0:0:0:
100,162,4397,6,0,P|44:104|101:47,1,140
155,33,4749,1,8,0:0:0:0:
357,26,4985,2,0,L|142:27,1,210
70,34,5455,2,0,L|226:34,1,140,8|0,0:0|0:0,0:0:0:0:
371,143,5808,6,0,P|426:63|371:28,1,140
285,18,6161,2,0,L|290:165,1,140,8|0,0:0|0:0,0:0:0:0:
402,207,6514,2,0,L|240:194,1,140
171,314,6867,2,0,L|331:303,1,140,8|0,0:0|0:0,0:0:0:0:
71,238,7220,6,0,P|17:171|89:116,1,140
109,107,7573,1,8,0:0:0:0:
319,101,7808,2,0,L|103:102,1,210
31,105,8279,1,8,0:0:0:0:
184,105,8514,1,0,0:0:0:0:
308,110,8632,6,0,P|364:43|309:-14,1,140
236,10,8985,2,0,L|412:9,1,140,8|0,0:0|0:0,0:0:0:0:
452,16,9338,1,0,0:0:0:0:
302,53,9573,2,0,L|205:54,1,70,0|8,0:0|0:0,0:0:0:0:
382,217,9926,6,0,P|450:122|391:79,1,210
296,39,10397,2,0,L|296:187,1,140,8|0,0:0|0:0,0:0:0:0:
396,241,10749,2,0,P|467:173|419:117,1,140
386,119,11102,1,8,0:0:0:0:
192,112,11338,1,0,0:0:0:0:
450,52,11455,6,0,L|290:52,1,140
232,52,11808,1,8,0:0:0:0:
77,56,12044,1,0,0:0:0:0:
308,54,12397,2,0,L|399:53,1,70,0|8,0:0|0:0,0:0:0:0:
55,151,12749,6,0,L|296:151,1,210
374,204,13220,2,0,P|422:142|349:89,1,140,8|0,0:0|0:0,0:0:0:0:
251,81,13573,2,0,L|416:81,1,140
157,28,13926,2,8,L|91:27,2,52.5,8|8|8,0:1|0:1|0:1,0:1:0:0:
407,240,14279,5,8,0:1:0:0:
491,185,14455,1,8,0:3:0:0:
489,85,14631,1,8,0:1:0:0:
402,34,14808,1,8,0:3:0:0:
142,20,14985,2,8,L|142:148,1,105,8|8,0:1|0:3,0:0:0:0:
381,32,15338,2,0,L|515:32,1,105,8|8,0:1|0:3,0:0:0:0:
171,146,15691,6,8,L|25:147,2,105,8|8|8,0:1|0:3|0:1,0:0:0:0:
286,149,16220,1,8,0:3:0:0:
28,109,16397,2,0,L|20:242,1,105,8|8,0:1|0:3,0:0:0:0:
168,96,16749,2,8,L|41:95,1,105,8|8,0:1|0:3,0:0:0:0:
321,295,17102,6,8,L|320:164,1,105,8|8,0:1|0:3,0:3:0:0:
177,204,17455,2,8,L|171:69,1,105,8|8,0:1|0:3,0:0:0:0:
479,167,17808,2,0,L|350:167,1,105,8|8,0:1|0:3,0:0:0:0:
39,89,18161,2,0,L|180:88,1,105,8|8,0:1|0:3,0:0:0:0:
448,37,18514,6,8,L|296:37,1,105,8|8,0:1|0:3,0:0:0:0:
208,37,18867,2,8,L|340:37,1,105,8|8,0:1|0:3,0:0:0:0:
48,202,19220,2,0,L|44:74,1,105,8|8,0:1|0:3,0:0:0:0:
165,246,19573,2,8,L|33:232,1,105,8|8,0:1|0:3,0:0:0:0:
351,315,19926,6,8,L|209:316,1,105,8|8,0:1|0:3,0:0:0:0:
95,252,20279,2,8,L|222:252,1,105,8|8,0:1|0:3,0:0:0:0:
485,277,20632,2,0,L|485:135,1,105,8|8,0:1|0:3,0:0:0:0:
376,135,20985,1,8,0:1:0:0:
131,135,21161,6,0,L|380:136,1,210,8|8,0:3|0:3,0:0:0:0:
181,40,21691,2,8,L|181:162,1,105,8|8,0:1|0:3,0:0:0:0:
329,88,22044,2,0,L|329:-35,1,105,8|8,0:1|0:3,0:0:0:0:
75,69,22397,2,0,L|76:187,1,105,8|8,0:1|0:3,0:0:0:0:
380,303,22749,6,8,P|446:235|357:169,1,210,12|8,0:1|0:1,0:0:0:0:
126,154,23279,2,8,L|384:153,1,210,4|8,0:0|0:1,0:0:0:0:
451,156,23808,1,8,0:3:0:0:
212,32,23985,6,8,P|133:68|172:193,1,210,4|8,0:0|0:0,0:0:0:0:
274,193,24514,1,8,0:1:0:0:
118,222,24691,2,8,L|368:222,1,210,4|8,0:0|0:0,0:0:0:0:
494,215,25220,2,0,L|379:215,1,105,8|8,0:1|0:3,0:0:0:0:
69,334,25573,6,8,L|70:210,1,105,8|8,0:1|0:3,0:0:0:0:
371,274,25926,2,8,L|508:276,2,105,8|8|8,0:1|0:3|0:1,0:0:0:0:
89,143,26455,2,0,L|227:143,1,105,8|8,0:3|0:1,0:0:0:0:
493,81,26808,6,0,L|253:82,1,210,8|8,0:3|0:3,0:0:0:0:
391,171,27338,1,8,0:1:0:0:
218,267,27514,2,0,P|155:203|218:116,1,210,8|8,0:3|0:3,0:0:0:0:
362,56,28044,2,8,L|366:187,1,105,8|8,0:1|0:3,0:0:0:0:
114,241,28397,6,8,P|49:173|114:93,1,210,2|8,0:0|0:1,0:0:0:0:
298,93,28926,2,8,L|71:94,1,210,8|8,0:3|0:1,0:0:0:0:
442,187,29455,5,4,0:0:0:0:
256,192,29632,12,2,32632,0:0:0:0:
