osu file format v14

[General]
AudioFilename: audio.mp3
AudioLeadIn: 0
PreviewTime: 14191
Countdown: 0
SampleSet: Soft
StackLeniency: 0.7
Mode: 2
LetterboxInBreaks: 0
WidescreenStoryboard: 1

[Editor]
DistanceSpacing: 1.1
BeatDivisor: 3
GridSize: 32
TimelineZoom: 1

[Metadata]
Title:Harumachi Clover (Swing Arrangement)
TitleUnicode:春待ちクローバー (Swing Arrangement)
Artist:Will Stetson
ArtistUnicode:Will Stetson
Creator:Ascendance
Version:Platter
Source:OneRoom
Tags:花坂結衣 cv:M・A・O hanasaka yui m.a.o kantoku カントク one room ワンルーム mix remix greaper -luminate lumi Anime Japanese tv size ending ed dictate edit
BeatmapID:2236488
BeatmapSetID:1068277

[Difficulty]
HPDrainRate:5
CircleSize:3.5
OverallDifficulty:8
ApproachRate:8
SliderMultiplier:1.8
SliderTickRate:1

[Events]
//Background and Video events
0,0,"cropped-1920-1080-779388.png",0,0
//Break Periods
//Storyboard Layer 0 (Background)
//Storyboard Layer 1 (Fail)
//Storyboard Layer 2 (Pass)
//Storyboard Layer 3 (Foreground)
//Storyboard Layer 4 (Overlay)
//Storyboard Sound Samples

[TimingPoints]
-1250,352.941176470588,4,2,22,50,1,0
161,-100,4,2,1,25,0,0
2161,-100,4,2,1,50,0,0
14279,-100,4,2,1,70,0,0
25573,-100,4,2,1,75,0,0
28397,-100,4,2,1,60,0,0
29808,-100,4,2,1,50,0,0
30338,-100,4,2,1,20,0,0
31220,-100,4,2,1,10,0,0
32632,-100,4,2,1,5,0,0

[Colours]
Combo1 : 255,102,255
Combo2 : 128,64,0
Combo3 : 0,128,64
Combo4 : 0,0,160
Combo5 : 170,85,0

[HitObjects]
131,64,161,5,0,0:0:0:0:
385,63,867,5,0,0:0:0:0:
149,54,1573,5,0,0:0:0:0:
361,56,1926,5,0,0:0:0:0:
127,51,2161,6,0,L|62:52,1,60,0|0,0:0|0:0,0:0:0:0:
184,113,2514,2,0,L|264:114,1,60
376,114,2867,1,0,0:0:0:0:
309,113,2985,6,0,L|179:113,1,120
20,114,3338,1,8,0:0:0:0:
151,114,3573,2,0,L|217:114,1,60
79,131,3926,2,0,L|12:131,1,60,0|8,0:0|0:0,0:0:0:0:
146,166,4279,1,0,0:0:0:0:
301,166,4397,6,0,L|451:167,1,120
358,145,4749,1,8,0:0:0:0:
135,180,4985,2,0,L|341:179,1,180
381,178,5455,1,8,0:0:0:0:
245,135,5691,6,0,L|158:136,1,60
52,136,6044,2,0,L|122:136,1,60,0|8,0:0|0:0,0:0:0:0:
257,173,6397,2,0,L|175:173,1,60
83,188,6749,2,0,L|-15:189,1,60,0|8,0:0|0:0,0:0:0:0:
450,312,7220,6,0,L|452:153,1,120
387,173,7573,1,8,0:0:0:0:
195,169,7808,2,0,L|389:157,1,180
441,153,8279,1,8,0:0:0:0:
283,152,8514,1,0,0:0:0:0:
123,125,8632,6,0,L|-6:125,1,120
64,100,8985,1,8,0:0:0:0:
195,96,9220,2,0,L|276:97,1,60
79,52,9573,2,0,L|14:51,1,60,0|8,0:0|0:0,0:0:0:0:
237,28,9926,6,0,L|437:28,1,180
350,35,10397,1,8,0:0:0:0:
152,45,10749,1,0,0:0:0:0:
19,49,10985,2,0,L|33:114,1,60,0|8,0:0|0:0,0:0:0:0:
472,55,11455,6,0,L|481:217,1,120
265,207,12044,2,0,L|475:208,1,180
382,184,12514,1,8,0:0:0:0:
115,116,12749,6,0,L|306:116,1,180
361,116,13220,1,8,0:0:0:0:
194,104,13455,1,0,0:0:0:0:
127,103,13573,1,0,0:0:0:0:
357,111,13926,2,8,L|430:109,2,45,8|8|8,0:1|0:1|0:1,0:1:0:0:
82,341,14279,5,8,0:1:0:0:
23,277,14455,1,8,0:3:0:0:
42,193,14631,1,8,0:1:0:0:
123,162,14808,1,8,0:3:0:0:
340,228,14985,2,8,P|391:188|310:100,1,180,8|8,0:1|0:1,0:0:0:0:
11,77,15691,6,8,L|231:76,1,180,8|8,0:1|0:1,0:0:0:0:
342,222,16397,2,0,L|148:222,1,180,8|8,0:1|0:1,0:0:0:0:
62,221,16926,1,8,0:3:0:0:
334,342,17102,6,8,L|334:242,1,90,8|8,0:1|0:3,0:3:0:0:
220,253,17455,2,8,L|220:143,1,90,8|8,0:1|0:3,0:0:0:0:
440,228,17808,2,0,P|506:168|437:92,1,180,8|8,0:1|0:1,0:0:0:0:
370,85,18338,1,8,0:3:0:0:
98,246,18514,6,8,L|98:66,1,180,8|8,0:1|0:1,0:0:0:0:
197,57,19044,1,8,0:3:0:0:
387,48,19220,2,0,L|387:151,1,90,8|8,0:1|0:3,0:0:0:0:
274,60,19573,2,8,L|154:60,1,90,8|8,0:1|0:3,0:0:0:0:
480,315,19926,5,8,0:1:0:0:
500,229,20102,1,8,0:3:0:0:
456,153,20278,1,8,0:1:0:0:
372,128,20455,1,8,0:3:0:0:
186,132,20632,2,0,L|380:130,1,180,8|8,0:1|0:1,0:0:0:0:
108,37,21161,6,0,P|58:90|121:168,1,180,8|8,0:3|0:3,0:0:0:0:
244,174,21691,2,8,L|350:172,2,90,8|8|8,0:1|0:3|0:1,0:0:0:0:
51,260,22220,2,0,L|51:146,1,90,8|8,0:3|0:1,0:0:0:0:
148,146,22573,1,8,0:3:0:0:
416,277,22749,6,8,P|480:221|395:83,1,270,12|4,0:1|0:0,0:0:0:0:
204,57,23632,2,0,L|103:56,1,90,8|8,0:1|0:3,0:0:0:0:
372,167,23985,1,4,0:0:0:0:
221,241,24338,2,0,L|222:137,1,90,8|8,0:0|0:1,0:0:0:0:
461,319,24691,1,4,0:0:0:0:
310,285,25044,1,8,0:0:0:0:
400,285,25220,1,8,0:1:0:0:
490,285,25396,1,8,0:3:0:0:
157,312,25573,6,8,P|88:237|149:155,1,180,8|8,0:1|0:1,0:0:0:0:
245,115,26102,2,0,L|244:214,1,90,8|8,0:3|0:1,0:0:0:0:
58,121,26455,2,0,L|57:23,1,90,8|8,0:3|0:1,0:0:0:0:
302,263,26808,6,0,P|366:197|294:125,1,180,8|8,0:3|0:3,0:0:0:0:
210,124,27338,1,8,0:1:0:0:
365,125,27514,2,0,L|466:126,1,90,8|8,0:3|0:1,0:0:0:0:
197,35,27867,2,0,L|98:35,2,90,8|8|8,0:3|0:1|0:3,0:0:0:0:
437,37,28397,5,2,0:0:0:0:
248,36,28749,2,0,L|344:36,1,90,8|8,0:1|0:3,0:0:0:0:
462,52,29279,1,8,0:1:0:0:
178,41,29455,5,4,0:0:0:0:
256,192,29808,12,2,32632,0:0:0:0:
