osu file format v14

[General]
AudioFilename: audio.mp3
AudioLeadIn: 0
PreviewTime: 14191
Countdown: 0
SampleSet: Soft
StackLeniency: 0.7
Mode: 2
LetterboxInBreaks: 0
WidescreenStoryboard: 0

[Editor]
DistanceSpacing: 1.1
BeatDivisor: 3
GridSize: 32
TimelineZoom: 1

[Metadata]
Title:Harumachi Clover (Swing Arrangement)
TitleUnicode:春待ちクローバー (Swing Arrangement)
Artist:Will Stetson
ArtistUnicode:Will Stetson
Creator:Ascendance
Version:Overdose
Source:OneRoom
Tags:花坂結衣 cv:M・A・O hanasaka yui m.a.o kantoku カントク one room ワンルーム mix remix greaper -luminate lumi Anime Japanese tv size ending ed dictate edit
BeatmapID:2236479
BeatmapSetID:1068277

[Difficulty]
HPDrainRate:7
CircleSize:4.2
OverallDifficulty:9.2
ApproachRate:9.2
SliderMultiplier:2.2
SliderTickRate:1

[Events]
//Background and Video events
0,0,"cropped-1920-1080-779388.png",0,0
//Break Periods
//Storyboard Layer 0 (Background)
//Storyboard Layer 1 (Fail)
//Storyboard Layer 2 (Pass)
//Storyboard Layer 3 (Foreground)
//Storyboard Layer 4 (Overlay)
//Storyboard Sound Samples

[TimingPoints]
-1250,352.941176470588,4,2,22,50,1,0
161,-100,4,2,1,25,0,0
2161,-100,4,2,1,50,0,0
14279,-100,4,2,1,70,0,0
25573,-100,4,2,1,75,0,0
28397,-100,4,2,1,60,0,0
29544,-100,4,2,1,30,0,0
30338,-100,4,2,1,20,0,0
31220,-100,4,2,1,10,0,0
32632,-100,4,2,1,5,0,0

[Colours]
Combo1 : 255,102,255
Combo2 : 128,64,0
Combo3 : 0,128,64
Combo4 : 0,0,160
Combo5 : 170,85,0

[HitObjects]
118,84,161,5,0,0:0:0:0:
427,82,867,5,0,0:0:0:0:
147,78,1573,5,0,0:0:0:0:
367,78,1926,5,0,0:0:0:0:
179,167,2161,5,0,0:0:0:0:
273,139,2279,2,0,L|445:139,1,146.666666666667
300,99,2632,2,0,L|123:99,1,146.666666666667
353,217,2985,6,0,P|401:166|330:116,1,146.666666666667
252,123,3338,2,0,P|184:98|177:24,1,146.666666666667,8|0,0:0|0:0,0:0:0:0:
357,53,3691,2,0,L|173:52,1,146.666666666667
129,49,4044,1,8,0:0:0:0:
299,50,4279,1,0,0:0:0:0:
63,102,4397,6,0,L|262:101,1,146.666666666667
316,101,4749,1,8,0:0:0:0:
0,181,4985,2,0,L|240:181,1,220
327,182,5455,2,0,L|479:182,1,146.666666666667,8|0,0:0|0:0,0:0:0:0:
318,214,5808,6,0,L|141:215,1,146.666666666667
274,246,6161,2,0,L|475:247,1,146.666666666667,8|0,0:0|0:0,0:0:0:0:
318,214,6514,2,0,L|141:215,1,146.666666666667
469,131,6867,2,0,L|299:132,1,146.666666666667,8|0,0:0|0:0,0:0:0:0:
65,126,7220,5,0,0:0:0:0:
249,97,7455,2,0,L|347:97,1,73.3333333333333,0|8,0:0|0:0,0:0:0:0:
16,199,7808,2,0,L|297:198,1,220
325,199,8279,1,8,0:0:0:0:
163,197,8514,1,0,0:0:0:0:
380,316,8632,6,0,L|380:148,1,146.666666666667
292,157,8985,1,8,0:0:0:0:
105,160,9220,1,0,0:0:0:0:
191,137,9338,2,0,L|362:136,1,146.666666666667
211,104,9691,1,8,0:0:0:0:
434,44,9926,6,0,L|163:46,1,220
132,44,10397,2,0,L|313:44,1,146.666666666667,8|0,0:0|0:0,0:0:0:0:
358,42,10749,1,0,0:0:0:0:
173,41,10985,2,0,L|80:41,1,73.3333333333333,0|8,0:0|0:0,0:0:0:0:
296,110,11338,1,0,0:0:0:0:
65,191,11455,6,0,L|241:190,1,146.666666666667
292,190,11808,1,8,0:0:0:0:
453,193,12044,1,0,0:0:0:0:
210,190,12397,1,0,0:0:0:0:
129,193,12514,1,8,0:0:0:0:
468,314,12749,6,0,L|201:314,1,220
126,243,13220,2,0,L|324:241,1,146.666666666667,8|0,0:0|0:0,0:0:0:0:
413,152,13573,2,0,L|248:152,1,146.666666666667
41,160,13926,6,8,L|26:72,2,55,8|8|8,0:1|0:1|0:1,0:1:0:0:
348,152,14279,6,0,L|508:152,1,110,8|8,0:1|0:3,0:0:0:0:
155,234,14632,2,0,L|8:235,1,110,8|8,0:1|0:3,0:0:0:0:
374,346,14985,2,8,L|373:212,1,110,8|8,0:1|0:3,0:0:0:0:
108,215,15338,1,8,0:1:0:0:
426,223,15514,1,8,0:3:0:0:
34,188,15691,6,8,L|176:189,1,110,8|8,0:1|0:3,0:0:0:0:
452,175,16044,2,8,L|305:176,1,110,8|8,0:1|0:3,0:0:0:0:
68,175,16397,1,8,0:1:0:0:
306,173,16573,1,8,0:3:0:0:
45,174,16749,2,8,L|34:296,1,110,8|8,0:1|0:3,0:0:0:0:
361,172,17102,6,8,L|497:173,1,110,8|8,0:1|0:3,0:3:0:0:
145,86,17455,2,8,L|-1:86,1,110,8|8,0:1|0:3,0:0:0:0:
379,43,17808,1,8,0:1:0:0:
106,40,17985,1,8,0:3:0:0:
410,39,18161,1,8,0:1:0:0:
75,40,18338,1,8,0:3:0:0:
440,37,18514,6,8,L|446:177,1,110,8|8,0:1|0:3,0:0:0:0:
165,42,18867,2,8,L|39:42,1,110,8|8,0:1|0:3,0:0:0:0:
290,125,19220,1,8,0:1:0:0:
174,126,19397,1,8,0:3:0:0:
427,128,19573,2,8,L|433:257,1,110,8|8,0:1|0:3,0:0:0:0:
76,265,19926,6,8,L|67:137,1,110,8|8,0:1|0:3,0:0:0:0:
382,229,20279,2,8,L|529:230,1,110,8|8,0:1|0:3,0:0:0:0:
138,108,20632,1,8,0:1:0:0:
402,105,20808,1,8,0:3:0:0:
72,87,20985,2,8,L|66:210,1,110,8|8,0:1|0:3,0:0:0:0:
412,78,21338,5,8,0:1:0:0:
66,94,21514,1,8,0:3:0:0:
434,89,21691,2,8,L|446:222,1,110,8|8,0:1|0:3,0:0:0:0:
45,90,22044,1,8,0:1:0:0:
495,58,22220,1,8,0:3:0:0:
36,49,22397,1,8,0:1:0:0:
417,80,22573,1,8,0:3:0:0:
149,236,22749,6,8,L|405:222,1,220,12|8,0:1|0:1,0:0:0:0:
78,343,23279,2,8,P|12:261|100:183,1,220,4|8,0:0|0:1,0:0:0:0:
187,180,23808,1,8,0:3:0:0:
494,181,23985,6,8,L|263:180,1,220,4|8,0:0|0:0,0:0:0:0:
414,100,24514,1,8,0:1:0:0:
128,260,24691,2,8,P|60:199|130:102,1,220,4|8,0:0|0:0,0:0:0:0:
394,104,25220,1,8,0:1:0:0:
73,106,25397,1,8,0:3:0:0:
435,104,25573,6,8,L|449:241,1,110,8|8,0:1|0:3,0:0:0:0:
57,116,25926,2,8,L|50:1,1,110,8|8,0:1|0:3,0:0:0:0:
426,86,26279,1,8,0:1:0:0:
53,124,26455,1,8,0:3:0:0:
446,94,26632,1,8,0:1:0:0:
44,131,26808,1,8,0:3:0:0:
396,88,26985,6,8,L|510:88,1,110,8|8,0:1|0:3,0:0:0:0:
190,230,27338,2,8,L|342:231,1,110,8|8,0:1|0:3,0:0:0:0:
50,125,27691,1,8,0:1:0:0:
430,129,27867,1,8,0:3:0:0:
36,125,28044,2,8,L|34:247,1,110,8|8,0:1|0:3,0:0:0:0:
375,42,28397,6,8,L|137:40,1,220,2|8,0:0|0:1,0:0:0:0:
412,276,28926,2,8,P|492:208|426:130,1,220,8|8,0:3|0:1,0:0:0:0:
114,129,29455,1,4,0:0:0:0:
256,192,29544,12,2,32632,0:0:0:0:
