osu file format v14

[General]
AudioFilename: audio.mp3
AudioLeadIn: 0
PreviewTime: 14191
Countdown: 0
SampleSet: Soft
StackLeniency: 0.7
Mode: 2
LetterboxInBreaks: 0
WidescreenStoryboard: 1

[Editor]
Bookmarks: 14279
DistanceSpacing: 1.1
BeatDivisor: 3
GridSize: 16
TimelineZoom: 2.2

[Metadata]
Title:Harumachi Clover (Swing Arrangement)
TitleUnicode:春待ちクローバー (Swing Arrangement)
Artist:Will Stetson
ArtistUnicode:Will Stetson
Creator:Ascendance
Version:Greaper & Ascendance's Rain
Source:OneRoom
Tags:花坂結衣 cv:M・A・O hanasaka yui m.a.o kantoku カントク one room ワンルーム mix remix greaper -luminate lumi Anime Japanese tv size ending ed dictate edit
BeatmapID:2237082
BeatmapSetID:1068277

[Difficulty]
HPDrainRate:6
CircleSize:4
OverallDifficulty:9
ApproachRate:9
SliderMultiplier:2.1
SliderTickRate:1

[Events]
//Background and Video events
0,0,"cropped-1920-1080-779388.png",0,0
//Break Periods
//Storyboard Layer 0 (Background)
//Storyboard Layer 1 (Fail)
//Storyboard Layer 2 (Pass)
//Storyboard Layer 3 (Foreground)
//Storyboard Layer 4 (Overlay)
//Storyboard Sound Samples

[TimingPoints]
-1250,352.941176470588,4,2,22,50,1,0
161,-100,4,2,1,25,0,0
2161,-100,4,2,1,50,0,0
14279,-100,4,2,1,70,0,0
25573,-100,4,2,1,75,0,0
28397,-100,4,2,1,60,0,0
29632,-100,4,2,1,50,0,0
30338,-100,4,2,1,20,0,0
31220,-100,4,2,1,10,0,0
32632,-100,4,2,1,5,0,0

[Colours]
Combo1 : 255,102,255
Combo2 : 128,64,0
Combo3 : 0,128,64
Combo4 : 0,0,160
Combo5 : 170,85,0

[HitObjects]
360,192,161,5,0,0:0:0:0:
139,200,867,1,0,0:0:0:0:
422,163,1573,2,0,P|495:101|427:39,1,210,0|0,0:0|0:0,0:0:0:0:
116,126,2161,5,0,0:0:0:0:
45,190,2279,2,0,L|196:205,1,140,0|0,0:0|0:0,0:0:0:0:
275,191,2632,2,0,L|285:355,1,140,0|0,0:0|0:0,0:0:0:0:
177,210,2985,5,0,0:0:0:0:
390,205,3220,1,0,0:0:0:0:
290,204,3338,2,0,L|134:203,1,140,8|0,0:0|0:0,0:0:0:0:
374,85,3691,2,0,L|528:107,1,140,0|0,0:0|0:0,0:0:0:0:
380,147,4044,2,0,L|221:157,1,140,8|0,0:0|0:0,0:0:0:0:
428,333,4397,6,0,P|444:232|419:187,1,140,0|0,0:0|0:0,0:0:0:0:
342,193,4749,1,8,0:0:0:0:
46,132,4985,2,0,L|265:124,1,210,0|0,0:0|0:0,0:0:0:0:
141,193,5455,2,0,P|125:263|180:314,1,140,8|0,0:0|0:0,0:0:0:0:
314,325,5808,6,0,L|463:329,1,140,0|0,0:0|0:0,0:0:0:0:
334,253,6161,2,0,L|186:242,1,140,8|0,0:0|0:0,0:0:0:0:
280,195,6514,2,0,L|289:50,1,140,0|0,0:0|0:0,0:0:0:0:
191,50,6867,2,0,L|345:44,1,140,8|0,0:0|0:0,0:0:0:0:
146,120,7220,6,0,P|86:196|105:249,1,140,0|0,0:0|0:0,0:0:0:0:
166,248,7573,1,8,0:0:0:0:
469,81,7808,2,0,L|257:75,1,210,0|0,0:0|0:0,0:0:0:0:
345,138,8279,2,0,L|349:283,1,140,8|0,0:0|0:0,0:0:0:0:
151,104,8632,6,0,P|148:177|209:198,1,140,0|0,0:0|0:0,0:0:0:0:
295,159,8985,2,0,L|310:324,1,140,8|0,0:0|0:0,0:0:0:0:
168,239,9338,2,0,L|313:260,1,140,0|0,0:0|0:0,0:0:0:0:
391,253,9691,1,8,0:0:0:0:
54,52,9926,6,0,P|45:103|172:186,1,210,0|0,0:0|0:0,0:0:0:0:
244,203,10397,2,0,L|395:209,1,140,8|0,0:0|0:0,0:0:0:0:
282,289,10749,2,0,L|272:138,1,140,0|0,0:0|0:0,0:0:0:0:
373,326,11102,1,8,0:0:0:0:
215,224,11338,1,0,0:0:0:0:
396,126,11455,6,0,P|436:115|380:57,1,140,0|0,0:0|0:0,0:0:0:0:
331,44,11808,1,8,0:0:0:0:
201,89,12044,2,0,L|194:171,1,70,0|0,0:0|0:0,0:0:0:0:
363,144,12397,2,0,L|363:232,1,70,0|8,0:0|0:0,0:0:0:0:
50,206,12749,6,0,L|279:211,1,210,0|0,0:0|0:0,0:0:0:0:
157,144,13220,2,0,P|129:65|184:42,1,140,8|0,0:0|0:0,0:0:0:0:
251,41,13573,2,0,L|414:36,1,140,0|0,0:0|0:0,0:0:0:0:
214,166,13926,2,8,L|152:173,2,52.5,8|8|8,0:1|0:1|0:1,0:1:0:0:
486,237,14279,6,0,L|488:108,1,105,8|8,0:1|0:3,0:0:0:0:
306,96,14632,2,0,L|165:92,1,105,8|8,0:1|0:3,0:0:0:0:
445,48,14985,2,8,L|451:171,1,105,8|8,0:1|0:3,0:0:0:0:
281,201,15338,2,0,L|400:206,1,105,8|8,0:1|0:3,0:0:0:0:
132,216,15691,6,8,P|57:189|126:95,1,210,8|8,0:1|0:1,0:0:0:0:
346,52,16220,1,8,0:3:0:0:
167,26,16397,2,0,L|161:138,1,105,8|8,0:1|0:3,0:0:0:0:
330,160,16749,1,8,0:1:0:0:
189,178,16926,1,8,0:3:0:0:
442,268,17102,6,8,L|446:141,1,105,8|8,0:1|0:3,0:3:0:0:
254,250,17455,2,8,L|108:245,1,105,8|8,0:1|0:3,0:0:0:0:
392,154,17808,1,8,0:1:0:0:
482,121,17985,1,8,0:3:0:0:
458,32,18161,1,8,0:1:0:0:
364,23,18338,1,8,0:3:0:0:
101,40,18514,6,8,L|339:80,1,210,8|8,0:1|0:1,0:0:0:0:
128,130,19044,1,8,0:3:0:0:
307,145,19220,2,0,L|320:258,1,105,8|8,0:1|0:3,0:0:0:0:
143,248,19573,1,8,0:1:0:0:
290,255,19749,1,8,0:3:0:0:
36,191,19926,6,8,L|31:63,1,105,8|8,0:1|0:3,0:0:0:0:
212,88,20279,2,8,L|79:75,1,105,8|8,0:1|0:3,0:0:0:0:
387,44,20632,2,0,L|501:40,2,105,8|8|8,0:1|0:3|0:1,0:0:0:0:
102,134,21161,6,0,L|332:157,1,210,8|8,0:3|0:3,0:0:0:0:
127,203,21691,2,8,L|113:342,1,105,8|8,0:1|0:3,0:0:0:0:
402,302,22044,1,8,0:1:0:0:
238,289,22220,2,0,L|101:281,1,105,8|8,0:3|0:1,0:0:0:0:
314,217,22573,1,8,0:3:0:0:
39,214,22749,6,8,P|45:153|180:89,1,210,12|8,0:1|0:1,0:0:0:0:
443,75,23279,2,8,P|491:109|390:189,1,210,4|8,0:0|0:1,0:0:0:0:
316,198,23808,1,8,0:3:0:0:
30,132,23985,6,8,L|239:140,1,210,4|8,0:0|0:0,0:0:0:0:
339,140,24514,1,8,0:1:0:0:
65,201,24691,2,8,P|18:239|121:312,1,210,4|8,0:0|0:0,0:0:0:0:
278,320,25220,2,0,L|136:296,1,105,8|8,0:1|0:3,0:0:0:0:
451,255,25573,6,8,L|456:134,1,105,8|8,0:1|0:3,0:0:0:0:
277,136,25926,2,8,L|131:127,1,105,8|8,0:1|0:3,0:0:0:0:
343,73,26279,1,8,0:1:0:0:
69,82,26455,2,0,L|58:207,1,105,8|8,0:3|0:1,0:0:0:0:
347,198,26808,5,8,0:3:0:0:
456,169,26985,2,8,L|221:149,1,210,8|8,0:1|0:1,0:0:0:0:
375,126,27514,2,0,L|388:17,1,105,8|8,0:3|0:1,0:0:0:0:
130,221,27867,2,0,L|124:342,1,105,8|8,0:3|0:1,0:0:0:0:
322,326,28220,1,8,0:3:0:0:
44,164,28397,5,2,0:0:0:0:
307,143,28749,2,0,L|315:32,1,105,8|8,0:1|0:3,0:0:0:0:
109,52,29279,1,8,0:1:0:0:
392,59,29455,1,4,0:0:0:0:
256,192,29632,12,2,32632,0:0:0:0:
