osu file format v14

[General]
AudioFilename: audio.mp3
AudioLeadIn: 0
PreviewTime: 2102
Countdown: 0
SampleSet: None
StackLeniency: 0.7
Mode: 2
LetterboxInBreaks: 0
WidescreenStoryboard: 1

[Editor]
DistanceSpacing: 0.9
BeatDivisor: 4
GridSize: 16
TimelineZoom: 1

[Metadata]
Title:Harumachi Clover (Swing Arrangement) [Dictate Edit]
TitleUnicode:Harumachi Clover (Swing Arrangement) [Dictate Edit]
Artist:Will Stetson
ArtistUnicode:Will Stetson
Creator:fireyun06
Version:Salad
Source:OneRoom
Tags:Will Stetson Harumachi Clover (Swing Arrangement) [Dictate Edit] OneRoom Harder Than You Can Believe Overdose Rain Deluge Platter fireyun06 ctb Catch The Beats Osu
BeatmapID:1948628
BeatmapSetID:928868

[Difficulty]
HPDrainRate:3
CircleSize:3
OverallDifficulty:4
ApproachRate:7.9
SliderMultiplier:1.2
SliderTickRate:2

[Events]
//Background and Video events
0,0,"bg.jpg",0,0
//Break Periods
//Storyboard Layer 0 (Background)
//Storyboard Layer 1 (Fail)
//Storyboard Layer 2 (Pass)
//Storyboard Layer 3 (Foreground)
//Storyboard Sound Samples

[TimingPoints]
-1250,352.941176470588,4,1,0,20,1,0
14279,-71.4285714285714,4,1,0,20,0,1
25573,-66.6666666666667,4,1,0,20,0,0
28220,-100,4,1,0,20,0,0

[HitObjects]
288,224,2161,5,0,0:0:0:0:
304,192,2279,2,0,L|304:80,1,80
304,65,2632,1,0,0:0:0:0:
224,64,2867,5,0,0:0:0:0:
208,64,2985,2,0,L|112:64,1,80
208,64,3338,2,0,L|208:176,1,80
256,144,3691,1,0,0:0:0:0:
336,144,3926,1,0,0:0:0:0:
336,160,4044,2,0,L|336:256,1,80
400,240,4397,1,0,0:0:0:0:
288,240,4632,5,0,0:0:0:0:
288,240,4749,1,0,0:0:0:0:
224,240,4985,2,0,P|176:192|224:128,1,160
320,128,5691,1,0,0:0:0:0:
224,128,5808,2,0,L|144:128,1,80
64,128,6161,2,0,L|64:240,1,80
128,208,6514,1,0,0:0:0:0:
224,208,6749,5,0,0:0:0:0:
224,208,6867,2,0,L|336:208,1,80
384,208,7220,2,0,L|416:96,1,80
352,128,7573,1,0,0:0:0:0:
256,128,7808,6,0,L|400:128,1,120
400,128,8279,1,0,0:0:0:0:
272,128,8632,6,0,L|176:128,1,80
272,128,9220,2,0,P|272:208|192:256,1,160
128,208,10044,1,0,0:0:0:0:
240,208,10279,1,0,0:0:0:0:
240,208,10397,1,0,0:0:0:0:
128,208,10632,5,0,0:0:0:0:
240,208,10985,2,0,L|176:208,1,40
128,208,11338,5,0,0:0:0:0:
192,208,11455,2,0,L|304:208,1,80
384,208,12044,1,0,0:0:0:0:
256,208,12397,1,0,0:0:0:0:
128,208,12749,1,0,0:0:0:0:
256,192,12867,12,0,13749,0:0:0:0:
288,192,13926,5,0,0:0:0:0:
304,160,14014,1,0,0:0:0:0:
320,128,14102,1,0,0:0:0:0:
272,96,14279,6,0,L|176:96,1,83.9999974365235
240,160,14632,2,0,L|352:160,1,83.9999974365235
400,160,14985,1,0,0:0:0:0:
352,224,15161,2,0,L|240:224,1,83.9999974365235
192,224,15514,1,0,0:0:0:0:
112,224,15691,6,0,P|64:160|128:112,1,167.999994873047
192,112,16220,6,0,P|240:48|176:0,1,167.999994873047
288,16,16926,5,0,0:0:0:0:
336,48,17102,2,0,L|352:160,1,83.9999974365235
272,96,17455,2,0,L|256:208,1,83.9999974365235
192,96,17808,2,0,L|144:192,1,83.9999974365235
256,176,18161,1,0,0:0:0:0:
160,176,18338,1,0,0:0:0:0:
256,176,18514,6,0,P|320:144|256:96,1,167.999994873047
192,96,19044,2,0,P|144:128|192:288,1,251.99999230957
272,288,19749,1,0,0:0:0:0:
208,288,19926,6,0,L|112:288,1,83.9999974365235
176,240,20279,2,0,L|272:240,1,83.9999974365235
208,192,20632,2,0,L|96:192,1,83.9999974365235
176,144,20985,2,0,L|272:144,1,83.9999974365235
336,144,21338,1,0,0:0:0:0:
336,144,21514,1,0,0:0:0:0:
256,144,21691,6,0,L|256:256,1,83.9999974365235
336,208,22044,2,0,L|336:320,1,83.9999974365235
416,288,22397,1,0,0:0:0:0:
336,288,22573,1,0,0:0:0:0:
272,288,22749,2,0,P|224:256|272:176,1,167.999994873047
352,176,23279,2,0,P|384:144|336:48,1,167.999994873047
240,48,23808,5,0,0:0:0:0:
337,48,23985,1,0,0:0:0:0:
240,48,24161,2,0,P|187:107|225:176,1,167.999994873047
304,176,24690,2,0,P|368:240|304:288,1,167.999994873047
240,288,25220,1,0,0:0:0:0:
176,288,25397,1,0,0:0:0:0:
112,288,25573,6,0,L|112:192,1,90.0000034332277
192,240,25926,2,0,L|192:144,1,90.0000034332277
272,192,26279,2,0,L|272:80,1,90.0000034332277
352,144,26632,2,0,L|352:48,1,90.0000034332277
432,96,26985,2,0,L|432:0,1,90.0000034332277
352,144,27338,6,0,L|352:256,1,90.0000034332277
272,192,27691,2,0,L|272:288,1,90.0000034332277
192,240,28044,2,0,L|192:336,1,90.0000034332277
112,288,28397,2,0,P|64:240|112:208,1,120
160,192,28926,2,0,L|288:192,1,120
352,192,29455,1,0,0:0:0:0:
256,192,29808,12,0,32632,0:0:0:0:
