osu file format v14

[General]
AudioFilename: audio.mp3
AudioLeadIn: 0
PreviewTime: 2102
Countdown: 0
SampleSet: Normal
StackLeniency: 0.7
Mode: 2
LetterboxInBreaks: 0
WidescreenStoryboard: 1

[Editor]
DistanceSpacing: 0.9
BeatDivisor: 4
GridSize: 4
TimelineZoom: 1

[Metadata]
Title:Harumachi Clover (Swing Arrangement) [Dictate Edit]
TitleUnicode:Harumachi Clover (Swing Arrangement) [Dictate Edit]
Artist:Will Stetson
ArtistUnicode:Will Stetson
Creator:fireyun06
Version:Rain
Source:OneRoom
Tags:Will Stetson Harumachi Clover (Swing Arrangement) [Dictate Edit] OneRoom Harder Than You Can Believe Overdose Rain Deluge Platter fireyun06 ctb Catch The Beats Osu
BeatmapID:1940051
BeatmapSetID:928868

[Difficulty]
HPDrainRate:5
CircleSize:3.4
OverallDifficulty:8
ApproachRate:9
SliderMultiplier:1.9
SliderTickRate:2

[Events]
//Background and Video events
0,0,"bg.jpg",0,0
//Break Periods
//Storyboard Layer 0 (Background)
//Storyboard Layer 1 (Fail)
//Storyboard Layer 2 (Pass)
//Storyboard Layer 3 (Foreground)
//Storyboard Sound Samples

[TimingPoints]
-1250,352.941176470588,4,1,0,20,1,0
14279,-100,4,1,0,20,0,1
25573,-66.6666666666667,4,1,0,20,0,0
28220,-100,4,1,0,20,0,0

[HitObjects]
284,197,44,5,0,0:0:0:0:
372,199,161,2,0,P|407:159|337:41,1,190
228,197,749,5,0,0:0:0:0:
140,199,866,2,0,P|105:159|175:41,1,190
300,200,1455,5,0,0:0:0:0:
354,200,1573,2,0,P|375:136|332:69,1,142.5
243,76,1926,2,0,P|186:74|106:77,1,126.666666666667
86,69,2279,6,0,L|65:207,1,126.666666666667
129,156,2632,2,0,L|141:291,1,126.666666666667
60,296,2985,1,0,0:0:0:0:
206,334,3220,6,0,L|214:251,1,63.3333333333333
285,230,3573,1,0,0:0:0:0:
221,231,3691,2,0,L|120:229,1,95
33,227,4044,1,0,0:0:0:0:
126,229,4279,1,0,0:0:0:0:
376,240,4397,6,0,P|449:190|345:38,1,285
205,43,5102,1,0,0:0:0:0:
308,46,5338,2,0,L|425:45,1,63.3333333333333
447,45,5632,1,0,0:0:0:0:
128,60,5808,6,0,P|76:119|90:217,1,142.5
143,177,6161,2,0,P|131:257|62:352,1,190
164,343,6691,1,0,0:0:0:0:
421,341,6867,6,0,P|466:285|439:207,1,126.666666666667
422,192,7220,1,0,0:0:0:0:
338,182,7455,1,0,0:0:0:0:
306,175,7573,2,0,P|292:116|328:51,1,126.666666666667
225,107,8161,5,0,0:0:0:0:
161,105,8279,2,0,L|146:256,1,126.666666666667
288,197,8632,6,0,L|426:195,1,126.666666666667
322,201,8926,2,0,L|289:43,1,126.666666666667
399,77,9220,1,0,0:0:0:0:
209,58,9514,5,0,0:0:0:0:
164,98,9691,1,0,0:0:0:0:
209,142,9867,1,0,0:0:0:0:
345,145,10044,6,0,L|479:144,1,126.666666666667
468,147,10397,1,0,0:0:0:0:
351,219,10632,6,0,P|315:168|377:52,1,190
398,59,11102,1,0,0:0:0:0:
211,85,11455,6,0,L|58:88,1,126.666666666667
201,152,11985,2,0,L|446:144,1,190
244,101,12691,6,0,P|192:177|261:328,1,237.5
376,327,13220,1,0,0:0:0:0:
281,306,13455,1,0,0:0:0:0:
281,306,13573,1,0,0:0:0:0:
366,253,13749,1,0,0:0:0:0:
254,192,13926,6,0,L|172:193,2,47.5
477,183,14279,5,0,0:0:0:0:
359,184,14455,1,0,0:0:0:0:
256,183,14632,1,0,0:0:0:0:
488,112,14808,5,0,0:0:0:0:
23,125,14985,5,0,0:0:0:0:
124,126,15161,1,0,0:0:0:0:
227,124,15338,1,0,0:0:0:0:
22,68,15514,5,0,0:0:0:0:
401,47,15691,6,0,P|451:119|438:256,1,190
121,218,16220,2,0,P|143:142|248:83,1,190
452,88,16749,1,0,0:0:0:0:
321,88,16926,1,0,0:0:0:0:
189,192,17102,5,0,0:0:0:0:
34,188,17279,1,0,0:0:0:0:
189,192,17455,1,0,0:0:0:0:
34,188,17632,1,0,0:0:0:0:
338,195,17808,5,0,0:0:0:0:
174,194,17985,1,0,0:0:0:0:
505,196,18161,5,0,0:0:0:0:
332,192,18338,1,0,0:0:0:0:
505,196,18514,1,0,0:0:0:0:
332,190,18691,1,0,0:0:0:0:
505,196,18867,1,0,0:0:0:0:
184,191,19044,6,0,P|91:137|106:36,1,190
188,74,19573,1,0,0:0:0:0:
238,71,19661,1,0,0:0:0:0:
295,64,19749,1,0,0:0:0:0:
433,66,19926,5,0,0:0:0:0:
286,122,20102,1,0,0:0:0:0:
455,135,20279,1,0,0:0:0:0:
12,143,20455,5,0,0:0:0:0:
180,145,20632,1,0,0:0:0:0:
13,196,20808,1,0,0:0:0:0:
184,196,20985,1,0,0:0:0:0:
464,192,21161,5,0,0:0:0:0:
12,143,21514,5,0,0:0:0:0:
180,145,21691,1,0,0:0:0:0:
13,196,21867,1,0,0:0:0:0:
184,196,22044,1,0,0:0:0:0:
464,192,22220,5,0,0:0:0:0:
123,197,22397,1,0,0:0:0:0:
394,210,22573,6,0,P|451:149|387:74,1,190
283,87,23102,1,0,0:0:0:0:
395,85,23279,2,0,P|286:50|179:62,1,190
320,102,23808,1,0,0:0:0:0:
52,85,23985,6,0,P|8:128|63:268,1,190
107,249,24514,1,0,0:0:0:0:
203,263,24691,6,0,P|254:205|209:88,1,190
121,106,25220,1,0,0:0:0:0:
406,103,25397,1,0,0:0:0:0:
164,188,25573,6,0,L|6:187,1,142.500005435944
260,123,25926,2,0,L|80:122,1,142.500005435944
391,59,26279,2,0,L|227:57,1,142.500005435944
3,131,26632,2,0,L|156:132,1,142.500005435944
355,137,26985,2,0,L|507:136,1,142.500005435944
217,84,27338,2,0,L|376:87,1,142.500005435944
54,39,27691,2,0,L|226:34,1,142.500005435944
385,50,28044,1,0,0:0:0:0:
186,90,28220,1,0,0:0:0:0:
141,93,28397,6,0,P|95:189|152:262,1,190
221,255,28926,6,0,P|272:185|214:109,1,190
131,111,29455,1,0,0:0:0:0:
