osu file format v14

[General]
AudioFilename: audio.mp3
AudioLeadIn: 0
PreviewTime: 2102
Countdown: 0
SampleSet: Normal
StackLeniency: 0.7
Mode: 2
LetterboxInBreaks: 0
WidescreenStoryboard: 1

[Editor]
DistanceSpacing: 0.9
BeatDivisor: 4
GridSize: 4
TimelineZoom: 1

[Metadata]
Title:Harumachi Clover (Swing Arrangement) [Dictate Edit]
TitleUnicode:Harumachi Clover (Swing Arrangement) [Dictate Edit]
Artist:Will Stetson
ArtistUnicode:Will Stetson
Creator:fireyun06
Version:Platter
Source:OneRoom
Tags:Will Stetson Harumachi Clover (Swing Arrangement) [Dictate Edit] OneRoom Harder Than You Can Believe Overdose Rain Deluge Platter fireyun06 ctb Catch The Beats Osu
BeatmapID:1940050
BeatmapSetID:928868

[Difficulty]
HPDrainRate:3
CircleSize:3
OverallDifficulty:6
ApproachRate:8.5
SliderMultiplier:1.9
SliderTickRate:2

[Events]
//Background and Video events
0,0,"bg.jpg",0,0
//Break Periods
//Storyboard Layer 0 (Background)
//Storyboard Layer 1 (Fail)
//Storyboard Layer 2 (Pass)
//Storyboard Layer 3 (Foreground)
//Storyboard Sound Samples

[TimingPoints]
-1250,352.941176470588,4,1,0,20,1,0
14279,-100,4,1,0,20,0,1
25573,-66.6666666666667,4,1,0,20,0,0
28220,-100,4,1,0,20,0,0

[HitObjects]
262,255,44,5,0,0:0:0:0:
343,248,161,2,0,P|355:155|170:39,1,316.666666666667
263,40,867,2,0,P|170:101|282:236,1,316.666666666667
348,237,1573,6,0,P|297:182|194:177,1,126.666666666667
158,170,1926,2,0,P|247:122|341:131,1,190
429,138,2514,5,0,0:0:0:0:
352,137,2632,2,0,L|174:136,1,126.666666666667
145,134,2985,2,0,L|140:277,1,126.666666666667
229,217,3338,2,0,L|218:363,1,126.666666666667
303,346,3691,2,0,L|452:345,1,126.666666666667
436,268,4044,2,0,L|281:270,1,126.666666666667
236,267,4397,5,0,0:0:0:0:
90,264,4632,1,0,0:0:0:0:
161,269,4749,2,0,P|240:214|181:160,1,190
81,144,5691,5,0,0:0:0:0:
162,147,5808,2,0,L|318:140,1,126.666666666667
422,141,6161,2,0,L|234:136,1,126.666666666667
182,132,6514,1,0,0:0:0:0:
284,133,6749,1,0,0:0:0:0:
365,137,6867,6,0,P|401:228|358:248,1,126.666666666667
319,242,7220,2,0,L|182:243,1,126.666666666667
119,244,7573,2,0,L|118:109,1,126.666666666667
192,114,7926,2,0,P|276:135|241:254,1,190
191,223,8632,1,0,0:0:0:0:
71,217,8867,1,0,0:0:0:0:
191,223,9220,1,0,0:0:0:0:
342,222,9573,5,0,0:0:0:0:
424,217,9691,1,0,0:0:0:0:
224,221,9926,1,0,0:0:0:0:
158,218,10044,2,0,L|22:209,1,126.666666666667
117,152,10397,1,0,0:0:0:0:
231,151,10632,1,0,0:0:0:0:
325,153,10985,5,0,0:0:0:0:
239,146,11102,2,0,P|186:220|225:250,1,126.666666666667
267,236,11455,2,0,L|417:241,1,126.666666666667
256,230,12044,1,0,0:0:0:0:
94,218,12397,1,0,0:0:0:0:
198,239,12749,6,0,P|260:142|205:61,1,190
166,84,13220,1,0,0:0:0:0:
342,86,13455,1,0,0:0:0:0:
271,86,13573,1,0,0:0:0:0:
398,81,13808,1,0,0:0:0:0:
300,108,13926,5,0,0:0:0:0:
262,142,14014,1,0,0:0:0:0:
230,176,14102,1,0,0:0:0:0:
357,197,14279,1,0,0:0:0:0:
466,197,14455,1,0,0:0:0:0:
348,261,14632,1,0,0:0:0:0:
474,265,14808,1,0,0:0:0:0:
348,261,14985,6,0,L|215:263,1,95
156,265,15338,2,0,L|26:265,1,95
201,268,15691,1,0,0:0:0:0:
55,328,15867,1,0,0:0:0:0:
205,194,16044,1,0,0:0:0:0:
56,249,16220,6,0,P|50:179|212:46,1,285
315,41,16926,1,0,0:0:0:0:
471,87,17102,5,0,0:0:0:0:
360,93,17279,1,0,0:0:0:0:
247,96,17455,1,0,0:0:0:0:
360,93,17632,1,0,0:0:0:0:
249,202,17808,5,0,0:0:0:0:
373,203,17985,1,0,0:0:0:0:
493,199,18161,1,0,0:0:0:0:
373,203,18338,1,0,0:0:0:0:
249,202,18514,6,0,L|138:200,1,95
254,121,18867,2,0,L|389:121,1,95
478,107,19220,6,0,L|476:243,1,95
356,117,19573,2,0,L|356:237,1,95
236,105,19926,2,0,L|237:231,1,95
50,105,20279,5,0,0:0:0:0:
173,106,20455,1,0,0:0:0:0:
55,181,20632,1,0,0:0:0:0:
178,182,20808,1,0,0:0:0:0:
308,181,20985,1,0,0:0:0:0:
437,181,21161,2,0,P|476:119|489:77,1,95
310,92,21514,5,0,0:0:0:0:
451,84,21691,1,0,0:0:0:0:
310,165,21867,1,0,0:0:0:0:
176,163,22044,1,0,0:0:0:0:
39,167,22220,2,0,L|162:167,1,95
251,169,22573,1,0,0:0:0:0:
356,179,22749,6,0,P|402:116|321:42,1,190
245,43,23279,2,0,P|197:104|265:189,1,190
366,187,23808,5,0,0:0:0:0:
356,194,23985,6,0,P|402:257|321:331,1,190
245,330,24515,2,0,P|197:269|265:184,1,190
362,178,25044,5,0,0:0:0:0:
268,185,25220,2,0,L|149:180,1,95
20,179,25573,6,0,L|183:180,1,142.500005435944
335,183,25926,2,0,L|147:181,1,142.500005435944
20,179,26279,6,0,L|183:180,1,142.500005435944
335,183,26632,2,0,L|147:181,1,142.500005435944
192,181,26985,6,0,L|355:182,1,142.500005435944
507,185,27338,2,0,L|319:183,1,142.500005435944
192,181,27691,6,0,L|355:182,1,142.500005435944
507,185,28044,2,0,L|319:183,1,142.500005435944
262,182,28397,5,0,0:0:0:0:
129,180,28749,1,0,0:0:0:0:
129,180,28926,1,0,0:0:0:0:
278,187,29279,1,0,0:0:0:0:
278,187,29455,1,0,0:0:0:0:
